osu file format v14

[General]
AudioFilename: audio.mp3
AudioLeadIn: 0
PreviewTime: 75013
Countdown: 0
SampleSet: Soft
StackLeniency: 0.7
Mode: 3
LetterboxInBreaks: 0
SpecialStyle: 0
WidescreenStoryboard: 1

[Editor]
Bookmarks: 5451,15051,22251,27051,51051,55851,65451,74976,94176,103851,113451,115776
DistanceSpacing: 1.2
BeatDivisor: 4
GridSize: 4
TimelineZoom: 1.899999

[Metadata]
Title:Break Through Myself feat. Risa Yuzuki (Short Ver.)
TitleUnicode:Break Through Myself feat. Risa Yuzuki (Short Ver.)
Artist:DJ Myosuke & Laur
ArtistUnicode:DJ Myosuke & Laur
Creator:keksikosu
Version:Aix's Insane
Source:WACCA Reverse
Tags:TCDR-0097 TANO*C STORE 柚木梨沙 DJGenki Taiyo Yamamoto electronic instrumental hardcore techno j-core jcore female vocal Japanese AlexDunk axelowo Aix- _Hikari -H_i_k_a_r_i- Das-[Hikari]-
BeatmapID:3652679
BeatmapSetID:1780278

[Difficulty]
HPDrainRate:8
CircleSize:4
OverallDifficulty:7.5
ApproachRate:5
SliderMultiplier:1.4
SliderTickRate:1

[Events]
//Background and Video events
0,0,"BG.jpg",0,0
//Break Periods
//Storyboard Layer 0 (Background)
//Storyboard Layer 1 (Fail)
//Storyboard Layer 2 (Pass)
//Storyboard Layer 3 (Foreground)
//Storyboard Layer 4 (Overlay)
//Storyboard Sound Samples

[TimingPoints]
576,300,4,2,1,25,1,0
74976,-100,4,2,1,25,0,1
94176,-100,4,2,1,25,0,0
115776,-100,4,2,1,25,0,1
132576,-100,4,2,1,25,0,0

[HitObjects]
320,192,5376,128,0,6126:0:0:0:0:
64,192,5376,1,0,0:0:0:0:
448,192,5376,1,0,0:0:0:0:
192,192,6276,128,0,6576:0:0:0:0:
448,192,6576,128,0,6876:0:0:0:0:
64,192,6876,128,0,7176:0:0:0:0:
320,192,7176,128,0,7476:0:0:0:0:
192,192,7476,128,0,8376:0:0:0:0:
448,192,8676,128,0,8976:0:0:0:0:
64,192,8976,128,0,9276:0:0:0:0:
192,192,9276,128,0,9576:0:0:0:0:
320,192,9576,128,0,9876:0:0:0:0:
448,192,9876,128,0,10776:0:0:0:0:
320,192,11076,128,0,11376:0:0:0:0:
448,192,11376,128,0,11676:0:0:0:0:
64,192,11676,128,0,11976:0:0:0:0:
192,192,11976,128,0,12276:0:0:0:0:
320,192,12276,128,0,13326:0:0:0:0:
448,192,13476,128,0,13776:0:0:0:0:
64,192,13776,128,0,14076:0:0:0:0:
320,192,14076,128,0,14226:0:0:0:0:
64,192,14226,1,0,0:0:0:0:
448,192,14226,1,0,0:0:0:0:
192,192,14301,1,0,0:0:0:0:
320,192,14376,1,0,0:0:0:0:
448,192,14376,1,0,0:0:0:0:
192,192,14526,1,0,0:0:0:0:
64,192,14676,1,0,0:0:0:0:
448,192,14676,1,0,0:0:0:0:
320,192,14751,1,0,0:0:0:0:
192,192,14826,1,0,0:0:0:0:
448,192,14976,128,0,15051:0:0:0:0:
64,192,14976,128,0,15051:0:0:0:0:
320,192,14976,1,0,0:0:0:0:
64,192,15126,128,0,15201:0:0:0:0:
192,192,15126,128,0,15201:0:0:0:0:
448,192,15426,128,0,15501:0:0:0:0:
64,192,15426,128,0,15501:0:0:0:0:
64,192,15576,128,0,15651:0:0:0:0:
192,192,15576,128,0,15651:0:0:0:0:
64,192,15876,128,0,15951:0:0:0:0:
448,192,15876,128,0,15951:0:0:0:0:
64,192,16026,128,0,16101:0:0:0:0:
192,192,16026,128,0,16101:0:0:0:0:
192,192,16476,1,0,0:0:0:0:
64,192,16476,1,0,0:0:0:0:
64,192,16626,1,0,0:0:0:0:
448,192,16626,1,0,0:0:0:0:
448,192,16776,1,0,0:0:0:0:
320,192,16776,1,0,0:0:0:0:
192,192,16851,1,0,0:0:0:0:
64,192,16926,1,0,0:0:0:0:
448,192,17001,1,0,0:0:0:0:
192,192,17076,1,0,0:0:0:0:
320,192,17076,1,0,0:0:0:0:
64,192,17151,1,0,0:0:0:0:
448,192,17226,1,0,0:0:0:0:
320,192,17301,1,0,0:0:0:0:
448,192,17376,128,0,17451:0:0:0:0:
64,192,17376,128,0,17451:0:0:0:0:
192,192,17376,1,0,0:0:0:0:
448,192,17526,128,0,17601:0:0:0:0:
320,192,17526,128,0,17601:0:0:0:0:
448,192,17826,128,0,17901:0:0:0:0:
64,192,17826,128,0,17901:0:0:0:0:
192,192,17901,1,0,0:0:0:0:
448,192,17976,128,0,18051:0:0:0:0:
320,192,17976,128,0,18051:0:0:0:0:
448,192,18276,128,0,18351:0:0:0:0:
64,192,18276,128,0,18351:0:0:0:0:
448,192,18426,128,0,18501:0:0:0:0:
320,192,18426,128,0,18501:0:0:0:0:
448,192,18876,1,0,0:0:0:0:
64,192,18876,1,0,0:0:0:0:
320,192,18951,1,0,0:0:0:0:
192,192,19026,1,0,0:0:0:0:
64,192,19101,1,0,0:0:0:0:
320,192,19176,1,0,0:0:0:0:
448,192,19176,1,0,0:0:0:0:
192,192,19251,1,0,0:0:0:0:
320,192,19326,1,0,0:0:0:0:
64,192,19401,1,0,0:0:0:0:
192,192,19476,1,0,0:0:0:0:
448,192,19476,1,0,0:0:0:0:
320,192,19626,1,0,0:0:0:0:
192,192,19701,1,0,0:0:0:0:
64,192,19776,128,0,19851:0:0:0:0:
448,192,19776,128,0,19851:0:0:0:0:
320,192,19851,1,0,0:0:0:0:
64,192,19926,128,0,20001:0:0:0:0:
192,192,19926,128,0,20001:0:0:0:0:
448,192,20226,128,0,20301:0:0:0:0:
64,192,20226,128,0,20301:0:0:0:0:
320,192,20301,1,0,0:0:0:0:
64,192,20376,128,0,20451:0:0:0:0:
192,192,20376,128,0,20451:0:0:0:0:
448,192,20676,128,0,20751:0:0:0:0:
64,192,20676,128,0,20751:0:0:0:0:
320,192,20751,1,0,0:0:0:0:
64,192,20826,128,0,20901:0:0:0:0:
192,192,20826,128,0,20901:0:0:0:0:
448,192,20976,5,0,0:0:0:0:
192,192,20976,1,0,0:0:0:0:
64,192,21076,1,0,0:0:0:0:
448,192,21176,1,0,0:0:0:0:
320,192,21276,1,0,0:0:0:0:
192,192,21276,1,0,0:0:0:0:
64,192,21376,1,0,0:0:0:0:
448,192,21476,1,0,0:0:0:0:
320,192,21576,1,0,0:0:0:0:
64,192,21576,1,0,0:0:0:0:
192,192,21651,1,0,0:0:0:0:
320,192,21726,1,0,0:0:0:0:
448,192,21726,1,0,0:0:0:0:
64,192,21801,1,0,0:0:0:0:
448,192,21876,1,0,0:0:0:0:
320,192,21926,1,0,0:0:0:0:
192,192,21976,1,0,0:0:0:0:
64,192,22026,1,0,0:0:0:0:
448,192,22076,1,0,0:0:0:0:
320,192,22126,1,0,0:0:0:0:
64,192,22176,1,0,0:0:0:0:
192,192,22176,128,0,22476:0:0:0:0:
320,192,22476,1,0,0:0:0:0:
448,192,22476,1,0,0:0:0:0:
64,192,22626,1,0,0:0:0:0:
192,192,22626,1,0,0:0:0:0:
64,192,22776,1,0,0:0:0:0:
448,192,22776,1,0,0:0:0:0:
192,192,22926,1,0,0:0:0:0:
320,192,22926,1,0,0:0:0:0:
192,192,23076,1,0,0:0:0:0:
64,192,23076,1,0,0:0:0:0:
320,192,23226,1,0,0:0:0:0:
448,192,23226,1,0,0:0:0:0:
192,192,23301,1,0,0:0:0:0:
64,192,23376,1,0,0:0:0:0:
448,192,23376,1,0,0:0:0:0:
320,192,23451,1,0,0:0:0:0:
192,192,23526,1,0,0:0:0:0:
64,192,23601,1,0,0:0:0:0:
448,192,23676,1,0,0:0:0:0:
320,192,23676,1,0,0:0:0:0:
192,192,23751,1,0,0:0:0:0:
448,192,23826,1,0,0:0:0:0:
64,192,23901,1,0,0:0:0:0:
192,192,23976,1,0,0:0:0:0:
320,192,23976,1,0,0:0:0:0:
448,192,24051,1,0,0:0:0:0:
64,192,24126,1,0,0:0:0:0:
192,192,24201,1,0,0:0:0:0:
320,192,24276,1,0,0:0:0:0:
448,192,24276,128,0,24576:0:0:0:0:
64,192,24576,1,0,0:0:0:0:
64,192,24876,128,0,25176:0:0:0:0:
192,192,25176,128,0,25476:0:0:0:0:
448,192,25476,128,0,25626:0:0:0:0:
320,192,25626,1,0,0:0:0:0:
192,192,25701,1,0,0:0:0:0:
320,192,25776,1,0,0:0:0:0:
448,192,25776,1,0,0:0:0:0:
64,192,25776,1,0,0:0:0:0:
192,192,25926,1,0,0:0:0:0:
320,192,26001,1,0,0:0:0:0:
64,192,26076,1,0,0:0:0:0:
448,192,26076,1,0,0:0:0:0:
192,192,26151,1,0,0:0:0:0:
320,192,26226,1,0,0:0:0:0:
448,192,26301,1,0,0:0:0:0:
64,192,26376,1,0,0:0:0:0:
192,192,26376,1,0,0:0:0:0:
320,192,26451,1,0,0:0:0:0:
64,192,26526,1,0,0:0:0:0:
448,192,26601,1,0,0:0:0:0:
192,192,26676,1,0,0:0:0:0:
320,192,26676,1,0,0:0:0:0:
64,192,26751,1,0,0:0:0:0:
320,192,26826,1,0,0:0:0:0:
448,192,26826,1,0,0:0:0:0:
192,192,26976,1,0,0:0:0:0:
448,192,26976,1,0,0:0:0:0:
64,192,26976,1,0,0:0:0:0:
192,192,27126,1,0,0:0:0:0:
320,192,27126,1,0,0:0:0:0:
64,192,27276,1,0,0:0:0:0:
448,192,27276,1,0,0:0:0:0:
192,192,27426,1,0,0:0:0:0:
320,192,27426,1,0,0:0:0:0:
192,192,27576,1,0,0:0:0:0:
64,192,27576,1,0,0:0:0:0:
320,192,27651,1,0,0:0:0:0:
448,192,27726,1,0,0:0:0:0:
64,192,27726,1,0,0:0:0:0:
320,192,27876,1,0,0:0:0:0:
448,192,27876,1,0,0:0:0:0:
192,192,28026,1,0,0:0:0:0:
320,192,28026,1,0,0:0:0:0:
64,192,28176,1,0,0:0:0:0:
448,192,28176,1,0,0:0:0:0:
320,192,28326,1,0,0:0:0:0:
192,192,28326,1,0,0:0:0:0:
320,192,28476,1,0,0:0:0:0:
448,192,28476,1,0,0:0:0:0:
192,192,28551,1,0,0:0:0:0:
64,192,28626,1,0,0:0:0:0:
448,192,28626,1,0,0:0:0:0:
192,192,28776,1,0,0:0:0:0:
64,192,28776,1,0,0:0:0:0:
320,192,28926,1,0,0:0:0:0:
192,192,28926,1,0,0:0:0:0:
64,192,29076,1,0,0:0:0:0:
448,192,29076,1,0,0:0:0:0:
320,192,29226,1,0,0:0:0:0:
192,192,29226,1,0,0:0:0:0:
448,192,29301,1,0,0:0:0:0:
192,192,29376,1,0,0:0:0:0:
64,192,29376,1,0,0:0:0:0:
192,192,29526,1,0,0:0:0:0:
320,192,29526,1,0,0:0:0:0:
448,192,29676,1,0,0:0:0:0:
64,192,29676,1,0,0:0:0:0:
192,192,29826,1,0,0:0:0:0:
320,192,29826,1,0,0:0:0:0:
448,192,29976,1,0,0:0:0:0:
320,192,29976,1,0,0:0:0:0:
192,192,30051,1,0,0:0:0:0:
64,192,30126,1,0,0:0:0:0:
448,192,30126,1,0,0:0:0:0:
192,192,30276,1,0,0:0:0:0:
64,192,30276,1,0,0:0:0:0:
192,192,30426,1,0,0:0:0:0:
320,192,30426,1,0,0:0:0:0:
448,192,30576,1,0,0:0:0:0:
64,192,30576,1,0,0:0:0:0:
192,192,30726,1,0,0:0:0:0:
320,192,30726,1,0,0:0:0:0:
448,192,30876,1,0,0:0:0:0:
320,192,30876,1,0,0:0:0:0:
192,192,30951,1,0,0:0:0:0:
64,192,31026,1,0,0:0:0:0:
448,192,31026,1,0,0:0:0:0:
192,192,31176,1,0,0:0:0:0:
64,192,31176,1,0,0:0:0:0:
448,192,31251,1,0,0:0:0:0:
64,192,31326,1,0,0:0:0:0:
320,192,31326,1,0,0:0:0:0:
320,192,31476,1,0,0:0:0:0:
448,192,31476,1,0,0:0:0:0:
64,192,31551,1,0,0:0:0:0:
192,192,31626,1,0,0:0:0:0:
448,192,31626,1,0,0:0:0:0:
320,192,31776,1,0,0:0:0:0:
448,192,31776,1,0,0:0:0:0:
64,192,31776,1,0,0:0:0:0:
192,192,31926,1,0,0:0:0:0:
320,192,31926,1,0,0:0:0:0:
64,192,32076,1,0,0:0:0:0:
448,192,32076,1,0,0:0:0:0:
320,192,32226,1,0,0:0:0:0:
192,192,32226,1,0,0:0:0:0:
192,192,32376,1,0,0:0:0:0:
64,192,32376,1,0,0:0:0:0:
320,192,32451,1,0,0:0:0:0:
448,192,32526,1,0,0:0:0:0:
64,192,32526,1,0,0:0:0:0:
320,192,32676,1,0,0:0:0:0:
448,192,32676,1,0,0:0:0:0:
192,192,32826,1,0,0:0:0:0:
320,192,32826,1,0,0:0:0:0:
64,192,32976,1,0,0:0:0:0:
448,192,32976,1,0,0:0:0:0:
320,192,33126,1,0,0:0:0:0:
192,192,33126,1,0,0:0:0:0:
320,192,33276,1,0,0:0:0:0:
448,192,33276,1,0,0:0:0:0:
192,192,33351,1,0,0:0:0:0:
64,192,33426,1,0,0:0:0:0:
448,192,33426,1,0,0:0:0:0:
192,192,33576,1,0,0:0:0:0:
64,192,33576,1,0,0:0:0:0:
192,192,33726,1,0,0:0:0:0:
320,192,33726,1,0,0:0:0:0:
448,192,33876,1,0,0:0:0:0:
64,192,33876,1,0,0:0:0:0:
192,192,34026,1,0,0:0:0:0:
320,192,34026,1,0,0:0:0:0:
448,192,34101,1,0,0:0:0:0:
64,192,34176,1,0,0:0:0:0:
192,192,34176,1,0,0:0:0:0:
192,192,34326,1,0,0:0:0:0:
320,192,34326,1,0,0:0:0:0:
448,192,34476,1,0,0:0:0:0:
64,192,34476,1,0,0:0:0:0:
192,192,34626,1,0,0:0:0:0:
320,192,34626,1,0,0:0:0:0:
192,192,34776,1,0,0:0:0:0:
64,192,34776,1,0,0:0:0:0:
320,192,34851,1,0,0:0:0:0:
448,192,34926,1,0,0:0:0:0:
64,192,34926,1,0,0:0:0:0:
320,192,35076,1,0,0:0:0:0:
448,192,35076,1,0,0:0:0:0:
192,192,35226,1,0,0:0:0:0:
320,192,35226,1,0,0:0:0:0:
192,192,35376,1,0,0:0:0:0:
64,192,35376,1,0,0:0:0:0:
320,192,35451,5,0,0:0:0:0:
448,192,35526,1,0,0:0:0:0:
64,192,35601,1,0,0:0:0:0:
320,192,35676,1,0,0:0:0:0:
192,192,35676,1,0,0:0:0:0:
448,192,35676,1,0,0:0:0:0:
320,192,35826,1,0,0:0:0:0:
448,192,35901,1,0,0:0:0:0:
192,192,35976,1,0,0:0:0:0:
64,192,35976,1,0,0:0:0:0:
320,192,36051,1,0,0:0:0:0:
448,192,36126,1,0,0:0:0:0:
64,192,36201,1,0,0:0:0:0:
192,192,36276,1,0,0:0:0:0:
320,192,36276,1,0,0:0:0:0:
448,192,36351,1,0,0:0:0:0:
192,192,36426,1,0,0:0:0:0:
64,192,36426,1,0,0:0:0:0:
320,192,36501,1,0,0:0:0:0:
192,192,36576,5,0,0:0:0:0:
64,192,36576,1,0,0:0:0:0:
448,192,36576,1,0,0:0:0:0:
192,192,36726,1,0,0:0:0:0:
320,192,36726,1,0,0:0:0:0:
448,192,36876,1,0,0:0:0:0:
64,192,36876,1,0,0:0:0:0:
192,192,37026,1,0,0:0:0:0:
320,192,37026,1,0,0:0:0:0:
320,192,37176,1,0,0:0:0:0:
448,192,37176,1,0,0:0:0:0:
192,192,37251,1,0,0:0:0:0:
64,192,37326,1,0,0:0:0:0:
448,192,37326,1,0,0:0:0:0:
192,192,37476,1,0,0:0:0:0:
64,192,37476,1,0,0:0:0:0:
320,192,37626,1,0,0:0:0:0:
192,192,37626,1,0,0:0:0:0:
64,192,37776,1,0,0:0:0:0:
448,192,37776,1,0,0:0:0:0:
320,192,37926,1,0,0:0:0:0:
192,192,37926,1,0,0:0:0:0:
64,192,38076,1,0,0:0:0:0:
192,192,38076,1,0,0:0:0:0:
320,192,38151,1,0,0:0:0:0:
448,192,38226,1,0,0:0:0:0:
64,192,38226,1,0,0:0:0:0:
448,192,38376,1,0,0:0:0:0:
320,192,38376,1,0,0:0:0:0:
192,192,38526,1,0,0:0:0:0:
320,192,38526,1,0,0:0:0:0:
64,192,38676,1,0,0:0:0:0:
448,192,38676,1,0,0:0:0:0:
320,192,38826,1,0,0:0:0:0:
192,192,38826,1,0,0:0:0:0:
448,192,38901,1,0,0:0:0:0:
192,192,38976,1,0,0:0:0:0:
64,192,38976,1,0,0:0:0:0:
320,192,39126,1,0,0:0:0:0:
192,192,39126,1,0,0:0:0:0:
448,192,39276,1,0,0:0:0:0:
64,192,39276,1,0,0:0:0:0:
192,192,39426,1,0,0:0:0:0:
320,192,39426,1,0,0:0:0:0:
320,192,39576,1,0,0:0:0:0:
448,192,39576,1,0,0:0:0:0:
192,192,39651,1,0,0:0:0:0:
64,192,39726,1,0,0:0:0:0:
448,192,39726,1,0,0:0:0:0:
192,192,39876,1,0,0:0:0:0:
64,192,39876,1,0,0:0:0:0:
192,192,40026,1,0,0:0:0:0:
320,192,40026,1,0,0:0:0:0:
448,192,40176,1,0,0:0:0:0:
320,192,40176,1,0,0:0:0:0:
192,192,40251,1,0,0:0:0:0:
64,192,40326,1,0,0:0:0:0:
448,192,40326,1,0,0:0:0:0:
320,192,40401,1,0,0:0:0:0:
192,192,40476,1,0,0:0:0:0:
64,192,40476,1,0,0:0:0:0:
320,192,40626,1,0,0:0:0:0:
448,192,40626,1,0,0:0:0:0:
192,192,40701,1,0,0:0:0:0:
64,192,40776,1,0,0:0:0:0:
448,192,40776,1,0,0:0:0:0:
320,192,40851,1,0,0:0:0:0:
192,192,40926,1,0,0:0:0:0:
64,192,40926,1,0,0:0:0:0:
320,192,41001,1,0,0:0:0:0:
448,192,41076,1,0,0:0:0:0:
64,192,41076,1,0,0:0:0:0:
192,192,41226,1,0,0:0:0:0:
320,192,41301,1,0,0:0:0:0:
192,192,41376,1,0,0:0:0:0:
64,192,41376,1,0,0:0:0:0:
448,192,41376,1,0,0:0:0:0:
320,192,41526,1,0,0:0:0:0:
192,192,41526,1,0,0:0:0:0:
448,192,41676,1,0,0:0:0:0:
64,192,41676,1,0,0:0:0:0:
192,192,41826,1,0,0:0:0:0:
320,192,41826,1,0,0:0:0:0:
192,192,41976,1,0,0:0:0:0:
64,192,41976,1,0,0:0:0:0:
320,192,42051,1,0,0:0:0:0:
448,192,42126,1,0,0:0:0:0:
64,192,42126,1,0,0:0:0:0:
320,192,42276,1,0,0:0:0:0:
448,192,42276,1,0,0:0:0:0:
192,192,42426,1,0,0:0:0:0:
320,192,42426,1,0,0:0:0:0:
64,192,42576,1,0,0:0:0:0:
448,192,42576,1,0,0:0:0:0:
320,192,42726,1,0,0:0:0:0:
192,192,42726,1,0,0:0:0:0:
320,192,42876,1,0,0:0:0:0:
448,192,42876,1,0,0:0:0:0:
192,192,42951,1,0,0:0:0:0:
64,192,43026,1,0,0:0:0:0:
448,192,43026,1,0,0:0:0:0:
192,192,43176,1,0,0:0:0:0:
64,192,43176,1,0,0:0:0:0:
192,192,43326,1,0,0:0:0:0:
320,192,43326,1,0,0:0:0:0:
448,192,43476,1,0,0:0:0:0:
64,192,43476,1,0,0:0:0:0:
192,192,43626,1,0,0:0:0:0:
320,192,43626,1,0,0:0:0:0:
64,192,43701,1,0,0:0:0:0:
320,192,43776,1,0,0:0:0:0:
448,192,43776,1,0,0:0:0:0:
192,192,43926,1,0,0:0:0:0:
320,192,43926,1,0,0:0:0:0:
64,192,44076,1,0,0:0:0:0:
448,192,44076,1,0,0:0:0:0:
320,192,44226,1,0,0:0:0:0:
192,192,44226,1,0,0:0:0:0:
192,192,44376,1,0,0:0:0:0:
64,192,44376,1,0,0:0:0:0:
320,192,44451,1,0,0:0:0:0:
448,192,44526,1,0,0:0:0:0:
64,192,44526,1,0,0:0:0:0:
320,192,44676,1,0,0:0:0:0:
448,192,44676,1,0,0:0:0:0:
192,192,44826,1,0,0:0:0:0:
320,192,44826,1,0,0:0:0:0:
64,192,44976,1,0,0:0:0:0:
448,192,44976,1,0,0:0:0:0:
192,192,45051,1,0,0:0:0:0:
448,192,45126,1,0,0:0:0:0:
320,192,45126,1,0,0:0:0:0:
192,192,45201,1,0,0:0:0:0:
64,192,45276,1,0,0:0:0:0:
448,192,45276,1,0,0:0:0:0:
320,192,45426,5,0,0:0:0:0:
192,192,45501,1,0,0:0:0:0:
64,192,45576,1,0,0:0:0:0:
448,192,45576,1,0,0:0:0:0:
320,192,45651,1,0,0:0:0:0:
192,192,45726,1,0,0:0:0:0:
448,192,45801,1,0,0:0:0:0:
192,192,45876,5,0,0:0:0:0:
64,192,45876,1,0,0:0:0:0:
320,192,45951,1,0,0:0:0:0:
448,192,46026,1,0,0:0:0:0:
64,192,46026,1,0,0:0:0:0:
192,192,46101,1,0,0:0:0:0:
64,192,46176,5,0,0:0:0:0:
320,192,46176,1,0,0:0:0:0:
448,192,46176,1,0,0:0:0:0:
320,192,46476,1,0,0:0:0:0:
448,192,46476,1,0,0:0:0:0:
192,192,46626,1,0,0:0:0:0:
64,192,46626,1,0,0:0:0:0:
320,192,46776,1,0,0:0:0:0:
448,192,46776,1,0,0:0:0:0:
192,192,46926,1,0,0:0:0:0:
64,192,46926,1,0,0:0:0:0:
320,192,47076,1,0,0:0:0:0:
448,192,47076,1,0,0:0:0:0:
192,192,47226,1,0,0:0:0:0:
64,192,47226,1,0,0:0:0:0:
320,192,47301,1,0,0:0:0:0:
448,192,47376,1,0,0:0:0:0:
64,192,47376,1,0,0:0:0:0:
192,192,47526,1,0,0:0:0:0:
320,192,47526,1,0,0:0:0:0:
64,192,47676,1,0,0:0:0:0:
448,192,47676,1,0,0:0:0:0:
192,192,47826,1,0,0:0:0:0:
320,192,47826,1,0,0:0:0:0:
64,192,47901,1,0,0:0:0:0:
448,192,47976,1,0,0:0:0:0:
320,192,47976,1,0,0:0:0:0:
192,192,48126,1,0,0:0:0:0:
64,192,48126,1,0,0:0:0:0:
448,192,48276,1,0,0:0:0:0:
320,192,48276,1,0,0:0:0:0:
64,192,48426,1,0,0:0:0:0:
192,192,48426,1,0,0:0:0:0:
320,192,48501,1,0,0:0:0:0:
448,192,48576,1,0,0:0:0:0:
64,192,48576,1,0,0:0:0:0:
192,192,48651,1,0,0:0:0:0:
320,192,48726,1,0,0:0:0:0:
448,192,48801,1,0,0:0:0:0:
192,192,48876,1,0,0:0:0:0:
64,192,48876,1,0,0:0:0:0:
320,192,48951,1,0,0:0:0:0:
448,192,49026,1,0,0:0:0:0:
64,192,49101,1,0,0:0:0:0:
448,192,49176,1,0,0:0:0:0:
192,192,49176,1,0,0:0:0:0:
320,192,49251,1,0,0:0:0:0:
192,192,49326,1,0,0:0:0:0:
64,192,49401,1,0,0:0:0:0:
448,192,49476,1,0,0:0:0:0:
320,192,49476,1,0,0:0:0:0:
192,192,49551,1,0,0:0:0:0:
448,192,49626,1,0,0:0:0:0:
320,192,49701,1,0,0:0:0:0:
192,192,49776,1,0,0:0:0:0:
64,192,49776,1,0,0:0:0:0:
448,192,49851,1,0,0:0:0:0:
320,192,49926,1,0,0:0:0:0:
64,192,49926,1,0,0:0:0:0:
448,192,50001,1,0,0:0:0:0:
192,192,50076,1,0,0:0:0:0:
64,192,50076,1,0,0:0:0:0:
320,192,50151,1,0,0:0:0:0:
192,192,50226,1,0,0:0:0:0:
64,192,50301,1,0,0:0:0:0:
320,192,50376,1,0,0:0:0:0:
448,192,50376,1,0,0:0:0:0:
192,192,50451,1,0,0:0:0:0:
64,192,50526,1,0,0:0:0:0:
320,192,50526,1,0,0:0:0:0:
192,192,50601,1,0,0:0:0:0:
320,192,50676,1,0,0:0:0:0:
448,192,50676,1,0,0:0:0:0:
64,192,50751,1,0,0:0:0:0:
192,192,50826,1,0,0:0:0:0:
320,192,50901,1,0,0:0:0:0:
448,192,50976,128,0,55626:0:0:0:0:
64,192,50976,1,0,0:0:0:0:
192,192,50976,1,0,0:0:0:0:
320,192,51426,128,0,55626:0:0:0:0:
64,192,53376,128,0,55626:0:0:0:0:
64,192,55776,1,0,0:0:0:0:
448,192,55776,128,0,55926:0:0:0:0:
320,192,55776,1,0,0:0:0:0:
64,192,55926,128,0,56076:0:0:0:0:
192,192,56076,128,0,56226:0:0:0:0:
448,192,56076,1,0,0:0:0:0:
320,192,56226,1,0,0:0:0:0:
64,192,56301,1,0,0:0:0:0:
320,192,56376,128,0,56526:0:0:0:0:
192,192,56376,1,0,0:0:0:0:
448,192,56526,1,0,0:0:0:0:
64,192,56601,1,0,0:0:0:0:
448,192,56676,128,0,56826:0:0:0:0:
320,192,56676,1,0,0:0:0:0:
64,192,56826,128,0,56976:0:0:0:0:
448,192,56976,1,0,0:0:0:0:
320,192,56976,1,0,0:0:0:0:
320,192,57126,128,0,57276:0:0:0:0:
192,192,57276,1,0,0:0:0:0:
64,192,57276,1,0,0:0:0:0:
448,192,57351,1,0,0:0:0:0:
320,192,57426,128,0,57576:0:0:0:0:
192,192,57576,1,0,0:0:0:0:
64,192,57576,1,0,0:0:0:0:
448,192,57651,1,0,0:0:0:0:
64,192,57726,1,0,0:0:0:0:
320,192,57801,1,0,0:0:0:0:
64,192,57876,128,0,58026:0:0:0:0:
192,192,57876,1,0,0:0:0:0:
448,192,58026,128,0,58176:0:0:0:0:
320,192,58026,1,0,0:0:0:0:
64,192,58176,1,0,0:0:0:0:
192,192,58176,1,0,0:0:0:0:
320,192,58251,1,0,0:0:0:0:
192,192,58326,128,0,58476:0:0:0:0:
320,192,58476,1,0,0:0:0:0:
448,192,58476,1,0,0:0:0:0:
64,192,58551,1,0,0:0:0:0:
192,192,58626,128,0,58776:0:0:0:0:
320,192,58776,1,0,0:0:0:0:
448,192,58776,1,0,0:0:0:0:
64,192,58851,1,0,0:0:0:0:
192,192,58926,128,0,59076:0:0:0:0:
448,192,59076,128,0,59226:0:0:0:0:
320,192,59076,1,0,0:0:0:0:
64,192,59226,128,0,59376:0:0:0:0:
320,192,59376,128,0,59526:0:0:0:0:
192,192,59376,1,0,0:0:0:0:
448,192,59526,1,0,0:0:0:0:
64,192,59601,1,0,0:0:0:0:
192,192,59676,128,0,59826:0:0:0:0:
448,192,59676,1,0,0:0:0:0:
64,192,59826,1,0,0:0:0:0:
448,192,59901,1,0,0:0:0:0:
64,192,59976,128,0,60126:0:0:0:0:
192,192,59976,1,0,0:0:0:0:
320,192,60126,1,0,0:0:0:0:
192,192,60201,1,0,0:0:0:0:
64,192,60276,1,0,0:0:0:0:
320,192,60276,1,0,0:0:0:0:
448,192,60351,1,0,0:0:0:0:
192,192,60426,1,0,0:0:0:0:
64,192,60426,1,0,0:0:0:0:
320,192,60501,1,0,0:0:0:0:
448,192,60576,128,0,60726:0:0:0:0:
192,192,60576,1,0,0:0:0:0:
64,192,60726,128,0,60876:0:0:0:0:
192,192,60876,128,0,61026:0:0:0:0:
448,192,60876,1,0,0:0:0:0:
320,192,61026,1,0,0:0:0:0:
64,192,61101,1,0,0:0:0:0:
320,192,61176,128,0,61326:0:0:0:0:
192,192,61176,1,0,0:0:0:0:
448,192,61326,1,0,0:0:0:0:
64,192,61401,1,0,0:0:0:0:
448,192,61476,128,0,61626:0:0:0:0:
320,192,61476,1,0,0:0:0:0:
64,192,61626,128,0,61776:0:0:0:0:
448,192,61776,1,0,0:0:0:0:
320,192,61776,1,0,0:0:0:0:
320,192,61926,128,0,62076:0:0:0:0:
192,192,62076,1,0,0:0:0:0:
64,192,62076,1,0,0:0:0:0:
448,192,62151,1,0,0:0:0:0:
320,192,62226,128,0,62376:0:0:0:0:
192,192,62376,1,0,0:0:0:0:
64,192,62376,1,0,0:0:0:0:
448,192,62451,1,0,0:0:0:0:
64,192,62526,1,0,0:0:0:0:
320,192,62601,1,0,0:0:0:0:
64,192,62676,128,0,62826:0:0:0:0:
192,192,62676,1,0,0:0:0:0:
448,192,62826,128,0,62976:0:0:0:0:
320,192,62826,1,0,0:0:0:0:
64,192,62976,1,0,0:0:0:0:
192,192,62976,1,0,0:0:0:0:
320,192,63051,1,0,0:0:0:0:
192,192,63126,128,0,63276:0:0:0:0:
320,192,63276,1,0,0:0:0:0:
448,192,63276,1,0,0:0:0:0:
64,192,63351,1,0,0:0:0:0:
192,192,63426,128,0,63576:0:0:0:0:
320,192,63576,1,0,0:0:0:0:
448,192,63576,1,0,0:0:0:0:
64,192,63651,1,0,0:0:0:0:
192,192,63726,128,0,63876:0:0:0:0:
64,192,63876,1,0,0:0:0:0:
320,192,63876,1,0,0:0:0:0:
448,192,63951,1,0,0:0:0:0:
64,192,64026,128,0,64176:0:0:0:0:
192,192,64176,128,0,64326:0:0:0:0:
320,192,64176,1,0,0:0:0:0:
448,192,64326,1,0,0:0:0:0:
64,192,64401,1,0,0:0:0:0:
448,192,64476,128,0,64626:0:0:0:0:
320,192,64476,1,0,0:0:0:0:
320,192,64626,128,0,64776:0:0:0:0:
64,192,64776,128,0,64926:0:0:0:0:
192,192,64776,1,0,0:0:0:0:
320,192,64926,1,0,0:0:0:0:
192,192,65001,1,0,0:0:0:0:
320,192,65076,1,0,0:0:0:0:
64,192,65076,1,0,0:0:0:0:
448,192,65151,1,0,0:0:0:0:
64,192,65226,1,0,0:0:0:0:
448,192,65301,1,0,0:0:0:0:
192,192,65376,5,0,0:0:0:0:
320,192,65376,1,0,0:0:0:0:
64,192,65376,1,0,0:0:0:0:
320,192,65526,1,0,0:0:0:0:
448,192,65676,1,0,0:0:0:0:
64,192,65676,1,0,0:0:0:0:
64,192,65826,1,0,0:0:0:0:
320,192,65976,1,0,0:0:0:0:
448,192,65976,1,0,0:0:0:0:
448,192,66126,1,0,0:0:0:0:
192,192,66276,1,0,0:0:0:0:
64,192,66276,1,0,0:0:0:0:
192,192,66426,1,0,0:0:0:0:
320,192,66576,1,0,0:0:0:0:
64,192,66576,1,0,0:0:0:0:
320,192,66726,1,0,0:0:0:0:
64,192,66876,1,0,0:0:0:0:
448,192,66876,1,0,0:0:0:0:
64,192,67026,1,0,0:0:0:0:
320,192,67176,1,0,0:0:0:0:
448,192,67176,1,0,0:0:0:0:
448,192,67326,1,0,0:0:0:0:
64,192,67476,1,0,0:0:0:0:
192,192,67476,1,0,0:0:0:0:
320,192,67626,1,0,0:0:0:0:
192,192,67626,1,0,0:0:0:0:
448,192,67776,1,0,0:0:0:0:
64,192,67776,1,0,0:0:0:0:
320,192,67776,1,0,0:0:0:0:
320,192,67926,1,0,0:0:0:0:
448,192,68076,1,0,0:0:0:0:
64,192,68076,1,0,0:0:0:0:
64,192,68226,1,0,0:0:0:0:
192,192,68301,1,0,0:0:0:0:
320,192,68376,1,0,0:0:0:0:
448,192,68376,1,0,0:0:0:0:
448,192,68526,1,0,0:0:0:0:
320,192,68601,1,0,0:0:0:0:
192,192,68676,1,0,0:0:0:0:
64,192,68676,1,0,0:0:0:0:
192,192,68826,1,0,0:0:0:0:
320,192,68976,1,0,0:0:0:0:
64,192,68976,1,0,0:0:0:0:
320,192,69126,1,0,0:0:0:0:
448,192,69276,1,0,0:0:0:0:
64,192,69276,1,0,0:0:0:0:
64,192,69426,1,0,0:0:0:0:
192,192,69501,1,0,0:0:0:0:
320,192,69576,1,0,0:0:0:0:
448,192,69576,1,0,0:0:0:0:
448,192,69726,1,0,0:0:0:0:
320,192,69801,1,0,0:0:0:0:
192,192,69876,1,0,0:0:0:0:
64,192,69876,1,0,0:0:0:0:
448,192,69951,1,0,0:0:0:0:
192,192,70026,1,0,0:0:0:0:
64,192,70026,1,0,0:0:0:0:
320,192,70101,1,0,0:0:0:0:
64,192,70176,1,0,0:0:0:0:
192,192,70176,1,0,0:0:0:0:
448,192,70176,1,0,0:0:0:0:
320,192,70326,1,0,0:0:0:0:
448,192,70326,1,0,0:0:0:0:
192,192,70476,1,0,0:0:0:0:
64,192,70476,1,0,0:0:0:0:
320,192,70626,1,0,0:0:0:0:
448,192,70626,1,0,0:0:0:0:
192,192,70776,1,0,0:0:0:0:
64,192,70776,1,0,0:0:0:0:
320,192,70926,1,0,0:0:0:0:
448,192,70926,1,0,0:0:0:0:
192,192,71076,1,0,0:0:0:0:
64,192,71076,1,0,0:0:0:0:
320,192,71226,1,0,0:0:0:0:
448,192,71226,1,0,0:0:0:0:
64,192,71376,1,0,0:0:0:0:
192,192,71376,1,0,0:0:0:0:
320,192,71451,1,0,0:0:0:0:
448,192,71526,1,0,0:0:0:0:
64,192,71526,1,0,0:0:0:0:
192,192,71601,1,0,0:0:0:0:
320,192,71676,1,0,0:0:0:0:
448,192,71676,1,0,0:0:0:0:
192,192,71751,1,0,0:0:0:0:
64,192,71826,1,0,0:0:0:0:
448,192,71826,1,0,0:0:0:0:
320,192,71901,1,0,0:0:0:0:
192,192,71976,1,0,0:0:0:0:
64,192,71976,1,0,0:0:0:0:
448,192,72051,1,0,0:0:0:0:
320,192,72126,1,0,0:0:0:0:
64,192,72126,1,0,0:0:0:0:
192,192,72201,1,0,0:0:0:0:
320,192,72276,1,0,0:0:0:0:
448,192,72276,1,0,0:0:0:0:
64,192,72351,1,0,0:0:0:0:
448,192,72426,1,0,0:0:0:0:
320,192,72426,1,0,0:0:0:0:
64,192,72501,1,0,0:0:0:0:
448,192,72576,1,0,0:0:0:0:
192,192,72576,1,0,0:0:0:0:
320,192,72576,1,0,0:0:0:0:
64,192,72726,1,0,0:0:0:0:
320,192,72801,1,0,0:0:0:0:
192,192,72876,1,0,0:0:0:0:
448,192,73026,1,0,0:0:0:0:
320,192,73101,1,0,0:0:0:0:
64,192,73176,1,0,0:0:0:0:
192,192,73176,1,0,0:0:0:0:
448,192,73326,1,0,0:0:0:0:
64,192,73401,1,0,0:0:0:0:
320,192,73476,1,0,0:0:0:0:
192,192,73551,1,0,0:0:0:0:
448,192,73626,1,0,0:0:0:0:
320,192,73701,1,0,0:0:0:0:
64,192,73776,1,0,0:0:0:0:
192,192,73776,128,0,73926:0:0:0:0:
320,192,73926,1,0,0:0:0:0:
448,192,74001,1,0,0:0:0:0:
64,192,74076,128,0,74226:0:0:0:0:
448,192,74151,1,0,0:0:0:0:
192,192,74226,1,0,0:0:0:0:
320,192,74226,1,0,0:0:0:0:
64,192,74301,1,0,0:0:0:0:
320,192,74376,128,0,74526:0:0:0:0:
448,192,74526,128,0,74676:0:0:0:0:
64,192,74526,1,0,0:0:0:0:
192,192,74676,1,0,0:0:0:0:
64,192,74676,1,0,0:0:0:0:
320,192,74676,1,0,0:0:0:0:
448,192,74976,128,0,75126:0:0:0:0:
320,192,74976,1,0,0:0:0:0:
192,192,74976,1,0,0:0:0:0:
64,192,75126,128,0,75276:0:0:0:0:
192,192,75276,128,0,75426:0:0:0:0:
448,192,75276,128,0,75426:0:0:0:0:
320,192,75426,1,0,0:0:0:0:
192,192,75501,1,0,0:0:0:0:
320,192,75576,128,0,75726:0:0:0:0:
64,192,75576,128,0,75726:0:0:0:0:
192,192,75726,1,0,0:0:0:0:
320,192,75801,1,0,0:0:0:0:
448,192,75876,128,0,76026:0:0:0:0:
192,192,75876,128,0,76026:0:0:0:0:
64,192,76026,128,0,76176:0:0:0:0:
320,192,76176,1,0,0:0:0:0:
448,192,76176,1,0,0:0:0:0:
320,192,76326,128,0,76476:0:0:0:0:
448,192,76326,128,0,76476:0:0:0:0:
192,192,76476,1,0,0:0:0:0:
64,192,76476,1,0,0:0:0:0:
320,192,76626,128,0,76776:0:0:0:0:
448,192,76626,128,0,76776:0:0:0:0:
64,192,76776,1,0,0:0:0:0:
192,192,76776,1,0,0:0:0:0:
320,192,76851,1,0,0:0:0:0:
192,192,76926,1,0,0:0:0:0:
448,192,77001,1,0,0:0:0:0:
64,192,77076,128,0,77226:0:0:0:0:
320,192,77076,128,0,77226:0:0:0:0:
448,192,77226,128,0,77376:0:0:0:0:
192,192,77226,1,0,0:0:0:0:
192,192,77376,1,0,0:0:0:0:
64,192,77376,1,0,0:0:0:0:
320,192,77451,1,0,0:0:0:0:
192,192,77526,128,0,77676:0:0:0:0:
64,192,77526,128,0,77676:0:0:0:0:
448,192,77676,1,0,0:0:0:0:
320,192,77676,1,0,0:0:0:0:
192,192,77826,128,0,77976:0:0:0:0:
64,192,77826,128,0,77976:0:0:0:0:
320,192,77976,1,0,0:0:0:0:
448,192,77976,1,0,0:0:0:0:
192,192,78126,128,0,78276:0:0:0:0:
64,192,78126,128,0,78276:0:0:0:0:
448,192,78276,128,0,78426:0:0:0:0:
320,192,78276,1,0,0:0:0:0:
64,192,78426,128,0,78576:0:0:0:0:
320,192,78576,128,0,78726:0:0:0:0:
448,192,78576,128,0,78726:0:0:0:0:
192,192,78726,1,0,0:0:0:0:
64,192,78801,1,0,0:0:0:0:
192,192,78876,128,0,79026:0:0:0:0:
320,192,78876,128,0,79026:0:0:0:0:
448,192,79026,1,0,0:0:0:0:
320,192,79101,1,0,0:0:0:0:
64,192,79176,128,0,79326:0:0:0:0:
192,192,79176,128,0,79326:0:0:0:0:
320,192,79326,1,0,0:0:0:0:
192,192,79401,1,0,0:0:0:0:
320,192,79476,128,0,79626:0:0:0:0:
448,192,79476,1,0,0:0:0:0:
192,192,79626,128,0,79776:0:0:0:0:
64,192,79626,1,0,0:0:0:0:
448,192,79776,128,0,79926:0:0:0:0:
320,192,79776,1,0,0:0:0:0:
64,192,79776,1,0,0:0:0:0:
64,192,79926,128,0,80076:0:0:0:0:
192,192,80076,128,0,80226:0:0:0:0:
448,192,80076,128,0,80226:0:0:0:0:
320,192,80226,1,0,0:0:0:0:
192,192,80301,1,0,0:0:0:0:
320,192,80376,128,0,80526:0:0:0:0:
64,192,80376,128,0,80526:0:0:0:0:
192,192,80526,1,0,0:0:0:0:
320,192,80601,1,0,0:0:0:0:
448,192,80676,128,0,80826:0:0:0:0:
192,192,80676,128,0,80826:0:0:0:0:
64,192,80826,128,0,80976:0:0:0:0:
320,192,80976,1,0,0:0:0:0:
448,192,80976,1,0,0:0:0:0:
320,192,81126,128,0,81276:0:0:0:0:
448,192,81126,128,0,81276:0:0:0:0:
192,192,81276,1,0,0:0:0:0:
64,192,81276,1,0,0:0:0:0:
320,192,81426,128,0,81576:0:0:0:0:
448,192,81426,128,0,81576:0:0:0:0:
192,192,81576,1,0,0:0:0:0:
64,192,81576,1,0,0:0:0:0:
320,192,81651,1,0,0:0:0:0:
192,192,81726,1,0,0:0:0:0:
448,192,81801,1,0,0:0:0:0:
64,192,81876,128,0,82026:0:0:0:0:
320,192,81876,128,0,82026:0:0:0:0:
448,192,82026,128,0,82176:0:0:0:0:
192,192,82026,1,0,0:0:0:0:
192,192,82176,1,0,0:0:0:0:
64,192,82176,1,0,0:0:0:0:
320,192,82251,1,0,0:0:0:0:
192,192,82326,128,0,82476:0:0:0:0:
64,192,82326,128,0,82476:0:0:0:0:
448,192,82476,1,0,0:0:0:0:
320,192,82476,1,0,0:0:0:0:
192,192,82626,128,0,82776:0:0:0:0:
64,192,82626,128,0,82776:0:0:0:0:
320,192,82776,1,0,0:0:0:0:
448,192,82776,1,0,0:0:0:0:
192,192,82851,1,0,0:0:0:0:
64,192,82851,1,0,0:0:0:0:
320,192,82926,1,0,0:0:0:0:
448,192,82926,1,0,0:0:0:0:
192,192,83001,1,0,0:0:0:0:
64,192,83001,1,0,0:0:0:0:
320,192,83076,1,0,0:0:0:0:
448,192,83076,1,0,0:0:0:0:
192,192,83226,1,0,0:0:0:0:
64,192,83226,1,0,0:0:0:0:
320,192,83376,128,0,83526:0:0:0:0:
448,192,83376,1,0,0:0:0:0:
192,192,83526,1,0,0:0:0:0:
64,192,83601,1,0,0:0:0:0:
448,192,83676,128,0,83826:0:0:0:0:
320,192,83676,1,0,0:0:0:0:
64,192,83826,1,0,0:0:0:0:
192,192,83901,1,0,0:0:0:0:
320,192,83976,1,0,0:0:0:0:
448,192,83976,1,0,0:0:0:0:
192,192,84051,1,0,0:0:0:0:
320,192,84126,1,0,0:0:0:0:
192,192,84201,1,0,0:0:0:0:
448,192,84276,1,0,0:0:0:0:
64,192,84276,128,0,84576:0:0:0:0:
448,192,84576,128,0,84726:0:0:0:0:
320,192,84576,1,0,0:0:0:0:
192,192,84576,1,0,0:0:0:0:
64,192,84726,128,0,84876:0:0:0:0:
192,192,84876,128,0,85026:0:0:0:0:
448,192,84876,128,0,85026:0:0:0:0:
320,192,85026,1,0,0:0:0:0:
192,192,85101,1,0,0:0:0:0:
320,192,85176,128,0,85326:0:0:0:0:
64,192,85176,128,0,85326:0:0:0:0:
192,192,85326,1,0,0:0:0:0:
320,192,85401,1,0,0:0:0:0:
448,192,85476,128,0,85626:0:0:0:0:
192,192,85476,128,0,85626:0:0:0:0:
64,192,85626,128,0,85776:0:0:0:0:
320,192,85776,1,0,0:0:0:0:
448,192,85776,1,0,0:0:0:0:
320,192,85926,128,0,86076:0:0:0:0:
448,192,85926,128,0,86076:0:0:0:0:
192,192,86076,1,0,0:0:0:0:
64,192,86076,1,0,0:0:0:0:
320,192,86226,128,0,86376:0:0:0:0:
448,192,86226,128,0,86376:0:0:0:0:
64,192,86376,1,0,0:0:0:0:
192,192,86376,1,0,0:0:0:0:
320,192,86451,1,0,0:0:0:0:
192,192,86526,1,0,0:0:0:0:
448,192,86601,1,0,0:0:0:0:
64,192,86676,128,0,86826:0:0:0:0:
320,192,86676,128,0,86826:0:0:0:0:
448,192,86826,128,0,86976:0:0:0:0:
192,192,86826,1,0,0:0:0:0:
192,192,86976,1,0,0:0:0:0:
64,192,86976,1,0,0:0:0:0:
320,192,87051,1,0,0:0:0:0:
192,192,87126,128,0,87276:0:0:0:0:
64,192,87126,128,0,87276:0:0:0:0:
448,192,87276,1,0,0:0:0:0:
320,192,87276,1,0,0:0:0:0:
192,192,87426,128,0,87576:0:0:0:0:
64,192,87426,128,0,87576:0:0:0:0:
320,192,87576,1,0,0:0:0:0:
448,192,87576,1,0,0:0:0:0:
192,192,87726,128,0,87876:0:0:0:0:
64,192,87726,128,0,87876:0:0:0:0:
448,192,87876,128,0,88026:0:0:0:0:
320,192,87876,1,0,0:0:0:0:
64,192,88026,128,0,88176:0:0:0:0:
192,192,88026,1,0,0:0:0:0:
320,192,88176,128,0,88326:0:0:0:0:
448,192,88176,128,0,88326:0:0:0:0:
192,192,88326,1,0,0:0:0:0:
64,192,88401,1,0,0:0:0:0:
192,192,88476,128,0,88626:0:0:0:0:
320,192,88476,128,0,88626:0:0:0:0:
448,192,88626,1,0,0:0:0:0:
320,192,88701,1,0,0:0:0:0:
64,192,88776,128,0,88926:0:0:0:0:
192,192,88776,128,0,88926:0:0:0:0:
320,192,88926,1,0,0:0:0:0:
192,192,89001,1,0,0:0:0:0:
448,192,89076,1,0,0:0:0:0:
320,192,89076,1,0,0:0:0:0:
192,192,89151,1,0,0:0:0:0:
64,192,89151,1,0,0:0:0:0:
320,192,89226,1,0,0:0:0:0:
448,192,89226,1,0,0:0:0:0:
192,192,89301,1,0,0:0:0:0:
64,192,89301,1,0,0:0:0:0:
448,192,89376,128,0,89526:0:0:0:0:
320,192,89376,1,0,0:0:0:0:
192,192,89526,1,0,0:0:0:0:
64,192,89601,1,0,0:0:0:0:
320,192,89676,128,0,89826:0:0:0:0:
192,192,89676,128,0,89826:0:0:0:0:
448,192,89826,1,0,0:0:0:0:
320,192,89901,1,0,0:0:0:0:
64,192,89976,128,0,90126:0:0:0:0:
448,192,89976,128,0,90126:0:0:0:0:
192,192,90126,1,0,0:0:0:0:
64,192,90201,1,0,0:0:0:0:
320,192,90276,128,0,90426:0:0:0:0:
192,192,90276,128,0,90426:0:0:0:0:
448,192,90426,1,0,0:0:0:0:
320,192,90501,1,0,0:0:0:0:
192,192,90576,128,0,90726:0:0:0:0:
64,192,90576,128,0,90726:0:0:0:0:
320,192,90726,1,0,0:0:0:0:
448,192,90801,1,0,0:0:0:0:
320,192,90876,128,0,91026:0:0:0:0:
192,192,90876,128,0,91026:0:0:0:0:
64,192,91026,1,0,0:0:0:0:
192,192,91101,1,0,0:0:0:0:
64,192,91176,128,0,91326:0:0:0:0:
448,192,91176,128,0,91326:0:0:0:0:
192,192,91326,1,0,0:0:0:0:
320,192,91401,1,0,0:0:0:0:
192,192,91476,128,0,91626:0:0:0:0:
64,192,91476,1,0,0:0:0:0:
320,192,91626,128,0,91776:0:0:0:0:
448,192,91626,1,0,0:0:0:0:
64,192,91776,128,0,91926:0:0:0:0:
192,192,91776,1,0,0:0:0:0:
448,192,91776,1,0,0:0:0:0:
320,192,91926,1,0,0:0:0:0:
448,192,92001,1,0,0:0:0:0:
320,192,92076,128,0,92226:0:0:0:0:
192,192,92076,128,0,92226:0:0:0:0:
64,192,92226,1,0,0:0:0:0:
192,192,92301,1,0,0:0:0:0:
448,192,92376,128,0,92526:0:0:0:0:
64,192,92376,128,0,92526:0:0:0:0:
320,192,92526,1,0,0:0:0:0:
192,192,92601,1,0,0:0:0:0:
320,192,92676,128,0,92826:0:0:0:0:
448,192,92676,1,0,0:0:0:0:
192,192,92826,128,0,92976:0:0:0:0:
64,192,92826,1,0,0:0:0:0:
64,192,92976,128,0,93126:0:0:0:0:
448,192,92976,128,0,93126:0:0:0:0:
320,192,93126,1,0,0:0:0:0:
192,192,93201,1,0,0:0:0:0:
320,192,93276,128,0,93426:0:0:0:0:
64,192,93351,1,0,0:0:0:0:
448,192,93426,1,0,0:0:0:0:
64,192,93501,1,0,0:0:0:0:
192,192,93576,128,0,93726:0:0:0:0:
448,192,93651,1,0,0:0:0:0:
320,192,93726,128,0,93876:0:0:0:0:
64,192,93801,1,0,0:0:0:0:
448,192,93876,128,0,94026:0:0:0:0:
192,192,93876,128,0,94026:0:0:0:0:
64,192,94026,1,0,0:0:0:0:
320,192,94026,1,0,0:0:0:0:
64,192,94176,128,0,95076:0:0:0:0:
192,192,94176,1,0,0:0:0:0:
448,192,94176,1,0,0:0:0:0:
320,192,95076,128,0,95376:0:0:0:0:
192,192,95376,128,0,95676:0:0:0:0:
448,192,95676,128,0,95976:0:0:0:0:
192,192,95976,128,0,96276:0:0:0:0:
320,192,96276,128,0,96426:0:0:0:0:
448,192,96426,128,0,97176:0:0:0:0:
320,192,96576,1,0,0:0:0:0:
192,192,96726,1,0,0:0:0:0:
64,192,96876,1,0,0:0:0:0:
320,192,97026,1,0,0:0:0:0:
192,192,97176,1,0,0:0:0:0:
64,192,97326,1,0,0:0:0:0:
320,192,97476,128,0,97776:0:0:0:0:
192,192,97626,1,0,0:0:0:0:
64,192,97776,128,0,98076:0:0:0:0:
192,192,97926,1,0,0:0:0:0:
320,192,98076,128,0,98376:0:0:0:0:
448,192,98226,1,0,0:0:0:0:
192,192,98376,128,0,98676:0:0:0:0:
64,192,98526,1,0,0:0:0:0:
448,192,98676,128,0,98976:0:0:0:0:
320,192,98826,1,0,0:0:0:0:
64,192,98976,128,0,99276:0:0:0:0:
192,192,99126,1,0,0:0:0:0:
448,192,99276,1,0,0:0:0:0:
320,192,99426,128,0,99726:0:0:0:0:
192,192,99576,1,0,0:0:0:0:
64,192,99726,1,0,0:0:0:0:
448,192,99876,128,0,100026:0:0:0:0:
192,192,100026,128,0,100176:0:0:0:0:
64,192,100176,128,0,100476:0:0:0:0:
320,192,100326,1,0,0:0:0:0:
448,192,100476,128,0,100776:0:0:0:0:
192,192,100626,1,0,0:0:0:0:
320,192,100776,128,0,101076:0:0:0:0:
64,192,100926,1,0,0:0:0:0:
192,192,101076,128,0,101226:0:0:0:0:
448,192,101226,128,0,101676:0:0:0:0:
64,192,101376,1,0,0:0:0:0:
192,192,101526,1,0,0:0:0:0:
320,192,101676,1,0,0:0:0:0:
64,192,101826,1,0,0:0:0:0:
192,192,101976,128,0,102276:0:0:0:0:
320,192,102126,1,0,0:0:0:0:
64,192,102276,128,0,102576:0:0:0:0:
192,192,102426,1,0,0:0:0:0:
320,192,102576,128,0,102876:0:0:0:0:
448,192,102726,1,0,0:0:0:0:
192,192,102876,128,0,103176:0:0:0:0:
64,192,103026,1,0,0:0:0:0:
448,192,103176,128,0,103476:0:0:0:0:
320,192,103326,1,0,0:0:0:0:
64,192,103476,128,0,103626:0:0:0:0:
192,192,103626,128,0,103776:0:0:0:0:
448,192,103776,5,0,0:0:0:0:
320,192,103776,1,0,0:0:0:0:
64,192,103776,1,0,0:0:0:0:
320,192,103926,1,0,0:0:0:0:
192,192,104076,1,0,0:0:0:0:
64,192,104076,1,0,0:0:0:0:
64,192,104226,1,0,0:0:0:0:
448,192,104376,1,0,0:0:0:0:
192,192,104376,1,0,0:0:0:0:
448,192,104526,1,0,0:0:0:0:
320,192,104676,1,0,0:0:0:0:
192,192,104676,1,0,0:0:0:0:
192,192,104826,1,0,0:0:0:0:
320,192,104976,1,0,0:0:0:0:
448,192,104976,1,0,0:0:0:0:
320,192,105126,1,0,0:0:0:0:
64,192,105276,1,0,0:0:0:0:
448,192,105276,1,0,0:0:0:0:
64,192,105426,1,0,0:0:0:0:
192,192,105576,1,0,0:0:0:0:
448,192,105576,1,0,0:0:0:0:
448,192,105726,1,0,0:0:0:0:
64,192,105876,1,0,0:0:0:0:
192,192,105876,1,0,0:0:0:0:
192,192,106026,1,0,0:0:0:0:
320,192,106176,1,0,0:0:0:0:
64,192,106176,1,0,0:0:0:0:
320,192,106326,1,0,0:0:0:0:
64,192,106476,1,0,0:0:0:0:
448,192,106476,1,0,0:0:0:0:
64,192,106626,1,0,0:0:0:0:
192,192,106776,1,0,0:0:0:0:
448,192,106776,1,0,0:0:0:0:
448,192,106926,1,0,0:0:0:0:
320,192,107076,1,0,0:0:0:0:
192,192,107076,1,0,0:0:0:0:
192,192,107226,1,0,0:0:0:0:
64,192,107226,1,0,0:0:0:0:
320,192,107301,1,0,0:0:0:0:
448,192,107376,1,0,0:0:0:0:
192,192,107376,1,0,0:0:0:0:
64,192,107376,1,0,0:0:0:0:
64,192,107526,1,0,0:0:0:0:
448,192,107676,1,0,0:0:0:0:
320,192,107676,1,0,0:0:0:0:
192,192,107751,1,0,0:0:0:0:
64,192,107826,1,0,0:0:0:0:
448,192,107826,1,0,0:0:0:0:
192,192,107976,1,0,0:0:0:0:
320,192,107976,1,0,0:0:0:0:
448,192,108126,1,0,0:0:0:0:
64,192,108276,1,0,0:0:0:0:
192,192,108276,1,0,0:0:0:0:
320,192,108426,1,0,0:0:0:0:
448,192,108426,1,0,0:0:0:0:
192,192,108501,1,0,0:0:0:0:
64,192,108576,1,0,0:0:0:0:
320,192,108576,1,0,0:0:0:0:
448,192,108576,1,0,0:0:0:0:
192,192,108726,1,0,0:0:0:0:
320,192,108726,1,0,0:0:0:0:
448,192,108876,1,0,0:0:0:0:
64,192,108876,1,0,0:0:0:0:
320,192,109026,1,0,0:0:0:0:
192,192,109026,1,0,0:0:0:0:
64,192,109176,1,0,0:0:0:0:
192,192,109176,1,0,0:0:0:0:
320,192,109326,1,0,0:0:0:0:
448,192,109326,1,0,0:0:0:0:
192,192,109476,1,0,0:0:0:0:
64,192,109476,1,0,0:0:0:0:
64,192,109626,1,0,0:0:0:0:
448,192,109626,1,0,0:0:0:0:
192,192,109701,1,0,0:0:0:0:
320,192,109776,1,0,0:0:0:0:
448,192,109776,1,0,0:0:0:0:
192,192,109926,1,0,0:0:0:0:
64,192,109926,1,0,0:0:0:0:
64,192,110076,1,0,0:0:0:0:
448,192,110076,1,0,0:0:0:0:
320,192,110226,1,0,0:0:0:0:
192,192,110226,1,0,0:0:0:0:
448,192,110301,1,0,0:0:0:0:
192,192,110376,1,0,0:0:0:0:
64,192,110376,1,0,0:0:0:0:
320,192,110526,1,0,0:0:0:0:
448,192,110526,1,0,0:0:0:0:
192,192,110676,1,0,0:0:0:0:
320,192,110676,1,0,0:0:0:0:
64,192,110826,1,0,0:0:0:0:
448,192,110826,1,0,0:0:0:0:
320,192,110901,1,0,0:0:0:0:
192,192,110976,1,0,0:0:0:0:
64,192,110976,1,0,0:0:0:0:
320,192,111051,5,0,0:0:0:0:
448,192,111126,1,0,0:0:0:0:
64,192,111201,1,0,0:0:0:0:
320,192,111276,1,0,0:0:0:0:
192,192,111276,1,0,0:0:0:0:
448,192,111351,1,0,0:0:0:0:
64,192,111426,1,0,0:0:0:0:
192,192,111501,1,0,0:0:0:0:
320,192,111576,1,0,0:0:0:0:
448,192,111576,1,0,0:0:0:0:
64,192,111651,1,0,0:0:0:0:
320,192,111726,1,0,0:0:0:0:
192,192,111801,1,0,0:0:0:0:
64,192,111876,1,0,0:0:0:0:
448,192,111876,1,0,0:0:0:0:
320,192,112026,1,0,0:0:0:0:
192,192,112026,1,0,0:0:0:0:
448,192,112176,5,0,0:0:0:0:
64,192,112176,1,0,0:0:0:0:
320,192,112176,1,0,0:0:0:0:
320,192,112476,1,0,0:0:0:0:
64,192,112476,1,0,0:0:0:0:
448,192,112551,1,0,0:0:0:0:
64,192,112626,1,0,0:0:0:0:
192,192,112626,1,0,0:0:0:0:
448,192,112701,1,0,0:0:0:0:
320,192,112776,1,0,0:0:0:0:
192,192,112776,1,0,0:0:0:0:
64,192,112851,1,0,0:0:0:0:
448,192,112926,1,0,0:0:0:0:
320,192,113001,1,0,0:0:0:0:
192,192,113076,1,0,0:0:0:0:
64,192,113151,1,0,0:0:0:0:
448,192,113151,1,0,0:0:0:0:
320,192,113226,1,0,0:0:0:0:
192,192,113301,1,0,0:0:0:0:
64,192,113376,1,0,0:0:0:0:
448,192,113376,128,0,113526:0:0:0:0:
320,192,113376,1,0,0:0:0:0:
64,192,113526,128,0,113676:0:0:0:0:
320,192,113676,128,0,113826:0:0:0:0:
192,192,113826,1,0,0:0:0:0:
448,192,113901,1,0,0:0:0:0:
192,192,113976,128,0,114126:0:0:0:0:
320,192,114126,1,0,0:0:0:0:
64,192,114201,1,0,0:0:0:0:
448,192,114276,1,0,0:0:0:0:
192,192,114351,1,0,0:0:0:0:
448,192,114426,128,0,114576:0:0:0:0:
64,192,114576,128,0,114726:0:0:0:0:
192,192,114726,1,0,0:0:0:0:
448,192,114801,1,0,0:0:0:0:
192,192,114876,128,0,115026:0:0:0:0:
320,192,115026,1,0,0:0:0:0:
64,192,115101,1,0,0:0:0:0:
320,192,115176,128,0,115326:0:0:0:0:
192,192,115326,1,0,0:0:0:0:
448,192,115401,1,0,0:0:0:0:
320,192,115476,1,0,0:0:0:0:
192,192,115476,1,0,0:0:0:0:
64,192,115476,1,0,0:0:0:0:
448,192,115776,128,0,115926:0:0:0:0:
320,192,115776,1,0,0:0:0:0:
64,192,115776,1,0,0:0:0:0:
64,192,115926,128,0,116076:0:0:0:0:
320,192,115926,128,0,116076:0:0:0:0:
192,192,116076,1,0,0:0:0:0:
448,192,116076,1,0,0:0:0:0:
320,192,116151,1,0,0:0:0:0:
192,192,116226,128,0,116376:0:0:0:0:
64,192,116376,128,0,116526:0:0:0:0:
448,192,116376,128,0,116526:0:0:0:0:
320,192,116526,1,0,0:0:0:0:
192,192,116601,1,0,0:0:0:0:
64,192,116676,1,0,0:0:0:0:
448,192,116676,1,0,0:0:0:0:
320,192,116751,1,0,0:0:0:0:
192,192,116826,1,0,0:0:0:0:
64,192,116826,1,0,0:0:0:0:
320,192,116976,1,0,0:0:0:0:
448,192,116976,1,0,0:0:0:0:
64,192,116976,1,0,0:0:0:0:
192,192,117126,1,0,0:0:0:0:
64,192,117126,1,0,0:0:0:0:
448,192,117126,1,0,0:0:0:0:
448,192,117276,1,0,0:0:0:0:
320,192,117276,1,0,0:0:0:0:
192,192,117351,1,0,0:0:0:0:
64,192,117351,1,0,0:0:0:0:
320,192,117426,1,0,0:0:0:0:
448,192,117426,1,0,0:0:0:0:
192,192,117501,1,0,0:0:0:0:
64,192,117501,1,0,0:0:0:0:
320,192,117576,1,0,0:0:0:0:
448,192,117576,1,0,0:0:0:0:
192,192,117726,1,0,0:0:0:0:
320,192,117726,1,0,0:0:0:0:
64,192,117876,1,0,0:0:0:0:
192,192,117876,1,0,0:0:0:0:
320,192,117926,1,0,0:0:0:0:
448,192,117976,1,0,0:0:0:0:
64,192,118026,1,0,0:0:0:0:
192,192,118101,1,0,0:0:0:0:
320,192,118176,128,0,118326:0:0:0:0:
448,192,118176,128,0,118326:0:0:0:0:
64,192,118176,1,0,0:0:0:0:
64,192,118326,128,0,118476:0:0:0:0:
448,192,118476,128,0,118626:0:0:0:0:
192,192,118476,128,0,118626:0:0:0:0:
320,192,118626,1,0,0:0:0:0:
192,192,118701,1,0,0:0:0:0:
64,192,118776,128,0,118926:0:0:0:0:
320,192,118776,128,0,118926:0:0:0:0:
192,192,118926,1,0,0:0:0:0:
320,192,119001,1,0,0:0:0:0:
64,192,119076,1,0,0:0:0:0:
192,192,119076,128,0,119151:0:0:0:0:
448,192,119151,1,0,0:0:0:0:
64,192,119226,128,0,119376:0:0:0:0:
320,192,119226,1,0,0:0:0:0:
320,192,119376,128,0,119526:0:0:0:0:
448,192,119376,128,0,119526:0:0:0:0:
192,192,119526,1,0,0:0:0:0:
64,192,119601,1,0,0:0:0:0:
192,192,119676,128,0,119826:0:0:0:0:
320,192,119676,128,0,119826:0:0:0:0:
448,192,119826,1,0,0:0:0:0:
320,192,119901,1,0,0:0:0:0:
192,192,119976,128,0,120126:0:0:0:0:
64,192,119976,128,0,120126:0:0:0:0:
448,192,120126,1,0,0:0:0:0:
320,192,120201,1,0,0:0:0:0:
192,192,120276,1,0,0:0:0:0:
64,192,120276,1,0,0:0:0:0:
320,192,120351,1,0,0:0:0:0:
448,192,120351,1,0,0:0:0:0:
64,192,120426,1,0,0:0:0:0:
192,192,120426,1,0,0:0:0:0:
320,192,120501,1,0,0:0:0:0:
448,192,120501,1,0,0:0:0:0:
192,192,120576,1,0,0:0:0:0:
64,192,120576,1,0,0:0:0:0:
64,192,120726,128,0,120876:0:0:0:0:
448,192,120726,128,0,120876:0:0:0:0:
192,192,120876,1,0,0:0:0:0:
320,192,120876,1,0,0:0:0:0:
64,192,121026,128,0,121176:0:0:0:0:
448,192,121026,128,0,121176:0:0:0:0:
192,192,121026,1,0,0:0:0:0:
320,192,121176,1,0,0:0:0:0:
192,192,121176,1,0,0:0:0:0:
64,192,121326,128,0,121476:0:0:0:0:
448,192,121326,128,0,121476:0:0:0:0:
320,192,121476,1,0,0:0:0:0:
192,192,121476,1,0,0:0:0:0:
448,192,121626,1,0,0:0:0:0:
320,192,121626,1,0,0:0:0:0:
64,192,121626,1,0,0:0:0:0:
192,192,121776,128,0,121926:0:0:0:0:
64,192,121776,1,0,0:0:0:0:
448,192,121926,1,0,0:0:0:0:
320,192,121926,1,0,0:0:0:0:
192,192,122076,1,0,0:0:0:0:
64,192,122076,1,0,0:0:0:0:
320,192,122151,1,0,0:0:0:0:
448,192,122151,1,0,0:0:0:0:
192,192,122226,1,0,0:0:0:0:
64,192,122226,1,0,0:0:0:0:
320,192,122301,1,0,0:0:0:0:
448,192,122376,128,0,122676:0:0:0:0:
64,192,122376,1,0,0:0:0:0:
320,192,122676,1,0,0:0:0:0:
192,192,122676,1,0,0:0:0:0:
64,192,122676,1,0,0:0:0:0:
320,192,122976,128,0,123126:0:0:0:0:
448,192,122976,128,0,123126:0:0:0:0:
64,192,122976,1,0,0:0:0:0:
64,192,123126,128,0,123276:0:0:0:0:
448,192,123276,128,0,123426:0:0:0:0:
192,192,123276,128,0,123426:0:0:0:0:
320,192,123426,1,0,0:0:0:0:
192,192,123501,1,0,0:0:0:0:
64,192,123576,128,0,123726:0:0:0:0:
320,192,123576,128,0,123726:0:0:0:0:
192,192,123726,1,0,0:0:0:0:
320,192,123801,1,0,0:0:0:0:
64,192,123876,1,0,0:0:0:0:
192,192,123876,128,0,123951:0:0:0:0:
448,192,123951,1,0,0:0:0:0:
64,192,124026,128,0,124176:0:0:0:0:
320,192,124176,128,0,124326:0:0:0:0:
448,192,124176,128,0,124326:0:0:0:0:
192,192,124326,1,0,0:0:0:0:
64,192,124401,1,0,0:0:0:0:
192,192,124476,128,0,124626:0:0:0:0:
320,192,124476,128,0,124626:0:0:0:0:
448,192,124626,1,0,0:0:0:0:
320,192,124701,1,0,0:0:0:0:
192,192,124776,128,0,124926:0:0:0:0:
64,192,124776,128,0,124926:0:0:0:0:
448,192,124926,1,0,0:0:0:0:
320,192,125001,1,0,0:0:0:0:
192,192,125076,128,0,125226:0:0:0:0:
64,192,125076,1,0,0:0:0:0:
64,192,125226,128,0,125376:0:0:0:0:
320,192,125226,1,0,0:0:0:0:
448,192,125376,128,0,125526:0:0:0:0:
192,192,125376,1,0,0:0:0:0:
320,192,125526,128,0,125676:0:0:0:0:
64,192,125526,128,0,125676:0:0:0:0:
192,192,125676,1,0,0:0:0:0:
448,192,125676,1,0,0:0:0:0:
320,192,125751,1,0,0:0:0:0:
192,192,125826,128,0,125976:0:0:0:0:
64,192,125976,128,0,126126:0:0:0:0:
448,192,125976,128,0,126126:0:0:0:0:
320,192,126126,1,0,0:0:0:0:
192,192,126201,1,0,0:0:0:0:
320,192,126276,1,0,0:0:0:0:
448,192,126276,1,0,0:0:0:0:
64,192,126351,1,0,0:0:0:0:
192,192,126426,128,0,126576:0:0:0:0:
448,192,126576,1,0,0:0:0:0:
320,192,126576,1,0,0:0:0:0:
64,192,126651,1,0,0:0:0:0:
320,192,126726,128,0,126876:0:0:0:0:
448,192,126726,1,0,0:0:0:0:
64,192,126876,1,0,0:0:0:0:
192,192,126876,1,0,0:0:0:0:
320,192,126951,1,0,0:0:0:0:
448,192,126951,1,0,0:0:0:0:
192,192,127026,1,0,0:0:0:0:
64,192,127026,1,0,0:0:0:0:
320,192,127101,1,0,0:0:0:0:
448,192,127101,1,0,0:0:0:0:
64,192,127176,128,0,127326:0:0:0:0:
192,192,127176,1,0,0:0:0:0:
320,192,127326,1,0,0:0:0:0:
448,192,127326,1,0,0:0:0:0:
64,192,127476,1,0,0:0:0:0:
448,192,127476,1,0,0:0:0:0:
192,192,127476,1,0,0:0:0:0:
320,192,127626,1,0,0:0:0:0:
192,192,127701,1,0,0:0:0:0:
64,192,127776,128,0,127926:0:0:0:0:
448,192,127776,128,0,127926:0:0:0:0:
320,192,127776,1,0,0:0:0:0:
192,192,127926,1,0,0:0:0:0:
64,192,128001,1,0,0:0:0:0:
192,192,128076,128,0,128226:0:0:0:0:
320,192,128076,128,0,128226:0:0:0:0:
448,192,128226,1,0,0:0:0:0:
320,192,128301,1,0,0:0:0:0:
64,192,128376,128,0,128526:0:0:0:0:
448,192,128376,128,0,128526:0:0:0:0:
192,192,128526,1,0,0:0:0:0:
320,192,128526,1,0,0:0:0:0:
64,192,128676,1,0,0:0:0:0:
448,192,128676,1,0,0:0:0:0:
192,192,128676,1,0,0:0:0:0:
448,192,128826,128,0,128976:0:0:0:0:
64,192,128976,128,0,129126:0:0:0:0:
320,192,128976,128,0,129126:0:0:0:0:
192,192,129126,1,0,0:0:0:0:
320,192,129201,1,0,0:0:0:0:
448,192,129276,128,0,129426:0:0:0:0:
192,192,129276,128,0,129426:0:0:0:0:
320,192,129426,1,0,0:0:0:0:
192,192,129501,1,0,0:0:0:0:
448,192,129576,1,0,0:0:0:0:
320,192,129576,1,0,0:0:0:0:
192,192,129651,1,0,0:0:0:0:
64,192,129651,1,0,0:0:0:0:
448,192,129726,1,0,0:0:0:0:
320,192,129726,1,0,0:0:0:0:
192,192,129801,1,0,0:0:0:0:
64,192,129801,1,0,0:0:0:0:
320,192,129876,128,0,130176:0:0:0:0:
448,192,129876,1,0,0:0:0:0:
448,192,130026,128,0,130176:0:0:0:0:
64,192,130176,128,0,130326:0:0:0:0:
192,192,130176,1,0,0:0:0:0:
192,192,130326,1,0,0:0:0:0:
320,192,130401,1,0,0:0:0:0:
448,192,130476,128,0,130626:0:0:0:0:
64,192,130476,1,0,0:0:0:0:
192,192,130476,1,0,0:0:0:0:
64,192,130776,1,0,0:0:0:0:
448,192,130776,1,0,0:0:0:0:
320,192,130776,1,0,0:0:0:0:
64,192,130926,1,0,0:0:0:0:
448,192,130926,1,0,0:0:0:0:
320,192,130926,1,0,0:0:0:0:
192,192,131076,1,0,0:0:0:0:
320,192,131076,1,0,0:0:0:0:
64,192,131226,1,0,0:0:0:0:
192,192,131301,1,0,0:0:0:0:
448,192,131376,128,0,131526:0:0:0:0:
320,192,131376,1,0,0:0:0:0:
192,192,131526,1,0,0:0:0:0:
64,192,131601,1,0,0:0:0:0:
448,192,131676,128,0,131826:0:0:0:0:
320,192,131676,1,0,0:0:0:0:
192,192,131826,1,0,0:0:0:0:
64,192,131901,1,0,0:0:0:0:
448,192,131976,1,0,0:0:0:0:
320,192,131976,1,0,0:0:0:0:
192,192,132051,1,0,0:0:0:0:
320,192,132126,1,0,0:0:0:0:
192,192,132201,1,0,0:0:0:0:
448,192,132276,1,0,0:0:0:0:
320,192,132276,1,0,0:0:0:0:
64,192,132351,1,0,0:0:0:0:
448,192,132426,1,0,0:0:0:0:
64,192,132501,1,0,0:0:0:0:
192,192,132576,1,0,0:0:0:0:
320,192,132576,1,0,0:0:0:0:
448,192,132576,1,0,0:0:0:0:
