osu file format v14

[General]
AudioFilename: track.mp3
AudioLeadIn: 0
PreviewTime: 62154
Countdown: 0
SampleSet: Soft
StackLeniency: 0.7
Mode: 0
LetterboxInBreaks: 0
EpilepsyWarning: 1
WidescreenStoryboard: 1

[Editor]
Bookmarks: 2844,24912,36119,41464,49740
DistanceSpacing: 1
BeatDivisor: 4
GridSize: 8
TimelineZoom: 1

[Metadata]
Title:Be Free (Dancecore Mix)
TitleUnicode:Be Free (Dancecore Mix)
Artist:DJ Mikesh
ArtistUnicode:DJ Mikesh
Creator:xXRosalineXx
Version:Standard
Source:
Tags:Nightcore DJ Mikesh Be free dancecore mix xXRosalineXx
BeatmapID:977734
BeatmapSetID:454785

[Difficulty]
HPDrainRate:3
CircleSize:3.3
OverallDifficulty:3
ApproachRate:3
SliderMultiplier:0.7
SliderTickRate:1

[Events]
//Background and Video events
0,0,"bg.jpg",0,0
//Break Periods
//Storyboard Layer 0 (Background)
//Storyboard Layer 1 (Fail)
//Storyboard Layer 2 (Pass)
//Storyboard Layer 3 (Foreground)
//Storyboard Sound Samples

[TimingPoints]
2844,344.827586206897,4,2,0,60,1,0
2844,-133.333333333333,4,2,0,60,0,0
49740,-80,4,2,0,60,0,0
62154,-80,4,2,0,60,0,1
95257,-200,4,2,0,60,0,0
106809,-133.333333333333,4,2,0,60,0,0
120106,-80,4,2,0,60,0,0

[Colours]
Combo1 : 181,119,255
Combo2 : 157,255,255
Combo3 : 255,243,176
Combo4 : 94,255,171
Combo5 : 28,46,172

[HitObjects]
112,72,3533,6,0,P|192:48|224:104,1,157.500006008148
224,208,4912,2,0,P|256:280|328:272,1,157.500006008148
400,104,6637,1,0,0:0:0:0:
56,56,8361,6,0,B|96:112|144:120,1,105.000004005432
240,128,9395,1,0,0:0:0:0:
368,144,9740,2,0,B|416:176|440:224,1,105.000004005432
328,296,10775,1,0,0:0:0:0:
200,312,11119,2,0,P|168:288|168:224,3,105.000004005432
192,64,14568,6,0,B|168:96|256:144,1,105.000004005432
336,200,15602,1,0,0:0:0:0:
432,248,15947,2,0,B|472:288|416:352,1,118.125004506111
335,304,17154,1,0,0:0:0:0:
335,304,17671,1,0,0:0:0:0:
384,56,19395,6,0,L|408:168,1,105.000004005432
256,200,20775,2,0,L|280:312,1,105.000004005432
400,232,22154,1,0,0:0:0:0:
320,96,22844,1,0,0:0:0:0:
216,208,23533,1,0,0:0:0:0:
208,368,24223,1,0,0:0:0:0:
128,232,24912,6,0,B|40:248|-40:144|0:40|160:0|280:96|232:184|152:200|40:224|80:128|128:128,1,498.750019025803
304,136,28706,1,0,0:0:0:0:
232,280,29395,2,0,L|192:320,2,52.5000020027161
280,216,30430,1,0,0:0:0:0:
328,160,30775,2,0,P|368:104|392:168,1,157.500006008148
360,312,32499,5,0,0:0:0:0:
304,264,32844,1,0,0:0:0:0:
224,248,33188,2,0,L|112:248,1,105.000004005432
152,176,34223,1,0,0:0:0:0:
224,136,34568,2,0,L|336:136,2,105.000004005432
80,64,36637,5,0,0:0:0:0:
120,136,36981,2,0,P|136:160|144:184,1,52.5000020027161
192,288,37844,1,0,0:0:0:0:
272,200,38361,2,0,P|296:160|304:160,1,52.5000020027161
360,120,39050,1,0,0:0:0:0:
440,208,39568,1,0,0:0:0:0:
304,248,40430,2,0,B|280:248|272:216|272:216|248:216|240:176,1,105.000004005432
288,144,41464,5,0,0:0:0:0:
368,199,41809,2,0,L|416:160,2,52.5000020027161
136,168,43533,1,0,0:0:0:0:
184,104,43878,1,0,0:0:0:0:
264,104,44223,2,0,B|304:104|304:104|312:112|312:112|304:112|336:112|336:112|344:120|344:120|336:120|376:120|376:120|384:128|384:128|376:128|408:128,1,157.500006008148
400,248,45602,2,0,B|360:248|360:248|352:256|352:256|360:256|328:256|328:256|320:264|320:264|328:264|288:264|288:264|280:272|280:272|288:272|256:272,1,157.500006008148
256,192,48361,12,0,49740,0:0:0:0:
64,96,51119,6,0,B|104:56|128:96|128:96|136:104|136:104|128:104|160:104|160:104|168:112|168:112|160:112|192:112|192:112|200:120|200:120|192:120|224:120,1,175
256,232,52499,1,0,0:0:0:0:
304,320,53188,2,0,B|344:360|368:320|368:320|376:312|376:312|368:312|400:312|400:312|408:304|408:304|400:304|432:304|432:304|440:296|440:296|432:296|464:296,1,175
440,120,54568,1,0,0:0:0:0:
280,56,55257,6,0,B|224:72|280:104|280:104|288:112|288:112|280:112|288:136|288:136|296:144|296:144|288:144|296:176|296:176|304:184|304:184|296:184|304:200,1,175
224,232,56292,1,0,0:0:0:0:
152,176,56637,2,0,B|136:160|136:160|152:152|152:152|136:144|136:144|152:136|152:136|136:128|136:128|152:120|152:120|136:112|136:112|152:104|152:104|136:96|136:96|152:88,1,175
216,40,57671,1,0,0:0:0:0:
280,96,58016,2,0,B|296:112|296:112|280:120|280:120|296:128|296:128|280:136|280:136|296:144|296:144|280:152|280:152|296:160|296:160|280:168|280:168|296:176|296:176|280:184,1,175
112,184,59395,2,0,P|120:224|160:240,3,87.5
256,192,60775,12,0,62154,0:0:0:0:
152,152,62844,5,0,0:0:0:0:
264,16,63533,1,0,0:0:0:0:
384,144,64223,1,0,0:0:0:0:
232,224,64912,2,0,B|248:280|296:288|296:288|288:256|336:224,1,175
232,80,66292,2,0,B|216:24|168:16|168:16|176:48|128:80,1,175
224,224,67671,6,0,B|240:200|240:176|240:176|264:192|280:224|280:224|296:192|344:200,1,175
200,88,69050,2,0,B|184:112|184:136|184:136|160:120|144:88|144:88|128:120|80:112,1,175
168,272,70430,2,0,B|192:240|168:208|160:200|136:200|136:200|168:192|168:128|168:128|208:152|240:160|240:160|224:200|272:240,1,350
352,256,72154,1,0,0:0:0:0:
416,200,72499,1,0,0:0:0:0:
344,152,72844,1,0,0:0:0:0:
280,96,73188,2,0,P|232:56|152:120,1,175
168,288,74568,6,0,P|216:328|304:280,1,175
152,192,75947,2,0,B|80:112|120:120|120:120|152:80|184:112,1,175
360,120,77326,2,0,B|440:48|432:88|432:88|472:120|440:152,1,175
280,224,78706,6,0,B|280:168|280:168|264:168|264:168|264:152|264:152|240:152|240:152|240:136|240:136|224:136|224:136|224:120|224:120|208:120,1,175
72,224,80085,2,0,B|72:280|72:280|88:280|88:280|88:296|88:296|112:296|112:296|112:312|112:312|128:312|128:312|128:328|128:328|144:328,1,175
296,248,81464,2,0,B|312:176|304:160|304:160|344:160|392:208,1,175
232,288,82844,1,0,0:0:0:0:
216,200,83188,1,0,0:0:0:0:
192,112,83533,1,0,0:0:0:0:
168,24,83878,1,0,0:0:0:0:
96,72,84223,2,0,P|72:104|104:144,1,87.5
360,128,85602,6,0,P|384:136|392:192,1,87.5
312,232,86292,1,0,0:0:0:0:
248,176,86637,1,0,0:0:0:0:
184,232,86981,2,0,B|136:240|112:272|112:272|112:224|64:200,1,175
112,128,88016,1,0,0:0:0:0:
200,128,88361,2,0,B|240:152|248:192|248:192|304:184|320:200|320:200|328:168,1,175
264,120,89395,1,0,0:0:0:0:
256,208,89740,1,0,0:0:0:0:
48,32,91119,5,0,0:0:0:0:
400,32,92499,5,0,0:0:0:0:
272,152,93188,5,0,0:0:0:0:
256,192,93878,12,0,95257,0:0:0:0:
136,32,95947,6,0,B|152:24|168:32|168:32|176:48|192:64,1,70
248,104,97326,2,0,B|248:112|248:144|248:144|280:144,1,70
312,184,98533,1,0,0:0:0:0:
352,216,99050,1,0,0:0:0:0:
200,128,100775,6,0,B|160:112|160:112|128:112,1,70
88,136,101981,1,0,0:0:0:0:
160,192,102844,2,0,B|184:224|184:224|224:216|224:216|240:240|240:240,1,105
304,256,104568,1,0,0:0:0:0:
56,16,106809,6,0,B|48:32|48:32|56:40|56:40|48:48|48:48|56:56|56:56|48:64|48:64|56:72|56:112,1,105.000004005432
48,232,108361,1,0,0:0:0:0:
128,160,109050,2,0,P|168:136|176:152,1,78.7500030040742
208,224,110085,1,0,0:0:0:0:
328,128,111119,2,0,L|368:88,2,52.5000020027161
280,152,112154,5,0,0:0:0:0:
224,152,112499,2,0,B|176:144|176:136|168:136|168:136|160:152|152:184,1,105.000004005432
152,288,113878,2,0,P|176:288|200:272,1,52.5000020027161
224,232,114568,2,0,B|248:208|272:208|272:208|288:256,2,105.000004005432
256,192,116637,12,0,120085,0:0:0:0:
104,80,121464,6,0,P|152:48|200:136,1,175
256,296,122844,2,0,P|272:344|368:312,1,175
280,168,124223,2,0,B|240:128|208:128|208:128|224:104|240:32,1,175
328,48,125257,1,0,0:0:0:0:
368,128,125602,6,0,B|392:184|328:248|328:248|312:200,1,175
240,168,126637,1,0,0:0:0:0:
144,184,126981,2,0,B|120:128|184:64|184:64|200:112,1,175
368,128,128361,1,0,0:0:0:0:
400,208,128706,1,0,0:0:0:0:
328,256,129050,1,0,0:0:0:0:
264,200,129395,1,0,0:0:0:0:
224,120,129740,2,0,B|176:56|176:56|160:72|136:104|144:152,2,175
240,296,131809,5,0,0:0:0:0:
288,224,132154,1,0,0:0:0:0:
224,168,132499,2,0,B|200:176|160:128|176:96|264:48,1,175
400,160,133878,2,0,B|448:208|448:272|376:264|376:264|376:296,1,175
224,192,135257,2,0,B|200:168|192:160|216:96|184:88|184:88|120:96|80:144|144:176|144:176,1,262.5
120,256,136637,6,0,P|120:312|224:312,1,175
200,232,137671,1,0,0:0:0:0:
288,232,138016,2,0,P|328:200|264:112,1,175
120,184,139395,1,0,0:0:0:0:
168,112,139740,1,0,0:0:0:0:
232,176,140085,1,0,0:0:0:0:
272,96,140430,1,0,0:0:0:0:
432,152,142154,6,0,B|384:192|424:208|408:200|328:184|256:208|304:224,1,175
224,56,143533,2,0,B|184:32|184:32|152:168|112:72,1,175
256,192,144912,2,0,B|336:144|336:144|336:176|424:144,1,175
248,72,146292,2,0,B|216:48|208:48|192:48|168:80|168:80|208:96|208:104|192:152,1,175
264,104,147671,2,0,B|304:104|304:104|312:112|312:112|304:112|336:112|336:112|344:120|344:120|336:120|376:120|376:120|384:128|384:128|376:128|432:128,1,175
248,280,149050,2,0,B|208:280|208:280|200:272|200:272|208:272|176:272|176:272|168:264|168:264|176:264|136:264|136:264|128:256|128:256|136:256|80:256,1,175
120,176,150085,1,0,0:0:0:0:
256,192,150775,12,0,153188,0:0:0:0:
