osu file format v14

[General]
AudioFilename: audio.mp3
AudioLeadIn: 0
PreviewTime: 109638
Countdown: 0
SampleSet: Soft
StackLeniency: 0.4
Mode: 0
LetterboxInBreaks: 0
WidescreenStoryboard: 1

[Editor]
Bookmarks: 48345,201449
DistanceSpacing: 1.8
BeatDivisor: 4
GridSize: 8
TimelineZoom: 2

[Metadata]
Title:Be Free (Dancecore Mix) (Nightcore Mix)
TitleUnicode:Be Free (Dancecore Mix) (Nightcore Mix)
Artist:DJ Mikesh
ArtistUnicode:DJ Mikesh
Creator:Andrea
Version:Leomine's Hard
Source:
Tags:osuplayer111 Appetible Appe Leomine LeomineXD Froskya Revialink StripedGoose Techno Trance Electronic Remix English Female Vocals Full Version Handsup Hands Up Sped Speed Up Ver
BeatmapID:3883432
BeatmapSetID:1886047

[Difficulty]
HPDrainRate:5
CircleSize:4
OverallDifficulty:7
ApproachRate:8
SliderMultiplier:1.4
SliderTickRate:1

[Events]
//Background and Video events
0,0,"BG.jpg",0,0
//Break Periods
2,95442,97251
//Storyboard Layer 0 (Background)
//Storyboard Layer 1 (Fail)
//Storyboard Layer 2 (Pass)
//Storyboard Layer 3 (Foreground)
//Storyboard Layer 4 (Overlay)
//Storyboard Sound Samples

[TimingPoints]
70,344.827586206897,4,2,1,60,1,0
48345,-125,4,2,1,60,0,0
84207,-142.857142857143,4,2,1,50,0,0
98001,-111.111111111111,4,2,2,60,0,0
103518,-100,4,2,2,70,0,0
110414,-90.9090909090909,4,2,99,80,0,1
120759,-125,4,2,99,80,0,1
121449,-90.9090909090909,4,2,99,80,0,1
132483,-125,4,2,2,80,0,1
133863,-90.9090909090909,4,2,99,80,0,1
138001,-111.111111111111,4,2,2,80,0,1
140759,-100,4,2,2,80,0,1
142138,-90.9090909090909,4,2,2,80,0,1
143518,-125,4,2,1,60,0,0
162828,-111.111111111111,4,2,1,70,0,0
164207,-100,4,2,1,70,0,0
165587,-125,4,2,1,70,0,0
166966,-125,4,2,1,60,0,0
168345,-90.9090909090909,4,2,99,80,0,1
190414,-111.111111111111,4,2,2,60,0,0
195932,-111.111111111111,4,2,2,50,0,0
199983,-111.111111111111,4,2,2,5,0,0
200070,-100,4,2,2,70,0,0

[Colours]
Combo1 : 170,85,255
Combo2 : 255,140,85
Combo3 : 255,85,255
Combo4 : 255,255,85
Combo5 : 85,200,255
Combo6 : 85,255,85

[HitObjects]
256,192,48345,12,4,51104,3:0:0:0:
371,289,51621,5,4,3:0:0:0:
371,289,51794,2,0,P|316:300|262:316,1,112,4|2,3:0|0:0,0:0:0:0:
236,240,52311,2,0,P|289:223|344:212,1,112,2|0,0:0|0:0,0:0:0:0:
402,151,52828,1,2,0:0:0:0:
402,151,53001,2,0,P|403:96|362:60,1,112,2|0,0:0|0:0,0:0:0:0:
286,27,53518,1,4,3:0:0:0:
231,94,53690,1,4,3:0:0:0:
231,94,53863,6,0,P|206:81|178:79,1,56,4|0,3:0|0:0,0:0:0:0:
111,34,54207,2,0,P|68:69|13:70,1,112,4|4,3:0|3:0,0:0:0:0:
136,186,54897,1,4,3:0:0:0:
362,347,56621,6,0,P|376:292|393:239,1,112,4|2,3:0|0:0,0:0:0:0:
446,177,57138,1,4,3:0:0:0:
446,177,57311,2,0,P|413:133|358:130,1,112,4|2,3:0|0:0,0:0:0:0:
294,180,57828,2,0,B|253:168|253:168|239:147|239:147|191:133,1,112,2|0,0:0|0:0,0:0:0:0:
134,82,58345,1,2,0:0:0:0:
134,82,58518,2,0,B|91:94|91:94|76:115|76:115|36:127,1,112,2|0,0:0|0:0,0:0:0:0:
1,204,59035,1,4,3:0:0:0:
68,259,59207,1,4,3:0:0:0:
68,259,59380,6,0,L|176:229,1,112,4|4,3:0|3:0,0:0:0:0:
233,171,59897,2,0,B|299:180|264:213|336:224,1,112,2|0,0:0|0:0,0:0:0:0:
396,177,60414,1,4,3:0:0:0:
396,177,60587,2,0,P|447:192|467:242,1,112,2|0,0:0|0:0,0:0:0:0:
430,315,61104,2,0,L|375:329,1,56,2|2,0:0|0:0,0:0:0:0:
314,276,61449,2,0,B|247:285|282:318|210:329,1,112,2|2,0:0|0:0,0:0:0:0:
92,215,62138,6,0,P|38:211|2:251,1,112,4|0,3:0|0:0,0:0:0:0:
155,266,62656,1,2,0:0:0:0:
155,266,62828,2,0,P|180:218|158:169,1,112,4|2,3:0|0:0,0:0:0:0:
85,135,63345,2,0,P|100:81|121:29,1,112,4|0,3:0|0:0,0:0:0:0:
190,74,63863,1,4,3:0:0:0:
190,74,64035,2,0,P|244:73|281:33,1,112,2|0,0:0|0:0,0:0:0:0:
359,0,64552,1,4,3:0:0:0:
422,60,64725,1,4,3:0:0:0:
422,60,64897,6,0,P|408:84|406:111,1,56,4|0,3:0|0:0,0:0:0:0:
461,176,65242,2,0,P|468:230|440:277,1,112,4|4,3:0|3:0,0:0:0:0:
289,191,65932,1,4,3:0:0:0:
67,348,67656,6,0,B|84:322|84:322|69:242,1,112,4|2,3:0|0:0,0:0:0:0:
10,186,68173,1,4,3:0:0:0:
10,186,68345,2,0,P|23:131|37:77,1,112,4|2,3:0|0:0,0:0:0:0:
104,30,68863,2,0,P|139:70|193:68,1,112,2|0,0:0|0:0,0:0:0:0:
256,15,69380,1,2,0:0:0:0:
256,15,69552,2,0,P|309:30|363:46,1,112,2|0,0:0|0:0,0:0:0:0:
443,18,70070,1,4,3:0:0:0:
495,87,70242,1,4,3:0:0:0:
495,87,70414,6,0,L|462:194,1,112,4|4,3:0|3:0,0:0:0:0:
390,231,70932,2,0,P|354:190|300:192,1,112,2|0,0:0|0:0,0:0:0:0:
240,248,71449,1,4,3:0:0:0:
240,248,71621,2,0,B|200:237|200:237|183:212|183:212|143:202,1,112,2|0,0:0|0:0,0:0:0:0:
83,148,72138,1,2,0:0:0:0:
15,198,72311,2,0,P|0:250|32:294,1,112,2|0,0:0|0:0,0:0:0:0:
113,280,72828,1,2,0:0:0:0:
269,369,73173,6,0,P|322:353|378:344,1,112,4|0,3:0|0:0,0:0:0:0:
462,341,73690,1,4,3:0:0:0:
462,341,73863,2,0,P|437:291|453:239,1,112,4|4,3:0|3:0,0:0:0:0:
502,174,74380,1,0,0:0:0:0:
438,120,74552,2,0,P|383:132|330:150,1,112,2|4,0:0|3:0,0:0:0:0:
180,226,75242,6,0,P|204:176|188:124,1,112,2|4,0:0|3:0,0:0:0:0:
119,76,75759,1,4,3:0:0:0:
119,76,75932,2,0,L|65:89,1,56,4|0,3:0|0:0,0:0:0:0:
11,157,76276,1,4,3:0:0:0:
75,216,76449,6,0,P|87:269|57:314,1,112,2|0,0:0|0:0,0:0:0:0:
110,377,76966,1,4,3:0:0:0:
110,377,77138,2,0,P|163:360|218:352,1,112,4|0,3:0|0:0,0:0:0:0:
282,300,77656,1,4,3:0:0:0:
186,162,78001,2,0,L|131:174,2,56,2|4|4,0:0|3:0|3:0,0:0:0:0:
257,107,78518,1,0,0:0:0:0:
257,107,78690,6,0,L|310:122,1,56,4|2,3:0|0:0,0:0:0:0:
384,86,79035,1,0,0:0:0:0:
432,155,79207,1,4,3:0:0:0:
432,155,79380,2,0,L|401:262,1,112,4|4,3:0|3:0,0:0:0:0:
332,305,79897,6,0,B|265:287|304:262|241:244,1,112,2|0,0:0|0:0,0:0:0:0:
165,271,80414,1,4,3:0:0:0:
28,164,80759,2,0,P|44:110|58:56,1,112,2|4,0:0|3:0,0:0:0:0:
131,8,81276,1,4,3:0:0:0:
131,8,81449,6,0,P|183:17|206:66,1,112,4|4,3:0|3:0,0:0:0:0:
153,133,81966,2,0,P|163:159|170:186,1,56,2|0,0:0|0:0,0:0:0:0:
242,225,82311,2,0,P|268:214|295:207,1,56,2|4,0:0|3:0,0:0:0:0:
359,153,82656,1,0,0:0:0:0:
359,153,82828,6,0,P|413:165|466:182,1,112,2|2,0:0|0:0,0:0:0:0:
416,343,83518,1,2,0:0:0:0:
416,343,83690,2,0,P|389:333|362:326,1,56,0|2,0:0|0:0,0:0:0:0:
242,225,84207,6,0,P|170:240|100:263,1,146.999995513916,4|2,3:0|0:0,0:0:0:0:
30,229,84897,2,0,P|66:168|42:101,1,146.999995513916,2|0,0:0|0:0,0:0:0:0:
35,23,85587,2,0,B|81:32|81:32|83:37|83:37|103:43|123:45|123:45|129:43|129:43|176:52,1,146.999995513916,2|0,0:0|0:0,0:0:0:0:
250,21,86276,1,2,0:0:0:0:
175,159,86621,1,2,0:0:0:0:
307,243,86966,6,0,P|375:215|447:202,2,146.999995513916,2|2|2,0:0|0:0|0:0,0:0:0:0:
90,365,89035,2,0,P|80:316|66:269,1,97.9999970092774,2|0,0:0|0:0,0:0:0:0:
11,133,89725,5,4,3:0:0:0:
11,133,89897,2,0,P|35:128|58:122,1,48.9999985046387,2|0,0:0|0:0,0:0:0:0:
116,68,90242,2,0,P|163:64|198:96,1,97.9999970092774,2|0,0:0|0:0,0:0:0:0:
238,167,90759,1,2,0:0:0:0:
238,167,90932,6,0,P|275:195|322:187,1,97.9999970092774,2|0,0:0|0:0,0:0:0:0:
490,44,91794,2,0,B|470:69|470:69|483:133,1,97.9999970092774,2|2,0:0|0:0,0:0:0:0:
502,215,92311,1,0,0:0:0:0:
502,215,92483,6,0,P|455:208|417:237,1,97.9999970092774,2|0,0:0|0:0,0:0:0:0:
345,275,93001,2,0,B|356:321|356:321|361:326|361:326|372:369,2,97.9999970092774,2|0|0,0:0|0:0|0:0,0:0:0:0:
274,231,93863,2,0,B|222:245|250:272|196:290,1,97.9999970092774,2|0,0:0|0:0,0:0:0:0:
125,263,94380,2,0,P|139:216|151:168,1,97.9999970092774,2|0,0:0|0:0,0:0:0:0:
99,110,94897,1,2,0:0:0:0:
256,10,95242,5,4,3:0:0:0:
101,322,98001,6,0,B|137:315|146:284|146:284|166:310|202:304,1,125.999996154785,10|10,0:0|0:0,0:0:0:0:
268,244,98518,1,0,0:0:0:0:
268,244,98690,2,0,P|298:251|319:274,1,62.9999980773926,10|0,0:0|0:0,0:0:0:0:
202,304,99035,2,0,P|182:279|179:248,1,62.9999980773926,10|2,0:0|0:0,0:0:0:0:
218,170,99380,6,0,P|223:108|181:63,1,125.999996154785,10|10,0:0|0:0,0:0:0:0:
93,40,99897,1,0,0:0:0:0:
45,118,100070,2,0,P|40:179|82:224,1,125.999996154785,10|10,0:0|0:0,0:0:0:0:
169,243,100587,1,2,0:0:0:0:
218,170,100759,6,0,B|265:185|265:185|297:177|297:177|345:191,1,125.999996154785,10|10,0:0|0:0,0:0:0:0:
405,248,101276,1,0,0:0:0:0:
405,248,101449,2,0,P|436:247|463:231,1,62.9999980773926,10|0,0:0|0:0,0:0:0:0:
512,158,101794,1,10,0:0:0:0:
445,101,101966,1,2,0:0:0:0:
498,27,102138,6,0,B|469:23|445:-4|445:-4|413:15|385:11,1,125.999996154785,10|10,0:0|0:0,0:0:0:0:
316,67,102656,1,0,0:0:0:0:
248,11,102828,2,0,B|219:14|188:-4|188:-4|163:22|135:26,1,125.999996154785,10|10,0:0|0:0,0:0:0:0:
45,12,103345,1,2,0:0:0:0:
84,106,103518,6,0,L|68:174,1,70,4|0,1:2|0:0,0:0:0:0:
13,247,103863,2,0,P|42:265|77:265,1,70,8|2,1:2|0:0,0:0:0:0:
156,221,104207,2,0,P|190:219|221:236,1,70,10|2,1:2|1:2,0:0:0:0:
276,309,104552,1,10,1:2:0:0:
276,309,104725,1,2,1:2:0:0:
350,251,104897,6,0,L|334:182,1,70,4|0,1:2|0:0,0:0:0:0:
253,141,105242,2,0,P|260:106|271:73,1,70,8|2,1:2|0:0,0:0:0:0:
342,16,105587,2,0,B|376:15|376:15|406:32,1,70,10|0,1:2|1:2,0:0:0:0:
477,92,105932,1,10,1:2:0:0:
477,92,106104,1,2,1:2:0:0:
423,169,106276,6,0,L|438:237,2,70,6|0|10,1:2|1:2|1:2,0:0:0:0:
339,124,106794,1,2,1:2:0:0:
339,124,106966,2,0,L|354:55,2,70,6|2|10,1:2|1:2|1:2,0:0:0:0:
263,181,107483,1,2,1:2:0:0:
263,181,107656,6,0,P|232:164|197:164,1,70,6|0,1:2|1:2,0:0:0:0:
132,101,108001,2,0,P|102:119|67:121,1,70,14|0,1:2|1:2,0:0:0:0:
0,186,108345,2,0,L|9:222,3,35,6|0|0|0,1:2|1:2|1:2|1:2,0:0:0:0:
34,236,108690,2,0,L|43:272,3,35,14|0|0|0,1:2|1:2|1:2|1:2,0:0:0:0:
64,291,109035,1,2,0:0:0:0:
351,345,109725,5,2,0:0:0:0:
351,345,109897,2,0,P|385:336|419:329,1,70,2|2,0:0|0:0,0:0:0:0:
480,244,110242,1,0,1:0:0:0:
480,244,110328,1,0,1:0:0:0:
480,244,110414,6,0,P|426:193|442:121,1,154.000004699707,6|2,1:0|1:0,0:0:0:0:
480,37,110932,1,2,0:0:0:0:
480,37,111104,2,0,P|441:40|404:48,1,77.0000023498536,2|2,1:0|0:0,0:0:0:0:
330,105,111449,1,2,1:0:0:0:
261,38,111621,1,2,0:1:0:0:
179,81,111794,6,0,P|133:140|151:212,1,154.000004699707,2|2,1:0|1:0,0:0:0:0:
227,266,112311,1,2,0:0:0:0:
227,266,112483,2,0,L|301:248,1,77.0000023498536,2|2,1:0|0:0,0:0:0:0:
361,177,112828,1,2,1:0:0:0:
439,227,113001,1,2,0:1:0:0:
496,150,113173,6,0,L|457:0,1,154.000004699707,2|2,1:0|1:0,0:0:0:0:
387,67,113690,1,2,0:0:0:0:
387,67,113863,2,0,P|349:70|316:51,1,77.0000023498536,2|2,1:0|0:0,0:0:0:0:
236,7,114207,2,0,P|220:41|187:59,1,77.0000023498536,2|2,1:0|0:1,0:0:0:0:
95,47,114552,6,0,B|63:48|41:21|41:21|55:67|58:112,1,154.000004699707,2|2,1:0|1:0,0:0:0:0:
0,190,115070,1,2,0:0:0:0:
0,190,115242,2,0,L|17:264,1,77.0000023498536,2|2,1:0|0:0,0:0:0:0:
91,322,115587,1,2,1:0:0:0:
157,247,115759,1,2,0:1:0:0:
157,247,115845,1,2,0:1:0:0:
157,247,115932,6,0,B|239:264|193:311|285:327,1,154.000004699707,2|8,1:0|1:0,0:0:0:0:
362,279,116449,1,2,0:0:0:0:
362,279,116621,2,0,L|342:204,1,77.0000023498536,2|2,1:0|0:1,0:0:0:0:
281,135,116966,1,10,1:0:0:0:
205,187,117138,1,2,0:1:0:0:
129,128,117311,6,0,P|111:56|161:2,1,154.000004699707,2|8,1:0|1:0,0:0:0:0:
208,83,117828,1,2,0:0:0:0:
208,83,118001,2,0,L|280:58,1,77.0000023498536,2|2,1:0|0:0,0:0:0:0:
365,21,118345,1,10,1:0:0:0:
399,107,118518,1,2,0:1:0:0:
317,149,118690,6,0,P|299:220|349:274,1,154.000004699707,2|10,1:0|1:0,0:0:0:0:
417,338,119207,1,2,0:0:0:0:
417,338,119380,2,0,P|454:339|486:319,1,77.0000023498536,2|2,1:0|0:1,0:0:0:0:
349,274,119725,2,0,P|311:272|279:292,1,77.0000023498536,10|2,1:0|0:1,0:0:0:0:
213,363,120070,6,0,B|159:352|159:352|137:316|137:316|80:305,1,154.000004699707,2|10,1:0|1:0,0:0:0:0:
20,235,120587,1,2,0:0:0:0:
82,171,120759,2,0,L|55:62,1,112,2|2,0:1|0:1,0:0:0:0:
163,104,121276,1,2,0:1:0:0:
163,104,121363,1,2,0:1:0:0:
163,104,121449,6,0,B|254:88|200:37|289:22,1,154.000004699707,6|10,1:0|1:0,0:0:0:0:
373,53,121966,1,2,0:0:0:0:
373,53,122138,2,0,L|351:127,1,77.0000023498536,2|2,1:0|0:1,0:0:0:0:
276,181,122483,1,10,1:0:0:0:
333,259,122656,1,2,0:1:0:0:
271,327,122828,6,0,P|197:305|122:284,1,154.000004699707,2|10,1:0|1:0,0:0:0:0:
66,212,123345,1,2,0:0:0:0:
66,212,123518,2,0,P|36:236|0:235,1,77.0000023498536,2|2,1:0|0:0,0:0:0:0:
120,137,123863,1,10,1:0:0:0:
45,83,124035,1,2,0:1:0:0:
108,16,124207,6,0,B|148:24|181:3|181:3|203:36|244:44,1,154.000004699707,2|10,1:0|1:0,0:0:0:0:
320,99,124725,1,2,0:0:0:0:
320,99,124897,2,0,P|357:88|394:79,1,77.0000023498536,2|2,1:0|0:1,0:0:0:0:
489,59,125242,2,0,P|469:91|472:129,1,77.0000023498536,10|2,1:0|0:1,0:0:0:0:
512,213,125587,6,0,B|454:199|454:199|421:217|421:217|358:202,1,154.000004699707,2|10,1:0|1:0,0:0:0:0:
293,146,126104,1,2,0:0:0:0:
293,146,126276,2,0,P|255:155|218:166,1,77.0000023498536,2|2,1:0|0:0,0:0:0:0:
149,233,126621,1,10,1:0:0:0:
57,184,126794,1,2,0:1:0:0:
57,184,126880,1,2,0:1:0:0:
57,184,126966,6,0,B|31:111|31:111|38:66|86:59,1,154.000004699707,2|10,1:0|1:0,0:0:0:0:
160,11,127483,1,2,0:0:0:0:
160,11,127656,2,0,P|197:20|234:31,1,77.0000023498536,2|2,1:0|0:1,0:0:0:0:
294,102,128001,1,10,1:0:0:0:
220,163,128173,1,2,0:1:0:0:
278,235,128345,6,0,B|304:267|304:267|283:378,1,154.000004699707,2|10,1:0|1:0,0:0:0:0:
208,316,128863,1,2,0:0:0:0:
208,316,129035,2,0,P|173:300|135:304,1,77.0000023498536,2|2,1:0|0:0,0:0:0:0:
60,358,129380,1,10,1:0:0:0:
3,281,129552,1,2,0:1:0:0:
81,230,129725,6,0,P|93:155|108:79,1,154.000004699707,2|10,1:0|1:0,0:0:0:0:
178,18,130242,1,2,0:0:0:0:
178,18,130414,2,0,P|209:38|247:39,1,77.0000023498536,2|2,1:0|0:1,0:0:0:0:
332,0,130759,2,0,P|369:-2|403:15,1,77.0000023498536,10|2,1:0|0:1,0:0:0:0:
457,91,131104,6,0,B|416:166|472:162|427:244,1,154.000004699707,2|10,1:0|1:0,0:0:0:0:
352,289,131621,1,2,0:0:0:0:
294,217,131794,2,0,P|220:202|162:249,1,154.000004699707,2|10,1:0|1:0,0:0:0:0:
113,345,132311,1,0,1:0:0:0:
113,345,132397,1,0,1:0:0:0:
113,345,132483,5,6,1:0:0:0:
0,48,133518,1,10,1:0:0:0:
69,96,133690,1,2,1:0:0:0:
69,96,133863,6,0,P|142:74|218:58,1,154.000004699707,4|10,1:2|1:0,0:0:0:0:
295,7,134380,1,2,0:0:0:0:
295,7,134552,2,0,P|332:14|369:24,1,77.0000023498536,2|2,1:0|0:0,0:0:0:0:
432,93,134897,1,10,1:0:0:0:
361,158,135070,1,2,0:1:0:0:
416,232,135242,6,0,B|409:278|429:305|429:305|398:317|379:360,1,154.000004699707,2|10,1:0|1:0,0:0:0:0:
333,276,135759,1,2,0:0:0:0:
333,276,135932,2,0,L|258:295,1,77.0000023498536,2|2,1:0|0:1,0:0:0:0:
231,208,136276,2,0,L|305:188,1,77.0000023498536,10|2,1:0|0:1,0:0:0:0:
372,124,136621,6,0,P|380:50|321:7,1,154.000004699707,2|10,1:0|1:0,0:0:0:0:
247,68,137138,1,2,0:0:0:0:
247,68,137311,2,0,L|172:48,1,77.0000023498536,2|2,1:0|0:0,0:0:0:0:
87,4,137656,2,0,L|49:13,3,38.5000011749268,2|2|2|2,1:0|1:0|1:0|1:0,0:0:0:0:
27,36,138001,6,0,P|64:84|58:145,1,125.999996154785,6|8,1:0|1:2,0:0:0:0:
0,306,138690,2,0,L|61:320,1,62.9999980773926,2|2,1:0|0:1,0:0:0:0:
133,366,139035,1,8,1:2:0:0:
191,296,139207,1,2,0:1:0:0:
191,296,139380,6,0,P|154:247|171:188,1,125.999996154785,6|10,1:0|1:0,0:0:0:0:
237,129,139897,1,2,0:0:0:0:
237,129,140070,2,0,L|298:143,1,62.9999980773926,2|2,1:0|0:0,0:0:0:0:
346,217,140414,1,10,1:0:0:0:
421,170,140587,1,2,0:1:0:0:
373,97,140759,6,0,L|388:28,2,70,6|2|10,1:0|1:2|1:0,0:0:0:0:
298,143,141276,1,2,1:2:0:0:
298,143,141449,2,0,L|313:211,2,70,2|2|10,1:0|1:0|1:0,0:0:0:0:
224,89,141966,1,2,1:0:0:0:
224,89,142138,6,0,P|186:89|154:110,1,77.0000023498536,6|0,1:0|1:2,0:0:0:0:
67,93,142483,2,0,P|51:127|57:165,1,77.0000023498536,10|0,1:0|1:2,0:0:0:0:
120,233,142828,2,0,L|109:270,3,38.5000011749268,6|0|0|0,1:0|1:2|1:2|1:2,0:0:0:0:
81,291,143173,2,0,L|70:328,3,38.5000011749268,10|0|2|0,1:0|1:2|1:2|1:2,0:0:0:0:
81,360,143518,5,6,1:2:0:0:
262,163,144207,2,0,L|369:194,1,112,2|2,0:0|0:0,0:0:0:0:
482,121,144897,2,0,P|482:66|443:28,1,112,2|2,0:0|0:0,0:0:0:0:
320,82,145587,2,0,P|265:88|224:53,1,112,2|4,0:0|3:0,0:0:0:0:
140,15,146104,1,4,3:0:0:0:
140,15,146276,6,0,P|146:69|111:110,1,112,4|2,3:0|0:0,0:0:0:0:
11,201,146966,2,0,L|118:232,1,112,2|4,0:0|3:0,0:0:0:0:
230,317,147656,2,0,B|273:305|273:305|287:286|287:286|329:274,1,112,2|2,0:0|0:0,0:0:0:0:
408,166,148345,2,0,P|364:134|365:80,1,112,2|2,0:0|0:0,0:0:0:0:
429,25,148863,1,2,0:0:0:0:
365,80,149035,5,4,3:0:0:0:
365,80,149207,2,0,P|338:71|310:65,1,56,2|0,0:0|0:0,0:0:0:0:
244,10,149552,1,2,0:0:0:0:
180,69,149725,2,0,P|125:73|89:33,1,112,4|0,3:0|0:0,0:0:0:0:
16,75,150242,6,0,B|39:106|39:106|25:177,1,112,2|0,0:0|0:0,0:0:0:0:
262,352,151104,2,0,P|273:297|291:244,1,112,2|4,0:0|3:0,0:0:0:0:
251,170,151621,1,4,3:0:0:0:
172,207,151794,6,0,P|117:211|79:172,1,112,4|4,3:0|3:0,0:0:0:0:
11,124,152311,2,0,B|21:72|21:72|27:67|27:67|37:16,2,112,2|2|2,0:0|0:0|0:0,0:0:0:0:
79,172,153173,2,0,B|69:232|1:238|1:238|40:294|0:340,1,224,2|2,0:0|0:0,0:0:0:0:
310,102,154552,6,0,P|363:86|418:74,1,112,4|2,3:0|0:0,0:0:0:0:
488,122,155070,1,4,3:0:0:0:
488,122,155242,2,0,P|453:164|459:218,1,112,4|4,3:0|3:0,0:0:0:0:
464,303,155759,1,4,3:0:0:0:
464,303,155932,6,0,B|404:291|430:264|365:250,1,112,2|4,0:0|3:0,0:0:0:0:
223,326,156621,2,0,P|209:271|189:219,1,112,2|4,0:0|3:0,0:0:0:0:
123,163,157138,1,4,3:0:0:0:
158,80,157311,6,0,B|199:43|199:43|255:50,2,112,4|4|2,3:0|3:0|0:0,0:0:0:0:
123,163,158173,1,0,0:0:0:0:
123,163,158345,2,0,L|69:146,1,56,4|4,3:0|3:0,0:0:0:0:
200,44,158863,5,0,0:0:0:0:
200,44,159035,2,0,L|253:60,1,56,4|0,3:0|0:0,0:0:0:0:
326,104,159380,2,0,L|379:87,2,56,4|4|2,3:0|3:0|0:0,0:0:0:0:
272,176,159897,1,0,0:0:0:0:
272,176,160070,6,0,P|271:203|288:225,1,56,4|2,3:0|0:0,0:0:0:0:
365,259,160414,1,0,0:0:0:0:
326,337,160587,1,2,0:0:0:0:
326,337,160759,2,0,L|272:353,1,56,4|2,3:0|0:0,0:0:0:0:
203,306,161104,1,4,3:0:0:0:
152,376,161276,6,0,P|98:357|45:342,1,112,2|2,0:0|0:0,0:0:0:0:
0,274,161794,1,4,3:0:0:0:
113,158,162138,2,0,P|166:173|219:191,1,112,2|4,0:0|3:0,0:0:0:0:
292,241,162656,1,4,3:0:0:0:
362,178,162828,6,0,P|363:147|346:121,2,62.9999980773926,4|2|0,1:2|1:2|1:2,0:0:0:0:
292,241,163345,1,0,1:2:0:0:
292,241,163518,2,0,L|310:301,2,62.9999980773926,6|2|0,1:2|1:2|1:2,0:0:0:0:
213,183,164035,1,2,1:2:0:0:
213,183,164207,6,0,P|185:203|150:205,1,70,6|0,1:2|1:0,0:0:0:0:
74,150,164552,2,0,L|95:83,1,70,6|0,1:2|1:0,0:0:0:0:
172,34,164897,2,0,L|205:44,3,35,6|0|0|0,1:2|1:2|1:0|1:0,0:0:0:0:
234,35,165242,2,0,L|267:45,3,35,6|0|0|0,1:2|1:2|1:2|1:2,0:0:0:0:
296,36,165587,5,6,1:2:0:0:
24,220,166966,6,0,L|40:292,1,74.6666666666667,4|0,3:0|0:0,0:0:0:0:
121,272,167311,6,0,L|104:199,1,74.6666666666667,4|0,3:0|0:0,0:0:0:0:
192,176,167656,6,0,L|208:248,1,74.6666666666667,4|0,3:0|0:0,0:0:0:0:
303,222,168001,6,0,L|286:149,1,74.6666666666667,4|4,3:0|3:0,0:0:0:0:
339,67,168345,6,0,P|389:62|429:92,1,102.666669799805,6|2,1:0|0:0,0:0:0:0:
481,157,168690,2,0,L|454:255,1,102.666669799805,10|2,1:0|0:0,0:0:0:0:
390,309,169035,1,2,1:0:0:0:
303,215,169265,1,2,0:0:0:0:
303,215,169380,1,10,1:0:0:0:
195,284,169610,1,2,0:1:0:0:
195,284,169725,6,0,P|146:268|96:253,1,102.666669799805,2|2,1:0|0:0,0:0:0:0:
21,214,170070,2,0,B|52:173|52:173|49:122,1,102.666669799805,10|2,1:0|0:0,0:0:0:0:
6,52,170414,1,2,1:0:0:0:
122,107,170644,1,2,0:0:0:0:
122,107,170759,2,0,P|170:91|220:76,1,102.666669799805,10|2,1:0|0:1,0:0:0:0:
283,15,171104,6,0,P|316:52|314:102,1,102.666669799805,2|2,1:0|0:0,0:0:0:0:
259,165,171449,2,0,P|257:215|290:252,1,102.666669799805,10|2,1:0|0:0,0:0:0:0:
356,307,171794,2,0,P|404:291|454:276,1,102.666669799805,2|2,1:0|0:0,0:0:0:0:
508,211,172138,1,10,1:0:0:0:
422,109,172368,1,2,0:1:0:0:
422,109,172483,6,0,P|372:123|323:139,1,102.666669799805,2|2,1:0|0:0,0:0:0:0:
255,185,172828,2,0,P|206:169|156:154,1,102.666669799805,10|2,1:0|0:0,0:0:0:0:
90,101,173173,1,2,1:0:0:0:
0,200,173403,1,2,0:0:0:0:
0,200,173518,2,0,B|17:228|17:228|1:301,1,102.666669799805,10|2,1:0|0:1,0:0:0:0:
89,271,173863,6,0,B|146:257|129:300|188:287,1,102.666669799805,2|2,1:0|0:0,0:0:0:0:
267,303,174207,2,0,P|286:256|266:210,1,102.666669799805,10|2,1:0|0:0,0:0:0:0:
196,162,174552,1,2,1:0:0:0:
294,79,174782,1,2,0:0:0:0:
294,79,174897,2,0,L|278:27,2,51.3333348999024,10|2|2,1:0|0:1|0:1,0:0:0:0:
373,118,175242,6,0,P|410:84|460:86,1,102.666669799805,2|2,1:0|0:0,0:0:0:0:
512,150,175587,2,0,P|495:198|481:247,1,102.666669799805,10|2,1:0|0:0,0:0:0:0:
415,302,175932,1,2,1:0:0:0:
243,187,176276,2,0,P|193:200|145:217,1,102.666669799805,10|2,1:0|0:1,0:0:0:0:
58,232,176621,6,0,P|77:185|66:136,1,102.666669799805,2|2,1:0|0:0,0:0:0:0:
15,67,176966,2,0,B|54:54|54:54|77:65|77:65|121:53,1,102.666669799805,10|2,1:0|0:0,0:0:0:0:
183,13,177311,1,2,1:0:0:0:
150,132,177541,1,2,0:0:0:0:
150,132,177656,1,10,1:0:0:0:
253,208,177886,1,2,0:1:0:0:
253,208,178001,6,0,P|301:191|350:177,1,102.666669799805,2|2,1:0|0:0,0:0:0:0:
417,124,178345,2,0,P|466:116|506:146,1,102.666669799805,10|2,1:0|0:0,0:0:0:0:
444,201,178690,1,2,1:0:0:0:
220,34,179035,2,0,L|170:46,1,51.3333348999024,2|0,1:0|1:0,0:0:0:0:
79,27,179265,1,2,1:0:0:0:
79,27,179380,6,0,P|101:72|90:121,1,102.666669799805,6|2,1:0|0:0,0:0:0:0:
25,173,179725,2,0,P|13:222|35:267,1,102.666669799805,10|2,1:0|0:0,0:0:0:0:
122,293,180070,1,2,1:0:0:0:
197,196,180299,1,2,0:0:0:0:
197,196,180414,1,10,1:0:0:0:
311,265,180644,1,2,0:1:0:0:
311,265,180759,6,0,P|359:247|409:235,1,102.666669799805,2|2,1:0|0:0,0:0:0:0:
385,153,181104,2,0,P|334:164|286:182,1,102.666669799805,10|2,1:0|0:0,0:0:0:0:
227,243,181449,1,2,1:0:0:0:
128,146,181679,1,2,0:0:0:0:
128,146,181794,2,0,L|78:159,2,51.3333348999024,10|2|2,1:0|0:1|0:1,0:0:0:0:
183,78,182138,6,0,B|246:84|213:104|278:110,1,102.666669799805,2|2,1:0|0:0,0:0:0:0:
348,61,182483,2,0,P|391:35|441:41,1,102.666669799805,10|2,1:0|0:0,0:0:0:0:
512,89,182828,2,0,L|484:187,1,102.666669799805,2|2,1:0|0:0,0:0:0:0:
421,242,183173,1,10,1:0:0:0:
307,172,183403,1,2,0:1:0:0:
307,172,183518,6,0,P|257:184|208:199,1,102.666669799805,2|2,1:0|0:0,0:0:0:0:
130,164,183863,2,0,P|80:157|42:189,1,102.666669799805,10|2,1:0|0:0,0:0:0:0:
14,266,184207,1,2,1:0:0:0:
122,335,184437,1,2,0:0:0:0:
122,335,184552,2,0,L|109:384,2,51.3333348999024,10|2|2,1:0|0:1|0:1,0:0:0:0:
198,286,184897,6,0,P|227:246|217:197,1,102.666669799805,2|2,1:0|0:0,0:0:0:0:
158,134,185242,2,0,B|149:83|149:83|181:43,1,102.666669799805,10|2,1:0|0:0,0:0:0:0:
257,11,185587,1,2,1:0:0:0:
364,91,185817,1,2,0:0:0:0:
364,91,185932,2,0,L|413:78,2,51.3333348999024,10|2|2,1:0|0:1|0:1,0:0:0:0:
308,158,186276,6,0,P|299:207|330:246,1,102.666669799805,2|2,1:0|0:0,0:0:0:0:
387,313,186621,2,0,B|341:325|341:325|337:331|337:331|288:345,1,102.666669799805,10|2,1:0|0:0,0:0:0:0:
216,303,186966,1,2,1:0:0:0:
27,371,187311,2,0,P|16:320|1:271,1,102.666669799805,10|2,1:0|0:1,0:0:0:0:
44,189,187656,6,0,P|83:220|133:216,1,102.666669799805,6|2,1:0|1:2,0:0:0:0:
192,154,188001,2,0,P|231:122|281:126,1,102.666669799805,10|2,1:0|1:2,0:0:0:0:
349,176,188345,1,6,1:0:0:0:
306,297,188575,1,2,1:2:0:0:
306,297,188690,1,10,1:0:0:0:
175,269,188920,1,2,1:2:0:0:
175,269,189035,6,0,L|75:294,1,102.666669799805,6|2,1:0|1:2,0:0:0:0:
51,212,189380,2,0,L|150:186,1,102.666669799805,10|2,1:0|1:2,0:0:0:0:
237,202,189725,2,0,P|245:225|264:242,2,51.3333348999024,6|2|0,1:0|0:0|0:0,0:0:0:0:
280,125,190070,2,0,P|257:113|231:115,2,51.3333348999024,10|2|0,1:0|0:0|0:0,0:0:0:0:
351,184,190414,6,0,L|432:163,1,83.9999974365235,6|0,1:2|0:0,0:0:0:0:
476,105,190759,2,0,P|478:63|452:32,1,83.9999974365235,10|0,0:0|0:0,0:0:0:0:
387,2,191104,2,0,L|305:22,1,83.9999974365235,10|0,0:0|0:0,0:0:0:0:
243,62,191449,1,10,0:0:0:0:
135,16,191679,1,0,0:0:0:0:
135,16,191794,6,0,B|116:42|116:42|128:102,1,83.9999974365235,10|0,0:0|0:0,0:0:0:0:
173,147,192138,2,0,L|155:229,1,83.9999974365235,10|0,0:0|0:0,0:0:0:0:
101,280,192483,1,10,0:0:0:0:
245,381,192828,2,0,B|278:372|278:372|288:356|288:356|329:345,1,83.9999974365235,10|0,0:0|0:0,0:0:0:0:
395,363,193173,6,0,P|421:331|422:289,1,83.9999974365235,10|0,0:0|0:0,0:0:0:0:
378,233,193518,2,0,B|343:241|343:241|339:248|339:248|295:259,1,83.9999974365235,10|0,0:0|0:0,0:0:0:0:
244,303,193863,2,0,P|203:291|162:281,1,83.9999974365235,10|0,0:0|0:0,0:0:0:0:
117,224,194207,1,10,0:0:0:0:
202,143,194437,1,0,0:0:0:0:
202,143,194552,6,0,P|208:102|186:67,1,83.9999974365235,10|0,0:0|0:0,0:0:0:0:
129,20,194897,2,0,P|88:30|47:41,1,83.9999974365235,10|0,0:0|0:0,0:0:0:0:
0,95,195242,1,10,0:0:0:0:
122,222,195587,2,0,P|162:210|203:200,1,83.9999974365235,10|0,0:0|0:0,0:0:0:0:
256,146,195932,6,0,P|317:161|377:178,1,125.999996154785,10|10,0:0|0:0,0:0:0:0:
478,333,196621,2,0,P|459:369|420:383,1,83.9999974365235,10|0,0:0|0:0,0:0:0:0:
366,336,196966,2,0,L|376:295,2,41.9999987182618,10|2|2,0:0|0:0|0:0,0:0:0:0:
299,363,197311,6,0,L|178:331,1,125.999996154785,10|10,0:0|0:0,0:0:0:0:
50,208,198001,2,0,P|92:164|85:103,1,125.999996154785,10|10,0:0|0:0,0:0:0:0:
171,23,198575,1,2,0:0:0:0:
171,23,198690,6,0,B|206:24|231:9|231:9|246:34|278:49,1,125.999996154785,10|10,0:0|0:0,0:0:0:0:
456,2,199380,2,0,P|502:40|501:101,1,125.999996154785,10|10,0:0|0:0,0:0:0:0:
345,245,200070,6,0,L|277:227,1,70,8|0,1:2|1:2,0:0:0:0:
231,150,200414,2,0,L|163:167,1,70,8|2,1:2|1:2,0:0:0:0:
104,237,200759,1,10,1:2:0:0:
35,172,200932,1,2,1:2:0:0:
96,105,201104,2,0,L|104:71,3,35,10|2|2|2,1:2|1:2|1:2|1:2,0:0:0:0:
112,44,201449,5,4,1:2:0:0:
