osu file format v14

[General]
AudioFilename: audio.mp3
AudioLeadIn: 0
PreviewTime: 109638
Countdown: 0
SampleSet: Soft
StackLeniency: 0.7
Mode: 0
LetterboxInBreaks: 0
WidescreenStoryboard: 0

[Editor]
Bookmarks: 48345,201449
DistanceSpacing: 1.8
BeatDivisor: 6
GridSize: 4
TimelineZoom: 1.7

[Metadata]
Title:Be Free (Dancecore Mix) (Nightcore Mix)
TitleUnicode:Be Free (Dancecore Mix) (Nightcore Mix)
Artist:DJ Mikesh
ArtistUnicode:DJ Mikesh
Creator:Andrea
Version:Dance!
Source:
Tags:osuplayer111 Appetible Appe Leomine LeomineXD Froskya Revialink StripedGoose Techno Trance Electronic Remix English Female Vocals Full Version Handsup Hands Up Sped Speed Up Ver
BeatmapID:3883430
BeatmapSetID:1886047

[Difficulty]
HPDrainRate:6
CircleSize:4.5
OverallDifficulty:8.8
ApproachRate:9
SliderMultiplier:1.8
SliderTickRate:1

[Events]
//Background and Video events
0,0,"BG.jpg",0,0
//Break Periods
2,95442,97401
//Storyboard Layer 0 (Background)
//Storyboard Layer 1 (Fail)
//Storyboard Layer 2 (Pass)
//Storyboard Layer 3 (Foreground)
//Storyboard Layer 4 (Overlay)
//Storyboard Sound Samples

[TimingPoints]
70,344.827586206897,4,2,1,60,1,0
48345,-125,4,2,1,60,0,0
84207,-142.857142857143,4,2,1,50,0,0
98001,-111.111111111111,4,2,2,60,0,0
103518,-100,4,2,2,70,0,0
110414,-90.9090909090909,4,2,99,80,0,1
120759,-125,4,2,99,80,0,1
121449,-90.9090909090909,4,2,99,80,0,1
132483,-125,4,2,2,80,0,1
133863,-90.9090909090909,4,2,99,80,0,1
138001,-111.111111111111,4,2,2,80,0,1
139207,-111.111111111111,4,2,2,60,0,1
139380,-111.111111111111,4,2,2,80,0,1
140587,-111.111111111111,4,2,2,60,0,1
140759,-100,4,2,2,80,0,1
142138,-90.9090909090909,4,2,2,80,0,1
143518,-125,4,2,1,60,0,0
162828,-111.111111111111,4,2,1,70,0,0
164207,-100,4,2,1,70,0,0
165587,-125,4,2,1,70,0,0
166966,-125,4,2,1,60,0,0
168345,-90.9090909090909,4,2,99,80,0,1
190414,-111.111111111111,4,2,2,60,0,0
195932,-111.111111111111,4,2,2,50,0,0
199983,-111.111111111111,4,2,2,5,0,0
200070,-100,4,2,2,70,0,0

[Colours]
Combo1 : 170,85,255
Combo2 : 255,140,85
Combo3 : 255,85,255
Combo4 : 255,255,85
Combo5 : 85,200,255
Combo6 : 85,255,85

[HitObjects]
256,192,48345,12,4,51104,3:0:0:0:
116,80,51449,5,2,0:0:0:0:
156,156,51621,1,4,3:0:0:0:
220,96,51794,2,0,P|284:128|352:112,1,144,4|2,3:0|0:0,0:0:0:0:
432,80,52311,2,0,P|472:132|480:288,1,216,2|2,0:0|0:0,0:0:0:0:
428,344,53001,2,0,P|352:324|200:304,1,216,2|4,0:0|3:0,0:0:0:0:
132,296,53690,1,4,3:0:0:0:
132,296,53863,1,4,3:0:0:0:
12,172,54207,1,4,3:0:0:0:
164,88,54552,1,4,3:0:0:0:
72,236,54897,1,4,3:0:0:0:
72,236,56621,6,0,B|120:212|120:212|152:216|152:216|204:188,1,144,4|2,3:0|0:0,0:0:0:0:
276,144,57138,1,4,3:0:0:0:
276,144,57311,2,0,P|308:192|392:224,1,144,4|2,3:0|0:0,0:0:0:0:
456,172,57828,2,0,P|408:92|292:60,1,216,2|2,0:0|0:0,0:0:0:0:
208,52,58518,1,2,0:0:0:0:
184,136,58690,2,0,P|128:120|32:116,1,144,2|4,0:0|3:0,0:0:0:0:
42,115,59207,1,4,3:0:0:0:
4,232,59380,6,0,P|24:300|58:363,1,144,4|4,3:0|3:0,0:0:0:0:
148,348,59897,2,0,P|192:304|280:300,1,144,2|0,0:0|0:0,0:0:0:0:
356,308,60414,1,4,3:0:0:0:
440,320,60587,2,0,P|452:260|456:176,1,144,2|0,0:0|0:0,0:0:0:0:
420,100,61104,2,0,P|380:112|336:120,1,72,2|2,0:0|0:0,0:0:0:0:
268,88,61449,2,0,P|216:52|124:56,1,144,2|0,0:0|0:0,0:0:0:0:
56,204,62138,6,0,B|24:268|48:312|48:312|108:308|136:256,1,216,4|2,3:0|0:0,0:0:0:0:
192,196,62828,2,0,P|232:220|308:284,1,144,4|2,3:0|0:0,0:0:0:0:
372,336,63345,1,4,3:0:0:0:
372,336,63518,2,0,P|408:276|480:268,1,144,2|4,0:0|3:0,0:0:0:0:
492,180,64035,2,0,P|512:112|408:8,1,216,2|4,0:0|3:0,0:0:0:0:
425,10,64725,1,4,3:0:0:0:
408,116,64897,1,4,3:0:0:0:
224,152,65242,1,4,3:0:0:0:
344,276,65587,1,4,3:0:0:0:
148,308,65932,1,4,3:0:0:0:
148,308,67656,6,0,P|92:296|40:224,1,144,4|2,3:0|0:0,0:0:0:0:
41,229,68173,1,4,3:0:0:0:
72,112,68345,2,0,B|116:112|148:88|148:88|212:108,1,144,4|2,3:0|0:0,0:0:0:0:
272,168,68863,2,0,P|328:136|356:48,1,144,2|0,0:0|0:0,0:0:0:0:
436,32,69380,2,0,P|476:48|508:64,1,72,2|2,0:0|0:0,0:0:0:0:
512,148,69725,2,0,P|484:192|452:288,1,144,2|4,0:0|3:0,0:0:0:0:
453,278,70242,1,4,3:0:0:0:
336,312,70414,6,0,B|280:316|280:316|256:336|256:336|192:340,1,144,4|4,3:0|3:0,0:0:0:0:
76,276,70932,2,0,B|132:272|132:272|156:252|156:252|220:248,1,144,2|0,0:0|0:0,0:0:0:0:
288,208,71449,1,4,3:0:0:0:
228,148,71621,2,0,P|136:92|188:4,1,216,2|2,0:0|0:0,0:0:0:0:
236,68,72311,1,2,0:0:0:0:
320,48,72483,2,0,P|392:36|456:80,1,144,2|2,0:0|0:0,0:0:0:0:
488,240,73173,6,0,B|432:216|396:256|396:256|360:236|316:260|316:260|284:208|228:196,1,288,4|4,3:0|3:0,0:0:0:0:
72,144,74207,2,0,P|48:172|32:208,1,72,4|0,3:0|0:0,0:0:0:0:
96,264,74552,2,0,P|136:212|160:124,1,144,2|4,0:0|3:0,0:0:0:0:
260,0,75242,2,0,P|312:40|400:64,1,144,2|4,0:0|3:0,0:0:0:0:
472,76,75759,1,4,3:0:0:0:
428,192,75932,6,0,B|388:224|388:224|404:316,1,144,4|4,3:0|3:0,0:0:0:0:
332,364,76449,1,2,0:0:0:0:
332,364,76621,1,0,0:0:0:0:
167,299,76966,2,0,P|219:223|123:79,1,288,4|4,3:0|3:0,0:0:0:0:
123,79,78001,2,0,P|151:43|163:15,1,72,2|4,0:0|3:0,0:0:0:0:
40,32,78345,2,0,P|12:68|0:96,1,72,4|0,3:0|0:0,0:0:0:0:
48,204,78690,5,4,3:0:0:0:
48,204,78863,2,0,P|96:232|184:212,1,144,2|4,0:0|3:0,0:0:0:0:
260,180,79380,1,4,3:0:0:0:
252,264,79552,2,0,P|280:308|364:356,1,144,2|2,0:0|0:0,0:0:0:0:
420,296,80070,2,0,P|452:232|510:190,1,144,2|4,0:0|3:0,0:0:0:0:
510,190,80759,2,0,P|470:138|418:62,1,144,2|4,0:0|3:0,0:0:0:0:
368,8,81276,1,4,3:0:0:0:
300,128,81449,6,0,P|248:104|144:112,1,144,4|4,3:0|3:0,0:0:0:0:
88,148,81966,2,0,P|108:192|128:288,1,144,2|0,0:0|0:0,0:0:0:0:
280,352,82483,2,0,P|244:340|204:336,1,72,4|0,3:0|0:0,0:0:0:0:
332,272,82828,2,0,B|384:292|384:292|484:264,2,144,2|0|2,0:0|0:0|0:0,0:0:0:0:
180,192,83863,1,2,0:0:0:0:
332,112,84207,6,0,P|272:56|108:60,1,251.999992309571,4|2,3:0|0:0,0:0:0:0:
110,325,85587,2,0,P|231:343|332:272,1,251.999992309571,2|2,0:0|0:0,0:0:0:0:
412,144,86621,1,2,0:0:0:0:
504,264,86966,2,0,P|480:312|412:356,1,125.999996154785,2|0,0:0|0:0,0:0:0:0:
412,264,87483,2,0,P|364:240|320:172,1,125.999996154785,2|0,0:0|0:0,0:0:0:0:
288,112,88001,1,2,0:0:0:0:
288,112,89035,1,2,0:0:0:0:
288,112,89725,5,4,3:0:0:0:
216,184,89897,2,0,P|160:160|80:168,2,125.999996154785,2|2|0,0:0|0:0|0:0,0:0:0:0:
296,312,90932,1,2,0:0:0:0:
476,64,91794,6,0,P|416:52|336:56,1,125.999996154785,2|2,0:0|0:0,0:0:0:0:
300,108,92311,1,0,0:0:0:0:
248,164,92483,2,0,P|185:165|123:153,1,125.999996154785,2|0,0:0|0:0,0:0:0:0:
48,148,93001,1,2,0:0:0:0:
48,148,93518,1,2,0:0:0:0:
20,296,93863,2,0,P|88:332|196:316,2,188.999994232178,2|2|2,0:0|0:0|0:0,0:0:0:0:
48,148,95242,1,4,3:0:0:0:
48,148,98001,6,0,P|96:92|180:76,1,161.999995056153,10|10,0:0|0:0,0:0:0:0:
179,75,98518,1,0,0:0:0:0:
200,244,98690,2,0,P|184:204|152:176,1,80.9999975280763,10|0,0:0|0:0,0:0:0:0:
136,308,99035,1,10,0:0:0:0:
284,220,99207,1,2,0:0:0:0:
348,368,99380,6,0,B|400:336|400:336|436:340|436:340|492:300,1,161.999995056153,10|10,0:0|0:0,0:0:0:0:
488,302,99897,1,0,0:0:0:0:
448,160,100070,2,0,P|428:196|420:240,1,80.9999975280763,10|0,0:0|0:0,0:0:0:0:
384,104,100414,1,10,0:0:0:0:
508,224,100587,1,2,0:0:0:0:
340,272,100759,6,0,P|268:232|180:256,1,161.999995056153,10|10,0:0|0:0,0:0:0:0:
193,246,101276,1,0,0:0:0:0:
208,380,101449,2,0,P|236:352|256:312,1,80.9999975280763,10|0,0:0|0:0,0:0:0:0:
192,160,101794,1,10,0:0:0:0:
92,284,101966,1,2,0:0:0:0:
28,140,102138,6,0,B|80:112|80:112|72:8,1,161.999995056153,10|10,0:0|0:0,0:0:0:0:
72,9,102656,1,0,0:0:0:0:
240,72,102828,2,0,P|200:56|156:60,1,80.9999975280763,10|0,0:0|0:0,0:0:0:0:
252,200,103173,1,10,0:0:0:0:
364,56,103345,5,2,0:0:0:0:
364,56,103432,1,2,0:0:0:0:
364,56,103518,2,0,P|452:32|528:80,1,180,4|8,1:2|1:2,0:0:0:0:
432,156,104035,1,2,0:0:0:0:
288,112,104207,2,0,P|272:68|260:24,1,90,10|2,1:2|1:2,0:0:0:0:
128,124,104552,1,10,1:2:0:0:
260,26,104725,1,2,1:2:0:0:
188,228,104897,6,0,B|256:240|256:240|280:268|280:268|364:280,1,180,4|8,1:2|1:2,0:0:0:0:
204,312,105414,1,2,0:0:0:0:
336,188,105587,2,0,P|360:148|364:104,1,90,10|0,1:2|1:2,0:0:0:0:
444,236,105932,1,10,1:2:0:0:
280,124,106104,1,2,1:2:0:0:
464,28,106276,5,6,1:2:0:0:
500,136,106449,1,0,1:2:0:0:
364,105,106621,1,10,1:2:0:0:
444,236,106794,1,2,1:2:0:0:
280,124,106966,1,6,1:2:0:0:
500,136,107138,1,2,1:2:0:0:
364,304,107311,1,10,1:2:0:0:
364,105,107483,1,2,1:2:0:0:
240,304,107656,5,6,1:2:0:0:
240,304,107742,1,0,1:2:0:0:
240,304,107828,2,0,L|192:296,1,45,0|0,1:2|1:2,0:0:0:0:
80,368,108001,2,0,L|88:320,1,45,14|0,1:2|1:2,0:0:0:0:
32,208,108173,2,0,L|80:216,1,45,0|0,1:2|1:2,0:0:0:0:
256,184,108345,6,0,L|216:176,6,22.5,6|0|0|0|0|0|0,1:2|1:2|1:2|1:2|1:2|1:2|1:2,0:0:0:0:
344,140,108690,2,0,L|384:148,6,22.5,14|0|0|0|0|0|0,1:2|1:2|1:2|1:2|1:2|1:2|1:2,0:0:0:0:
272,72,109035,1,2,0:0:0:0:
272,72,109725,6,0,L|268:120,1,45,2|0,0:0|0:0,0:0:0:0:
180,152,109897,2,0,L|184:104,1,45,2|0,0:0|0:0,0:0:0:0:
344,140,110070,1,2,0:0:0:0:
172,16,110242,1,0,1:0:0:0:
100,252,110414,6,0,P|148:300|280:276,1,198.000006042481,6|2,1:0|1:0,0:0:0:0:
408,208,110932,1,2,0:0:0:0:
452,376,111104,2,0,P|408:344|376:304,1,99.0000030212403,2|2,1:0|0:0,0:0:0:0:
424,108,111449,1,2,1:0:0:0:
496,300,111621,1,2,0:1:0:0:
316,184,111794,6,0,B|216:144|216:216|116:176,1,198.000006042481,2|2,1:0|1:0,0:0:0:0:
264,256,112311,1,2,0:0:0:0:
204,8,112483,2,0,P|180:52|176:108,1,99.0000030212403,2|2,1:0|0:0,0:0:0:0:
92,288,112828,1,2,1:0:0:0:
175,99,113001,1,2,0:1:0:0:
196,324,113173,6,0,B|252:360|252:360|380:328,1,198.000006042481,2|2,1:0|1:0,0:0:0:0:
512,244,113690,1,2,0:0:0:0:
364,132,113863,2,0,P|392:180|408:224,1,99.0000030212403,2|2,1:0|0:0,0:0:0:0:
244,96,114207,1,2,1:0:0:0:
472,148,114380,1,2,0:1:0:0:
284,280,114552,6,0,B|224:264|180:296|180:296|80:260,1,198.000006042481,2|2,1:0|1:0,0:0:0:0:
52,112,115070,1,2,0:0:0:0:
95,265,115242,2,0,P|94:314|72:358,1,99.0000030212403,2|2,1:0|0:0,0:0:0:0:
200,140,115587,1,2,1:0:0:0:
328,352,115759,5,2,0:1:0:0:
328,352,115845,1,2,0:1:0:0:
328,352,115932,2,0,B|388:288|388:288|420:284|420:284|472:224,1,198.000006042481,2|8,1:0|1:0,0:0:0:0:
376,200,116449,1,2,0:0:0:0:
428,372,116621,1,2,1:0:0:0:
471,225,116794,1,2,0:1:0:0:
296,276,116966,1,10,1:0:0:0:
372,72,117138,5,2,0:1:0:0:
372,72,117225,1,2,0:1:0:0:
372,72,117311,2,0,P|308:32|188:44,1,198.000006042481,2|8,1:0|1:0,0:0:0:0:
80,116,117828,1,2,0:0:0:0:
264,148,118001,1,2,1:0:0:0:
189,42,118173,1,2,0:0:0:0:
40,204,118345,1,10,1:0:0:0:
216,340,118518,5,2,0:1:0:0:
216,340,118604,1,2,0:1:0:0:
216,340,118690,2,0,B|268:320|288:272|288:272|340:288|388:260,1,198.000006042481,2|10,1:0|1:0,0:0:0:0:
381,263,119207,1,2,0:0:0:0:
508,180,119380,1,2,1:0:0:0:
488,344,119552,1,2,0:1:0:0:
424,144,119725,1,10,1:0:0:0:
392,348,119897,1,2,0:1:0:0:
340,108,120070,5,2,1:0:0:0:
192,260,120242,1,2,0:0:0:0:
192,260,120328,1,2,0:0:0:0:
192,260,120414,1,10,1:0:0:0:
96,72,120587,1,2,0:0:0:0:
216,112,120759,6,0,P|176:128|144:144,1,72,2|2,0:1|0:0,0:0:0:0:
76,232,121104,1,2,0:1:0:0:
268,352,121276,2,0,L|308:328,1,36,2|2,0:1|0:1,0:0:0:0:
436,244,121449,6,0,B|400:140|464:148|428:48,1,198.000006042481,6|10,1:0|1:0,0:0:0:0:
508,188,121966,1,2,0:0:0:0:
352,96,122138,1,2,1:0:0:0:
436,244,122311,1,2,0:1:0:0:
512,40,122483,1,10,1:0:0:0:
312,224,122656,5,2,0:1:0:0:
312,224,122742,1,2,0:1:0:0:
312,224,122828,2,0,B|248:200|248:200|288:140|256:64,1,198.000006042481,2|10,1:0|1:0,0:0:0:0:
176,132,123345,1,2,0:0:0:0:
336,16,123518,1,2,1:0:0:0:
384,168,123690,1,2,0:0:0:0:
200,16,123863,1,10,1:0:0:0:
76,220,124035,5,2,0:1:0:0:
76,220,124121,1,2,0:1:0:0:
76,220,124207,2,0,B|128:236|148:280|148:280|248:260,1,198.000006042481,2|10,1:0|1:0,0:0:0:0:
72,308,124725,1,2,0:0:0:0:
160,136,124897,1,2,1:0:0:0:
247,260,125070,1,2,0:1:0:0:
364,96,125242,1,10,1:0:0:0:
416,312,125414,5,2,0:1:0:0:
416,312,125501,1,2,0:1:0:0:
416,312,125587,2,0,P|468:280|484:148,1,198.000006042481,2|10,1:0|1:0,0:0:0:0:
444,32,126104,1,2,0:0:0:0:
372,200,126276,1,2,1:0:0:0:
486,153,126449,1,2,0:0:0:0:
320,24,126621,1,10,1:0:0:0:
232,240,126794,5,2,0:1:0:0:
232,240,126880,1,2,0:1:0:0:
232,240,126966,2,0,B|156:224|156:224|120:240|120:240|32:216,1,198.000006042481,2|10,1:0|1:0,0:0:0:0:
112,136,127483,1,2,0:0:0:0:
172,316,127656,1,2,1:0:0:0:
41,218,127828,1,2,0:1:0:0:
244,152,128001,1,10,1:0:0:0:
344,356,128173,5,2,0:1:0:0:
344,356,128259,1,2,0:1:0:0:
344,356,128345,2,0,B|360:300|412:308|412:308|460:268|440:200,1,198.000006042481,2|10,1:0|1:0,0:0:0:0:
396,112,128863,1,2,0:0:0:0:
512,304,129035,1,2,1:0:0:0:
352,236,129207,1,2,0:0:0:0:
512,76,129380,1,10,1:0:0:0:
276,8,129552,5,2,0:1:0:0:
276,8,129638,1,2,0:1:0:0:
276,8,129725,2,0,P|224:48|216:176,1,198.000006042481,2|10,1:0|1:0,0:0:0:0:
256,280,130242,1,2,0:0:0:0:
324,120,130414,1,2,1:0:0:0:
214,172,130587,1,2,0:1:0:0:
428,188,130759,1,10,1:0:0:0:
256,280,130932,1,2,0:1:0:0:
512,264,131104,5,2,1:0:0:0:
448,68,131276,1,2,0:0:0:0:
448,68,131363,1,2,0:0:0:0:
448,68,131449,1,10,1:0:0:0:
324,120,131621,1,2,0:0:0:0:
512,264,131794,1,2,1:0:0:0:
420,360,131966,1,2,0:0:0:0:
428,188,132138,1,10,1:0:0:0:
232,340,132311,5,0,1:0:0:0:
232,340,132397,1,0,1:0:0:0:
232,340,132483,2,0,P|180:352|104:304,1,144,6|8,1:0|0:0,0:0:0:0:
106,307,133173,1,2,0:1:0:0:
48,232,133345,1,2,0:1:0:0:
128,180,133518,1,10,1:0:0:0:
344,284,133690,5,2,1:0:0:0:
344,284,133776,1,2,1:0:0:0:
344,284,133863,2,0,B|352:208|352:208|376:176|376:176|384:92,1,198.000006042481,4|10,1:2|1:0,0:0:0:0:
436,252,134380,1,2,0:0:0:0:
200,144,134552,2,0,P|256:128|300:136,1,99.0000030212403,2|2,1:0|0:0,0:0:0:0:
456,16,134897,1,10,1:0:0:0:
256,220,135070,5,2,0:1:0:0:
256,220,135156,1,2,0:1:0:0:
256,220,135242,2,0,B|212:260|224:316|224:316|168:304|120:348,1,198.000006042481,2|10,1:0|1:0,0:0:0:0:
308,288,135759,1,2,0:0:0:0:
76,272,135932,2,0,P|52:316|52:364,1,99.0000030212403,2|2,1:0|0:1,0:0:0:0:
256,220,136276,1,10,1:0:0:0:
64,80,136449,5,2,0:1:0:0:
64,80,136535,1,2,0:1:0:0:
64,80,136621,2,0,B|100:72|116:44|116:44|160:172,1,198.000006042481,2|10,1:0|1:0,0:0:0:0:
76,272,137138,1,2,0:0:0:0:
201,31,137311,2,0,L|232:124,1,99.0000030212403,2|2,1:0|0:0,0:0:0:0:
316,348,137656,5,2,1:0:0:0:
316,348,137742,1,2,1:0:0:0:
316,348,137828,1,2,1:0:0:0:
316,348,137914,1,2,1:0:0:0:
316,348,138001,2,0,P|376:360|456:304,1,161.999995056153,6|8,1:0|1:2,0:0:0:0:
508,192,138518,1,2,0:0:0:0:
304,204,138690,2,0,P|344:204|384:220,1,80.9999975280763,2|2,1:0|0:1,0:0:0:0:
316,348,139035,1,8,1:2:0:0:
288,116,139207,5,2,3:1:0:0:
288,116,139294,1,2,3:1:0:0:
288,116,139380,2,0,P|368:112|448:148,1,161.999995056153,6|10,1:0|1:0,0:0:0:0:
348,236,139897,1,2,0:0:0:0:
512,95,140070,2,0,P|508:56|484:23,1,80.9999975280763,2|2,1:0|0:0,0:0:0:0:
440,236,140414,1,10,1:0:0:0:
320,24,140587,5,2,3:1:0:0:
320,24,140673,1,2,3:1:0:0:
320,24,140759,1,6,1:0:0:0:
228,180,140932,1,2,1:2:0:0:
108,40,141104,1,10,1:0:0:0:
296,108,141276,1,2,1:2:0:0:
104,180,141449,1,2,1:0:0:0:
224,16,141621,1,2,1:0:0:0:
316,200,141794,2,0,P|360:196|412:216,1,90,10|2,1:0|1:0,0:0:0:0:
244,344,142138,5,6,1:0:0:0:
244,344,142225,1,0,1:2:0:0:
244,344,142311,2,0,L|192:336,1,49.5000015106202,0|0,1:2|1:2,0:0:0:0:
64,224,142483,1,10,1:0:0:0:
64,224,142570,1,0,1:2:0:0:
64,224,142656,2,0,L|116:232,1,49.5000015106202,0|0,1:2|1:2,0:0:0:0:
240,104,142828,6,0,L|232:156,1,49.5000015106202,6|0,1:0|1:2,0:0:0:0:
320,288,143001,1,0,1:2:0:0:
364,308,143087,1,0,1:2:0:0:
413,309,143173,1,10,1:0:0:0:
458,289,143259,1,0,1:2:0:0:
490,252,143345,1,2,1:2:0:0:
504,205,143432,1,0,1:2:0:0:
497,156,143518,6,0,P|440:116|360:128,1,144,6|2,1:2|0:0,0:0:0:0:
208,64,144207,2,0,P|228:124|248:204,1,144,2|2,0:0|0:0,0:0:0:0:
216,284,144725,1,0,0:0:0:0:
216,284,144897,2,0,P|156:304|76:324,1,144,2|2,0:0|0:0,0:0:0:0:
36,156,145587,2,0,P|96:136|176:116,1,144,2|4,0:0|3:0,0:0:0:0:
174,116,146104,1,4,3:0:0:0:
280,180,146276,6,0,P|344:200|408:164,1,144,4|2,3:0|0:0,0:0:0:0:
228,60,146966,2,0,P|164:40|100:76,1,144,2|4,0:0|3:0,0:0:0:0:
284,200,147656,2,0,P|348:220|412:184,1,144,2|2,0:0|0:0,0:0:0:0:
224,40,148345,2,0,P|160:20|96:56,1,144,2|2,0:0|0:0,0:0:0:0:
96,55,148863,1,2,0:0:0:0:
36,168,149035,5,4,3:0:0:0:
36,168,149207,2,0,P|72:208|168:204,1,144,2|2,0:0|0:0,0:0:0:0:
272,168,149725,2,0,P|296:200|316:256,1,72,4|2,3:0|0:0,0:0:0:0:
344,308,150070,1,0,0:0:0:0:
396,240,150242,2,0,P|468:204|480:76,1,216,2|2,0:0|0:0,0:0:0:0:
481,79,151104,6,0,P|433:107|341:99,1,144,2|4,0:0|3:0,0:0:0:0:
347,101,151621,1,4,3:0:0:0:
236,28,151794,2,0,P|196:64|176:152,1,144,4|4,3:0|3:0,0:0:0:0:
172,236,152311,2,0,P|104:244|20:272,1,144,2|2,0:0|0:0,0:0:0:0:
128,360,152828,1,4,3:0:0:0:
128,360,153001,2,0,P|296:276|328:116,1,360,2|2,0:0|0:0,0:0:0:0:
328,119,154380,1,2,0:0:0:0:
432,32,154552,6,0,P|452:88|468:176,1,144,4|2,3:0|0:0,0:0:0:0:
467,170,155070,1,4,3:0:0:0:
388,272,155242,2,0,P|340:244|248:252,1,144,4|4,3:0|3:0,0:0:0:0:
184,304,155759,1,4,3:0:0:0:
148,224,155932,2,0,P|92:192|60:120,1,144,2|4,0:0|3:0,0:0:0:0:
208,32,156621,2,0,P|260:40|352:68,1,144,2|4,0:0|3:0,0:0:0:0:
347,66,157138,1,4,3:0:0:0:
412,184,157311,6,0,P|452:144|480:48,1,144,4|4,3:0|3:0,0:0:0:0:
412,8,157828,1,0,0:0:0:0:
347,66,158001,2,0,P|278:44|208:32,1,144,2|4,0:0|3:0,0:0:0:0:
128,64,158518,1,4,3:0:0:0:
88,232,158863,1,0,0:0:0:0:
88,232,159035,2,0,P|132:264|220:248,1,144,4|4,3:0|3:0,0:0:0:0:
292,212,159552,1,4,3:0:0:0:
372,248,159725,2,0,P|396:280|408:312,1,72,2|0,0:0|0:0,0:0:0:0:
480,200,160070,5,4,3:0:0:0:
480,200,160242,2,0,P|488:144|488:48,1,144,2|2,0:0|0:0,0:0:0:0:
336,40,160759,2,0,P|372:24|404:24,1,72,4|2,3:0|0:0,0:0:0:0:
344,156,161104,1,4,3:0:0:0:
344,156,161276,2,0,P|296:184|204:188,1,144,2|2,0:0|0:0,0:0:0:0:
128,160,161794,1,4,3:0:0:0:
128,160,162138,6,0,P|120:196|112:236,1,72,2|0,0:0|0:0,0:0:0:0:
176,296,162483,1,4,3:0:0:0:
32,184,162656,1,4,3:0:0:0:
208,104,162828,5,4,1:2:0:0:
256,220,163001,1,2,1:2:0:0:
316,68,163173,1,0,1:2:0:0:
368,228,163345,1,0,1:2:0:0:
424,40,163518,1,6,1:2:0:0:
492,232,163690,1,2,1:2:0:0:
512,20,163863,1,0,1:2:0:0:
368,228,164035,1,2,1:2:0:0:
168,36,164207,5,6,1:2:0:0:
168,36,164294,1,0,1:2:0:0:
168,36,164380,2,0,L|120:52,1,45,0|0,1:0|1:0,0:0:0:0:
36,200,164552,5,6,1:2:0:0:
36,200,164639,1,0,1:2:0:0:
36,200,164725,2,0,L|84:184,1,45,0|0,1:0|1:0,0:0:0:0:
292,208,164897,5,6,1:2:0:0:
292,208,164984,1,0,1:2:0:0:
292,208,165070,2,0,L|244:224,1,45,0|0,1:0|1:0,0:0:0:0:
94,341,165242,6,0,L|67:350,6,22.5,6|0|0|0|0|0|0,1:2|1:2|1:2|1:2|1:2|1:2|1:2,0:0:0:0:
144,250,165587,1,6,1:2:0:0:
144,250,166966,6,0,P|206:276|245:273,1,96,4|0,3:0|0:0,0:0:0:0:
232,100,167311,2,0,P|206:162|209:201,1,96,4|0,3:0|0:0,0:0:0:0:
384,192,167656,2,0,P|322:166|283:169,1,96,4|0,3:0|0:0,0:0:0:0:
296,340,168001,2,0,P|322:278|319:239,1,96,4|4,3:0|3:0,0:0:0:0:
152,52,168345,6,0,P|120:96|88:176,1,132.00000402832,6|2,1:0|0:0,0:0:0:0:
204,312,168690,2,0,P|160:280|80:248,1,132.00000402832,10|2,1:0|0:0,0:0:0:0:
272,260,169035,2,0,P|289:232|309:194,1,66.0000020141602,2|2,1:0|0:1,0:0:0:0:
268,106,169265,1,2,0:0:0:0:
344,36,169380,2,0,L|408:48,1,66.0000020141602,10|2,1:0|0:1,0:0:0:0:
512,64,169610,1,2,0:1:0:0:
496,196,169725,6,0,B|488:252|488:252|496:280|496:280|488:328,1,132.00000402832,2|2,1:0|0:0,0:0:0:0:
384,352,170070,2,0,B|328:344|328:344|300:352|300:352|254:344,1,132.00000402832,10|2,1:0|0:0,0:0:0:0:
148,240,170414,2,0,B|204:248|204:248|232:240|232:240|277:247,1,132.00000402832,2|2,1:0|0:0,0:0:0:0:
356,176,170759,2,0,P|368:152|368:112,1,66.0000020141602,10|2,1:0|0:1,0:0:0:0:
308,24,170989,1,2,0:1:0:0:
196,100,171104,6,0,P|132:80|64:92,1,132.00000402832,2|2,1:0|0:0,0:0:0:0:
116,292,171449,2,0,P|136:228|124:160,1,132.00000402832,10|2,1:0|0:0,0:0:0:0:
48,356,171794,2,0,P|112:376|180:364,1,132.00000402832,2|2,1:0|0:0,0:0:0:0:
248,284,172138,2,0,L|280:344,1,66.0000020141602,10|2,1:0|0:1,0:0:0:0:
376,304,172368,1,2,0:1:0:0:
444,192,172483,6,0,B|480:160|480:160|472:72,1,132.00000402832,2|2,1:0|0:0,0:0:0:0:
380,24,172828,2,0,B|296:16|296:16|264:52,1,132.00000402832,10|2,1:0|0:0,0:0:0:0:
216,152,173173,2,0,B|299:159|299:159|331:123,1,132.00000402832,2|2,1:0|0:0,0:0:0:0:
144,104,173518,2,0,P|132:132|132:168,1,66.0000020141602,10|2,1:0|0:1,0:0:0:0:
192,260,173748,1,2,0:1:0:0:
84,348,173863,6,0,P|92:280|56:224,1,132.00000402832,2|2,1:0|0:0,0:0:0:0:
88,124,174207,2,0,P|136:80|208:80,1,132.00000402832,10|2,1:0|0:0,0:0:0:0:
284,144,174552,2,0,P|276:212|312:268,1,132.00000402832,2|2,1:0|0:0,0:0:0:0:
396,193,174897,1,10,1:0:0:0:
307,264,175012,1,2,0:1:0:0:
405,322,175127,1,2,0:1:0:0:
512,232,175242,6,0,P|516:168|476:100,1,132.00000402832,2|2,1:0|0:0,0:0:0:0:
400,44,175587,2,0,B|340:24|336:72|260:48,1,132.00000402832,10|2,1:0|0:0,0:0:0:0:
112,152,175932,2,0,B|172:172|176:124|252:148,1,132.00000402832,2|2,1:0|0:0,0:0:0:0:
188,292,176276,2,0,P|204:260|208:228,1,66.0000020141602,10|2,1:0|0:1,0:0:0:0:
100,244,176507,1,2,0:1:0:0:
172,376,176621,6,0,P|249:351|272:308,1,132.00000402832,2|2,1:0|0:0,0:0:0:0:
348,232,176966,2,0,P|412:244|484:248,1,132.00000402832,10|2,1:0|0:0,0:0:0:0:
440,17,177311,2,0,P|427:82|424:148,1,132.00000402832,2|2,1:0|0:0,0:0:0:0:
264,100,177656,2,0,P|300:96|332:96,1,66.0000020141602,10|2,1:0|0:1,0:0:0:0:
424,148,177886,1,2,0:1:0:0:
344,260,178001,6,0,P|284:228|212:232,1,132.00000402832,2|2,1:0|0:0,0:0:0:0:
92,264,178345,2,0,P|124:204|120:132,1,132.00000402832,10|2,1:0|0:0,0:0:0:0:
48,52,178690,2,0,P|16:109|17:174,1,132.00000402832,2|2,1:0|0:1,0:0:0:0:
144,36,179035,1,2,1:0:0:0:
214,141,179150,1,0,1:0:0:0:
272,28,179265,1,2,1:0:0:0:
344,132,179380,6,0,P|408:116|480:148,1,132.00000402832,6|2,1:0|0:0,0:0:0:0:
492,248,179725,2,0,P|508:312|476:384,1,132.00000402832,10|2,1:0|0:0,0:0:0:0:
300,300,180070,2,0,P|364:284|436:316,1,132.00000402832,2|2,1:0|0:0,0:0:0:0:
228,356,180414,2,0,L|204:292,1,66.0000020141602,10|2,1:0|0:1,0:0:0:0:
164,192,180644,1,2,0:1:0:0:
60,280,180759,6,0,B|32:232|32:232|32:208|32:208|0:152,1,132.00000402832,2|2,1:0|0:0,0:0:0:0:
152,24,181104,2,0,P|84:32|36:72,1,132.00000402832,10|2,1:0|0:0,0:0:0:0:
144,144,181449,2,0,P|212:136|260:96,1,132.00000402832,2|2,1:0|0:0,0:0:0:0:
408,40,181794,2,0,P|373:29|340:24,1,66.0000020141602,10|2,1:0|0:1,0:0:0:0:
259,96,182024,1,2,0:1:0:0:
376,184,182138,6,0,B|420:168|420:168|508:200,1,132.00000402832,2|2,1:0|0:0,0:0:0:0:
396,376,182483,2,0,P|428:316|420:248,1,132.00000402832,10|2,1:0|0:0,0:0:0:0:
216,276,182828,2,0,P|276:308|344:300,1,132.00000402832,2|2,1:0|0:0,0:0:0:0:
308,140,183173,2,0,L|296:208,1,66.0000020141602,10|2,1:0|0:1,0:0:0:0:
216,276,183403,1,2,0:1:0:0:
148,160,183518,6,0,B|180:132|184:96|184:96|236:68,1,132.00000402832,2|2,1:0|0:0,0:0:0:0:
12,8,183863,2,0,B|40:40|76:44|76:44|102:93,1,132.00000402832,10|2,1:0|0:0,0:0:0:0:
128,244,184207,2,0,B|101:293|101:293|65:297|37:329,1,132.00000402832,2|2,1:0|0:0,0:0:0:0:
176,384,184552,2,0,P|140:384|112:372,1,66.0000020141602,10|2,1:0|0:1,0:0:0:0:
44,224,184783,1,2,0:1:0:0:
216,180,184897,6,0,P|224:252|268:296,1,132.00000402832,2|2,1:0|0:0,0:0:0:0:
392,240,185242,2,0,P|384:168|340:124,1,132.00000402832,10|2,1:0|0:0,0:0:0:0:
176,80,185587,2,0,P|224:37|289:32,1,132.00000402832,2|2,1:0|0:0,0:0:0:0:
344,126,185932,1,10,1:0:0:0:
436,52,186047,1,2,0:1:0:0:
456,168,186162,1,2,0:1:0:0:
344,126,186276,6,0,B|304:168|312:208|312:208|284:236,1,132.00000402832,2|2,1:0|0:0,0:0:0:0:
190,286,186621,2,0,P|140:244|76:240,1,132.00000402832,10|2,1:0|0:0,0:0:0:0:
52,136,186966,2,0,B|80:108|80:108|72:68|112:26,1,132.00000402832,2|2,1:0|0:0,0:0:0:0:
244,0,187311,2,0,L|215:67,1,66.0000020141602,10|2,1:0|0:1,0:0:0:0:
252,152,187541,1,2,0:1:0:0:
160,208,187656,6,0,P|124:268|124:328,1,132.00000402832,6|2,1:0|1:2,0:0:0:0:
348,328,188001,2,0,P|288:292|228:292,1,132.00000402832,10|2,1:0|1:2,0:0:0:0:
444,256,188345,2,0,P|464:188|472:124,1,132.00000402832,6|2,1:0|1:2,0:0:0:0:
279,23,188690,2,0,P|259:91|251:155,1,132.00000402832,10|2,1:0|1:2,0:0:0:0:
236,272,189035,5,6,1:0:0:0:
251,151,189150,1,0,1:2:0:0:
144,212,189265,1,2,1:2:0:0:
152,92,189380,2,0,P|132:65|108:43,1,66.0000020141602,10|0,1:0|1:2,0:0:0:0:
0,100,189610,1,2,1:2:0:0:
60,204,189725,2,0,L|48:244,5,33.0000010070801,6|0|0|0|0|0,1:0|1:2|1:2|1:2|1:2|1:2,0:0:0:0:
92,296,190070,2,0,L|80:336,5,33.0000010070801,10|0|0|0|0|0,1:0|1:2|1:2|1:2|1:2|1:2,0:0:0:0:
148,372,190414,6,0,P|192:336|248:332,1,107.999996704102,6|0,1:2|0:0,0:0:0:0:
340,344,190759,2,0,P|392:337|433:302,1,107.999996704102,10|0,0:0|0:0,0:0:0:0:
484,216,191104,2,0,P|460:164|440:116,1,107.999996704102,10|0,0:0|0:0,0:0:0:0:
396,28,191449,1,10,0:0:0:0:
308,200,191679,5,0,0:0:0:0:
308,200,191794,2,0,B|264:192|264:192|244:204|244:204|196:200,1,107.999996704102,10|0,0:0|0:0,0:0:0:0:
116,120,192138,2,0,B|160:128|160:128|180:116|180:116|228:120,1,107.999996704102,10|0,0:0|0:0,0:0:0:0:
308,36,192483,2,0,B|264:28|264:28|244:40|244:40|196:36,1,107.999996704102,10|0,0:0|0:0,0:0:0:0:
104,32,192828,1,10,0:0:0:0:
40,216,193058,5,0,0:0:0:0:
40,216,193173,2,0,P|76:260|80:316,1,107.999996704102,10|0,0:0|0:0,0:0:0:0:
160,364,193518,1,10,0:0:0:0:
268,200,193748,1,0,0:0:0:0:
268,200,193863,2,0,P|328:204|380:220,1,107.999996704102,10|0,0:0|0:0,0:0:0:0:
464,180,194207,6,0,P|478:128|481:74,1,107.999996704102,10|0,0:0|0:0,0:0:0:0:
408,12,194552,1,10,0:0:0:0:
228,84,194782,1,0,0:0:0:0:
228,84,194897,2,0,B|192:56|192:56|120:64,1,107.999996704102,10|0,0:0|0:0,0:0:0:0:
60,128,195242,2,0,B|96:156|96:156|168:148,1,107.999996704102,10|0,0:0|0:0,0:0:0:0:
236,208,195587,1,10,0:0:0:0:
376,340,195817,5,0,0:0:0:0:
376,340,195932,2,0,P|408:296|420:244,1,107.999996704102,10|0,0:0|0:0,0:0:0:0:
420,148,196276,1,10,0:0:0:0:
236,208,196506,1,0,0:0:0:0:
236,208,196621,1,10,0:0:0:0:
300,24,196851,5,0,0:0:0:0:
300,24,196966,2,0,L|244:44,1,53.9999983520508,10|2,0:0|0:0,0:0:0:0:
156,72,197196,1,2,0:0:0:0:
156,72,197311,2,0,P|100:68|48:96,1,107.999996704102,10|0,0:0|0:0,0:0:0:0:
20,180,197656,2,0,P|15:233|38:281,1,107.999996704102,10|0,0:0|0:0,0:0:0:0:
116,340,198001,2,0,P|172:344|224:316,1,107.999996704102,10|0,0:0|0:0,0:0:0:0:
276,244,198345,1,10,0:0:0:0:
324,56,198575,5,0,0:0:0:0:
324,56,198690,2,0,B|376:44|376:80|436:64,1,107.999996704102,10|0,0:0|0:0,0:0:0:0:
348,140,199035,2,0,B|296:152|296:116|236:132,1,107.999996704102,10|0,0:0|0:0,0:0:0:0:
160,76,199380,1,10,0:0:0:0:
24,304,199725,2,0,P|72:272|136:276,1,121.499996292114,10|0,0:0|0:0,0:0:0:0:
96,360,200070,5,8,1:2:0:0:
144,188,200242,1,0,1:2:0:0:
256,336,200414,1,8,1:2:0:0:
48,196,200587,1,2,1:2:0:0:
248,80,200759,1,10,1:2:0:0:
168,316,200932,1,2,1:2:0:0:
84,28,201104,5,10,1:2:0:0:
84,28,201190,1,2,1:2:0:0:
84,28,201276,2,0,L|72:88,1,45,2|2,1:2|1:2,0:0:0:0:
40,232,201449,1,4,1:2:0:0:
