osu file format v14

[General]
AudioFilename: audio.mp3
AudioLeadIn: 0
PreviewTime: 98112
Countdown: 0
SampleSet: Soft
StackLeniency: 0.7
Mode: 3
LetterboxInBreaks: 0
SpecialStyle: 0
WidescreenStoryboard: 1

[Editor]
DistanceSpacing: 0.8
BeatDivisor: 4
GridSize: 32
TimelineZoom: 1.6

[Metadata]
Title:Don't believe the hype
TitleUnicode:Don't believe the hype
Artist:DJ Mass MAD Izm* feat. H14 (LEONAIR)
ArtistUnicode:DJ Mass MAD Izm* feat. H14 (LEONAIR)
Creator:araragigun
Version:Normal
Source:beatmania IIDX 29 CastHour
Tags:Video Game Electronic English Japanese Vocal Breakbeat MIXTURE ヒヨリベリー HiYO Ribery leonairunion bm2dx CH Arcade Default Songs KONAMI BEMANI LC-2521 beatmania IIDX 29 CastHour Original Soundtrack jubeat randelman4ik katagiri k_a_t_a_g_i_r_i albionshallah DenYi
BeatmapID:3828821
BeatmapSetID:1850691

[Difficulty]
HPDrainRate:7
CircleSize:4
OverallDifficulty:7
ApproachRate:5
SliderMultiplier:1.4
SliderTickRate:1

[Events]
//Background and Video events
0,0,"Konachan.jpg",0,0
//Break Periods
//Storyboard Layer 0 (Background)
//Storyboard Layer 1 (Fail)
//Storyboard Layer 2 (Pass)
//Storyboard Layer 3 (Foreground)
//Storyboard Layer 4 (Overlay)
//Storyboard Sound Samples

[TimingPoints]
970,285.714285714286,4,2,1,50,1,0
20398,-100,4,2,1,50,0,1
38684,-100,4,2,1,50,0,0
98112,-100,4,2,1,50,0,1
116398,-100,4,2,1,50,0,0

[HitObjects]
448,192,970,5,0,0:0:0:0:
64,192,1112,1,0,0:0:0:0:
320,192,1398,1,0,0:0:0:0:
192,192,1684,1,0,0:0:0:0:
448,192,1970,1,0,0:0:0:0:
448,192,2255,1,0,0:0:0:0:
448,192,2541,1,0,0:0:0:0:
64,192,2684,128,0,2970:0:0:0:0:
320,192,2970,128,0,3255:0:0:0:0:
448,192,3255,1,0,0:0:0:0:
64,192,3398,1,0,0:0:0:0:
320,192,3684,1,0,0:0:0:0:
192,192,3970,1,0,0:0:0:0:
448,192,4255,1,0,0:0:0:0:
448,192,4541,1,0,0:0:0:0:
448,192,4827,1,0,0:0:0:0:
64,192,4970,128,0,5255:0:0:0:0:
320,192,5255,128,2,5541:0:0:0:0:
448,192,5541,1,0,0:0:0:0:
64,192,5684,1,0,0:0:0:0:
320,192,5970,1,0,0:0:0:0:
192,192,6255,1,0,0:0:0:0:
448,192,6541,1,0,0:0:0:0:
448,192,6827,1,0,0:0:0:0:
448,192,7112,1,0,0:0:0:0:
64,192,7255,128,0,7541:0:0:0:0:
320,192,7541,128,0,7827:0:0:0:0:
64,192,7827,1,0,0:0:0:0:
64,192,8112,1,0,0:0:0:0:
192,192,8398,1,0,0:0:0:0:
320,192,8612,1,0,0:0:0:0:
448,192,8827,1,0,0:0:0:0:
192,192,8970,1,2,0:0:0:0:
320,192,9112,1,2,0:0:0:0:
192,192,9255,1,2,0:0:0:0:
320,192,9398,1,2,0:0:0:0:
64,192,9541,1,2,0:0:0:0:
448,192,9684,1,2,0:0:0:0:
64,192,9827,1,2,0:0:0:0:
448,192,9970,1,2,0:0:0:0:
64,192,10112,1,2,0:0:0:0:
192,192,10112,128,4,12112:0:0:0:0:
320,192,12112,1,0,0:0:0:0:
64,192,12398,128,2,12684:0:0:0:0:
448,192,12398,1,0,0:0:0:0:
64,192,12970,1,8,0:0:0:0:
192,192,12970,128,0,13255:0:0:0:0:
448,192,13255,128,0,13541:0:0:0:0:
64,192,13541,1,2,0:0:0:0:
320,192,13827,1,0,0:0:0:0:
64,192,14112,128,8,14398:0:0:0:0:
448,192,14112,1,0,0:0:0:0:
320,192,14684,128,2,14970:0:0:0:0:
448,192,14684,1,0,0:0:0:0:
192,192,14970,128,0,15255:0:0:0:0:
448,192,15255,1,8,0:0:0:0:
192,192,15541,1,0,0:0:0:0:
320,192,15827,128,2,16112:0:0:0:0:
448,192,15827,1,0,0:0:0:0:
64,192,16398,128,8,16684:0:0:0:0:
448,192,16398,1,0,0:0:0:0:
320,192,16684,128,0,16970:0:0:0:0:
192,192,16970,1,2,0:0:0:0:
192,192,17255,1,2,0:0:0:0:
64,192,17541,1,2,0:0:0:0:
448,192,17541,1,8,0:0:0:0:
320,192,17827,1,2,0:0:0:0:
192,192,18112,128,2,18398:0:0:0:0:
448,192,18398,1,2,0:0:0:0:
448,192,18541,1,2,0:0:0:0:
64,192,18684,1,2,0:0:0:0:
64,192,18827,1,2,0:0:0:0:
448,192,18970,1,2,0:0:0:0:
448,192,19112,1,2,0:0:0:0:
320,192,19827,1,0,0:0:0:0:
320,192,20112,1,0,0:0:0:0:
64,192,20398,1,2,0:0:0:0:
448,192,20398,1,4,0:0:0:0:
64,192,20541,1,2,0:0:0:0:
448,192,20684,1,8,0:0:0:0:
192,192,20827,128,2,21112:0:0:0:0:
320,192,21112,1,2,0:0:0:0:
64,192,21255,1,8,0:0:0:0:
320,192,21541,1,2,0:0:0:0:
320,192,21684,1,2,0:0:0:0:
64,192,21827,1,8,0:0:0:0:
448,192,21970,1,2,0:0:0:0:
448,192,22255,1,2,0:0:0:0:
64,192,22398,1,8,0:0:0:0:
448,192,22684,1,2,0:0:0:0:
448,192,22827,1,2,0:0:0:0:
64,192,22970,1,8,0:0:0:0:
320,192,23112,128,2,23398:0:0:0:0:
192,192,23398,1,2,0:0:0:0:
448,192,23541,1,8,0:0:0:0:
192,192,23827,1,2,0:0:0:0:
192,192,23970,1,2,0:0:0:0:
448,192,24112,1,8,0:0:0:0:
320,192,24255,1,2,0:0:0:0:
64,192,24398,128,0,24684:0:0:0:0:
448,192,24684,128,8,24970:0:0:0:0:
64,192,24970,1,2,0:0:0:0:
320,192,25112,1,2,0:0:0:0:
192,192,25255,1,8,0:0:0:0:
64,192,25398,1,2,0:0:0:0:
64,192,25684,1,2,0:0:0:0:
448,192,25827,1,8,0:0:0:0:
448,192,26112,1,2,0:0:0:0:
192,192,26255,1,2,0:0:0:0:
320,192,26398,1,8,0:0:0:0:
448,192,26541,1,2,0:0:0:0:
448,192,26827,1,2,0:0:0:0:
64,192,26970,1,8,0:0:0:0:
320,192,27255,1,2,0:0:0:0:
64,192,27398,1,2,0:0:0:0:
448,192,27541,1,8,0:0:0:0:
192,192,27684,1,2,0:0:0:0:
64,192,27970,1,2,0:0:0:0:
448,192,28112,128,8,28398:0:0:0:0:
192,192,28398,1,2,0:0:0:0:
320,192,28541,1,2,0:0:0:0:
192,192,28684,1,10,0:0:0:0:
320,192,28827,1,2,0:0:0:0:
64,192,28970,1,2,0:0:0:0:
448,192,29112,1,2,0:0:0:0:
64,192,29255,1,10,0:0:0:0:
448,192,29398,1,2,0:0:0:0:
64,192,29541,1,2,0:0:0:0:
320,192,29827,1,8,0:0:0:0:
192,192,29970,128,2,30255:0:0:0:0:
448,192,30255,1,2,0:0:0:0:
192,192,30398,1,8,0:0:0:0:
320,192,30684,1,2,0:0:0:0:
64,192,30970,1,8,0:0:0:0:
448,192,31112,1,2,0:0:0:0:
448,192,31398,1,2,0:0:0:0:
64,192,31541,1,8,0:0:0:0:
448,192,31827,1,2,0:0:0:0:
192,192,32112,1,8,0:0:0:0:
320,192,32255,128,2,32541:0:0:0:0:
64,192,32541,1,2,0:0:0:0:
320,192,32684,1,8,0:0:0:0:
192,192,32970,128,2,33255:0:0:0:0:
448,192,33255,1,8,0:0:0:0:
64,192,33398,1,2,0:0:0:0:
192,192,33684,1,2,0:0:0:0:
320,192,33827,1,10,0:0:0:0:
192,192,33970,1,2,0:0:0:0:
64,192,34112,1,2,0:0:0:0:
448,192,34112,128,4,34398:0:0:0:0:
64,192,34684,128,2,34970:0:0:0:0:
448,192,34684,1,8,0:0:0:0:
64,192,35255,1,2,0:0:0:0:
320,192,35255,128,0,35541:0:0:0:0:
64,192,35541,1,0,0:0:0:0:
192,192,35827,128,2,36112:0:0:0:0:
448,192,35827,1,8,0:0:0:0:
448,192,36112,1,0,0:0:0:0:
64,192,36398,1,2,0:0:0:0:
448,192,36398,128,0,36970:0:0:0:0:
64,192,36684,1,2,0:0:0:0:
64,192,36970,1,10,0:0:0:0:
192,192,37255,128,2,37541:0:0:0:0:
320,192,37255,1,0,0:0:0:0:
448,192,37541,1,2,0:0:0:0:
448,192,37684,1,2,0:0:0:0:
64,192,37827,1,2,0:0:0:0:
64,192,37970,1,2,0:0:0:0:
320,192,38112,128,2,38398:0:0:0:0:
192,192,38398,128,8,38684:0:0:0:0:
448,192,38684,128,2,38970:0:0:0:0:
192,192,38970,1,8,0:0:0:0:
448,192,39112,1,2,0:0:0:0:
320,192,39398,1,2,0:0:0:0:
64,192,39541,1,8,0:0:0:0:
320,192,39827,128,2,40112:0:0:0:0:
64,192,40112,1,8,0:0:0:0:
320,192,40255,1,2,0:0:0:0:
192,192,40541,1,2,0:0:0:0:
448,192,40684,1,8,0:0:0:0:
64,192,40970,128,2,41255:0:0:0:0:
320,192,41255,1,8,0:0:0:0:
64,192,41398,1,2,0:0:0:0:
192,192,41684,1,2,0:0:0:0:
448,192,41827,1,8,0:0:0:0:
192,192,42112,128,2,42398:0:0:0:0:
448,192,42398,1,8,0:0:0:0:
320,192,42541,1,2,0:0:0:0:
64,192,42684,1,2,0:0:0:0:
448,192,42827,1,2,0:0:0:0:
64,192,42970,1,10,0:0:0:0:
448,192,43112,1,2,0:0:0:0:
64,192,43255,1,2,0:0:0:0:
64,192,43398,1,2,0:0:0:0:
448,192,43541,1,8,0:0:0:0:
192,192,43684,1,2,0:0:0:0:
320,192,43970,1,2,0:0:0:0:
64,192,44112,1,8,0:0:0:0:
448,192,44398,1,2,0:0:0:0:
448,192,44541,1,2,0:0:0:0:
192,192,44684,1,8,0:0:0:0:
320,192,44827,1,2,0:0:0:0:
64,192,45112,1,2,0:0:0:0:
448,192,45255,1,8,0:0:0:0:
192,192,45541,1,2,0:0:0:0:
192,192,45684,1,2,0:0:0:0:
320,192,45827,1,8,0:0:0:0:
64,192,45970,1,2,0:0:0:0:
448,192,46255,1,2,0:0:0:0:
192,192,46398,1,8,0:0:0:0:
448,192,46684,1,2,0:0:0:0:
64,192,46827,1,2,0:0:0:0:
448,192,46970,1,2,0:0:0:0:
64,192,47112,1,2,0:0:0:0:
320,192,47255,1,2,0:0:0:0:
192,192,47398,1,2,0:0:0:0:
320,192,47541,1,2,0:0:0:0:
192,192,47684,1,2,0:0:0:0:
448,192,47827,1,2,0:0:0:0:
64,192,48112,1,8,0:0:0:0:
448,192,48255,1,2,0:0:0:0:
448,192,48541,1,2,0:0:0:0:
64,192,48684,1,8,0:0:0:0:
448,192,48970,1,2,0:0:0:0:
192,192,49255,1,8,0:0:0:0:
448,192,49398,1,2,0:0:0:0:
448,192,49684,1,2,0:0:0:0:
192,192,49827,1,8,0:0:0:0:
64,192,50112,1,2,0:0:0:0:
320,192,50398,1,8,0:0:0:0:
192,192,50541,1,2,0:0:0:0:
192,192,50827,1,2,0:0:0:0:
320,192,50970,1,8,0:0:0:0:
64,192,51255,1,2,0:0:0:0:
448,192,51541,1,8,0:0:0:0:
320,192,51684,1,2,0:0:0:0:
64,192,51827,1,2,0:0:0:0:
448,192,51970,1,2,0:0:0:0:
64,192,52112,1,10,0:0:0:0:
448,192,52255,1,2,0:0:0:0:
192,192,52398,1,2,0:0:0:0:
192,192,52541,1,2,0:0:0:0:
448,192,52684,1,8,0:0:0:0:
64,192,52827,1,2,0:0:0:0:
320,192,53112,1,2,0:0:0:0:
192,192,53255,1,8,0:0:0:0:
320,192,53541,1,2,0:0:0:0:
320,192,53684,1,2,0:0:0:0:
192,192,53827,1,8,0:0:0:0:
448,192,53970,1,2,0:0:0:0:
64,192,54255,1,2,0:0:0:0:
320,192,54398,1,8,0:0:0:0:
448,192,54684,1,2,0:0:0:0:
448,192,54827,1,2,0:0:0:0:
192,192,54970,1,8,0:0:0:0:
320,192,55112,1,2,0:0:0:0:
64,192,55398,1,2,0:0:0:0:
448,192,55541,1,8,0:0:0:0:
192,192,55827,1,2,0:0:0:0:
192,192,55970,1,2,0:0:0:0:
320,192,56112,1,2,0:0:0:0:
320,192,56255,1,2,0:0:0:0:
64,192,56398,128,0,56684:0:0:0:0:
192,192,56970,1,2,0:0:0:0:
448,192,56970,128,4,61255:0:0:0:0:
192,192,57541,1,10,0:0:0:0:
192,192,58112,1,2,0:0:0:0:
192,192,58684,1,10,0:0:0:0:
64,192,59255,1,2,0:0:0:0:
64,192,59827,1,10,0:0:0:0:
64,192,60398,1,2,0:0:0:0:
64,192,60970,1,10,0:0:0:0:
192,192,61541,1,2,0:0:0:0:
320,192,61541,128,0,65827:0:0:0:0:
192,192,62112,1,10,0:0:0:0:
192,192,62684,1,2,0:0:0:0:
192,192,63255,1,10,0:0:0:0:
64,192,63827,1,2,0:0:0:0:
64,192,64398,1,10,0:0:0:0:
64,192,64970,1,2,0:0:0:0:
64,192,65541,1,10,0:0:0:0:
64,192,66112,128,2,70398:0:0:0:0:
320,192,66112,1,0,0:0:0:0:
320,192,66684,1,10,0:0:0:0:
320,192,67255,1,2,0:0:0:0:
320,192,67827,1,10,0:0:0:0:
448,192,68398,1,2,0:0:0:0:
448,192,68970,1,10,0:0:0:0:
448,192,69541,1,2,0:0:0:0:
448,192,70112,1,10,0:0:0:0:
192,192,70684,128,2,74112:0:0:0:0:
320,192,70684,1,0,0:0:0:0:
320,192,71255,1,10,0:0:0:0:
320,192,71827,1,2,0:0:0:0:
320,192,72398,1,10,0:0:0:0:
448,192,72970,1,2,0:0:0:0:
448,192,73541,1,10,0:0:0:0:
448,192,74112,1,2,0:0:0:0:
64,192,74255,1,2,0:0:0:0:
448,192,74398,1,2,0:0:0:0:
64,192,74541,1,2,0:0:0:0:
320,192,74684,1,10,0:0:0:0:
192,192,74827,1,2,0:0:0:0:
320,192,74970,1,2,0:0:0:0:
192,192,75112,1,2,0:0:0:0:
448,192,75255,128,2,77255:0:0:0:0:
320,192,77541,128,0,79541:0:0:0:0:
192,192,79827,128,0,81827:0:0:0:0:
64,192,82112,128,0,83255:0:0:0:0:
320,192,83255,1,2,0:0:0:0:
192,192,83398,1,2,0:0:0:0:
320,192,83541,1,2,0:0:0:0:
192,192,83684,1,2,0:0:0:0:
448,192,83827,1,2,0:0:0:0:
64,192,83970,1,2,0:0:0:0:
448,192,84112,1,2,0:0:0:0:
64,192,84255,1,2,0:0:0:0:
320,192,84398,1,2,0:0:0:0:
448,192,84398,1,0,0:0:0:0:
320,192,84684,1,2,0:0:0:0:
448,192,84684,1,0,0:0:0:0:
320,192,84970,1,2,0:0:0:0:
448,192,84970,1,0,0:0:0:0:
320,192,85255,1,2,0:0:0:0:
448,192,85255,1,0,0:0:0:0:
64,192,85541,1,2,0:0:0:0:
192,192,85541,1,0,0:0:0:0:
64,192,85827,1,2,0:0:0:0:
192,192,85827,1,0,0:0:0:0:
64,192,86112,1,2,0:0:0:0:
192,192,86112,1,0,0:0:0:0:
64,192,86398,1,2,0:0:0:0:
192,192,86398,1,0,0:0:0:0:
64,192,86684,1,2,0:0:0:0:
448,192,86684,1,0,0:0:0:0:
64,192,86970,1,2,0:0:0:0:
448,192,86970,1,0,0:0:0:0:
64,192,87255,1,2,0:0:0:0:
448,192,87255,1,0,0:0:0:0:
64,192,87541,1,2,0:0:0:0:
448,192,87541,1,0,0:0:0:0:
192,192,87827,1,2,0:0:0:0:
320,192,87827,1,0,0:0:0:0:
192,192,88112,1,2,0:0:0:0:
320,192,88112,1,0,0:0:0:0:
192,192,88398,1,2,0:0:0:0:
320,192,88398,1,0,0:0:0:0:
192,192,88684,1,2,0:0:0:0:
320,192,88684,1,0,0:0:0:0:
64,192,88970,1,2,0:0:0:0:
192,192,88970,1,0,0:0:0:0:
64,192,89255,1,2,0:0:0:0:
192,192,89255,1,0,0:0:0:0:
64,192,89541,1,2,0:0:0:0:
192,192,89541,1,0,0:0:0:0:
64,192,89827,1,2,0:0:0:0:
192,192,89827,1,0,0:0:0:0:
320,192,90112,1,2,0:0:0:0:
448,192,90112,1,0,0:0:0:0:
320,192,90398,1,2,0:0:0:0:
448,192,90398,1,0,0:0:0:0:
320,192,90684,1,2,0:0:0:0:
448,192,90684,1,0,0:0:0:0:
320,192,90970,1,2,0:0:0:0:
448,192,90970,1,0,0:0:0:0:
64,192,91255,1,2,0:0:0:0:
448,192,91255,1,0,0:0:0:0:
64,192,91541,1,2,0:0:0:0:
448,192,91541,1,0,0:0:0:0:
64,192,91827,1,2,0:0:0:0:
448,192,91827,1,0,0:0:0:0:
64,192,92112,1,2,0:0:0:0:
448,192,92112,1,0,0:0:0:0:
192,192,92398,1,2,0:0:0:0:
192,192,92541,1,2,0:0:0:0:
320,192,92684,1,2,0:0:0:0:
320,192,92827,1,2,0:0:0:0:
64,192,92970,1,2,0:0:0:0:
64,192,93112,1,2,0:0:0:0:
448,192,93255,128,2,93541:0:0:0:0:
320,192,93541,1,0,0:0:0:0:
320,192,93684,1,0,0:0:0:0:
64,192,93827,1,0,0:0:0:0:
64,192,93970,128,0,94255:0:0:0:0:
192,192,94398,128,0,94684:0:0:0:0:
320,192,94684,1,0,0:0:0:0:
320,192,94827,1,0,0:0:0:0:
64,192,94970,1,0,0:0:0:0:
64,192,95112,128,0,95398:0:0:0:0:
320,192,95541,128,0,95827:0:0:0:0:
192,192,95827,1,0,0:0:0:0:
192,192,95970,1,0,0:0:0:0:
448,192,96112,1,0,0:0:0:0:
448,192,96255,128,0,96541:0:0:0:0:
320,192,96684,1,0,0:0:0:0:
320,192,96827,1,0,0:0:0:0:
64,192,96970,1,2,0:0:0:0:
448,192,97112,1,2,0:0:0:0:
64,192,97255,1,2,0:0:0:0:
448,192,97398,1,2,0:0:0:0:
192,192,97541,1,2,0:0:0:0:
320,192,97684,1,2,0:0:0:0:
192,192,97827,1,2,0:0:0:0:
320,192,97970,1,2,0:0:0:0:
64,192,98112,1,2,0:0:0:0:
448,192,98112,1,4,0:0:0:0:
64,192,98255,1,2,0:0:0:0:
448,192,98398,1,8,0:0:0:0:
192,192,98541,128,2,98827:0:0:0:0:
320,192,98827,1,2,0:0:0:0:
192,192,98970,1,8,0:0:0:0:
320,192,99255,1,2,0:0:0:0:
320,192,99398,1,2,0:0:0:0:
64,192,99541,1,8,0:0:0:0:
448,192,99684,1,2,0:0:0:0:
192,192,99970,1,2,0:0:0:0:
320,192,100112,1,8,0:0:0:0:
448,192,100398,1,2,0:0:0:0:
448,192,100541,1,2,0:0:0:0:
64,192,100684,1,8,0:0:0:0:
320,192,100827,128,2,101112:0:0:0:0:
192,192,101112,1,2,0:0:0:0:
320,192,101255,1,8,0:0:0:0:
192,192,101541,1,2,0:0:0:0:
192,192,101684,1,2,0:0:0:0:
448,192,101827,1,8,0:0:0:0:
320,192,101970,1,2,0:0:0:0:
64,192,102112,128,0,102398:0:0:0:0:
448,192,102398,128,8,102684:0:0:0:0:
64,192,102684,1,2,0:0:0:0:
320,192,102827,1,2,0:0:0:0:
192,192,102970,1,8,0:0:0:0:
64,192,103112,1,2,0:0:0:0:
64,192,103398,1,2,0:0:0:0:
448,192,103541,1,8,0:0:0:0:
448,192,103827,1,2,0:0:0:0:
192,192,103970,1,2,0:0:0:0:
320,192,104112,1,8,0:0:0:0:
448,192,104255,1,2,0:0:0:0:
448,192,104541,1,2,0:0:0:0:
64,192,104684,1,8,0:0:0:0:
320,192,104970,1,2,0:0:0:0:
64,192,105112,1,2,0:0:0:0:
448,192,105255,1,8,0:0:0:0:
192,192,105398,1,2,0:0:0:0:
64,192,105684,1,2,0:0:0:0:
448,192,105827,128,8,106112:0:0:0:0:
192,192,106112,1,2,0:0:0:0:
320,192,106255,1,2,0:0:0:0:
192,192,106398,1,10,0:0:0:0:
320,192,106541,1,2,0:0:0:0:
64,192,106684,1,2,0:0:0:0:
448,192,106827,1,2,0:0:0:0:
64,192,106970,1,10,0:0:0:0:
448,192,107112,1,2,0:0:0:0:
64,192,107255,128,2,107541:0:0:0:0:
320,192,107541,1,8,0:0:0:0:
448,192,107827,128,2,108112:0:0:0:0:
192,192,108112,1,8,0:0:0:0:
320,192,108398,128,2,108684:0:0:0:0:
64,192,108684,1,8,0:0:0:0:
192,192,108970,128,2,109255:0:0:0:0:
448,192,109255,1,8,0:0:0:0:
64,192,109541,128,2,109827:0:0:0:0:
320,192,109827,1,8,0:0:0:0:
448,192,110112,128,2,110398:0:0:0:0:
192,192,110398,1,8,0:0:0:0:
320,192,110684,1,2,0:0:0:0:
320,192,110827,1,0,0:0:0:0:
192,192,110970,128,8,111255:0:0:0:0:
448,192,111255,1,2,0:0:0:0:
64,192,111398,1,2,0:0:0:0:
448,192,111541,1,10,0:0:0:0:
64,192,111684,1,2,0:0:0:0:
448,192,111827,1,2,0:0:0:0:
448,192,111970,1,2,0:0:0:0:
192,192,112112,1,8,0:0:0:0:
320,192,112255,1,2,0:0:0:0:
64,192,112541,1,2,0:0:0:0:
448,192,112684,1,8,0:0:0:0:
192,192,112970,1,2,0:0:0:0:
192,192,113112,1,2,0:0:0:0:
320,192,113255,1,8,0:0:0:0:
64,192,113398,1,2,0:0:0:0:
448,192,113684,1,2,0:0:0:0:
192,192,113827,1,8,0:0:0:0:
64,192,114112,1,2,0:0:0:0:
64,192,114255,1,2,0:0:0:0:
320,192,114398,1,8,0:0:0:0:
192,192,114541,1,2,0:0:0:0:
448,192,114827,1,2,0:0:0:0:
64,192,114970,1,8,0:0:0:0:
320,192,115255,1,2,0:0:0:0:
320,192,115398,1,2,0:0:0:0:
192,192,115541,1,10,0:0:0:0:
192,192,115684,1,2,0:0:0:0:
448,192,115827,128,2,116112:0:0:0:0:
64,192,116112,1,10,0:0:0:0:
64,192,116255,1,2,0:0:0:0:
448,192,116398,1,6,0:0:0:0:
320,192,116684,1,0,0:0:0:0:
64,192,116970,128,8,117255:0:0:0:0:
192,192,116970,1,0,0:0:0:0:
192,192,117541,1,6,0:0:0:0:
320,192,117827,128,2,118112:0:0:0:0:
448,192,117827,1,0,0:0:0:0:
448,192,118398,1,0,0:0:0:0:
64,192,118684,1,2,0:0:0:0:
192,192,118684,128,0,118970:0:0:0:0:
64,192,119255,1,8,0:0:0:0:
192,192,119398,1,2,0:0:0:0:
320,192,119541,128,2,119827:0:0:0:0:
448,192,119541,1,0,0:0:0:0:
320,192,120112,1,2,0:0:0:0:
64,192,120398,128,8,120684:0:0:0:0:
192,192,120398,1,0,0:0:0:0:
64,192,120970,1,2,0:0:0:0:
448,192,120970,1,0,0:0:0:0:
64,192,121255,1,2,0:0:0:0:
448,192,121255,128,0,121541:0:0:0:0:
192,192,121541,1,10,0:0:0:0:
320,192,121827,1,2,0:0:0:0:
448,192,121827,1,0,0:0:0:0:
320,192,122112,128,2,122398:0:0:0:0:
448,192,122112,1,4,0:0:0:0:
192,192,122398,1,2,0:0:0:0:
64,192,122684,1,2,0:0:0:0:
448,192,122684,1,8,0:0:0:0:
64,192,122970,128,2,123255:0:0:0:0:
448,192,122970,1,0,0:0:0:0:
320,192,123255,1,10,0:0:0:0:
320,192,123398,1,2,0:0:0:0:
64,192,123541,1,2,0:0:0:0:
448,192,123684,1,2,0:0:0:0:
192,192,123827,1,2,0:0:0:0:
64,192,123970,1,2,0:0:0:0:
320,192,124112,1,2,0:0:0:0:
192,192,124255,1,2,0:0:0:0:
448,192,124398,1,2,0:0:0:0:
320,192,124541,1,2,0:0:0:0:
64,192,124684,1,2,0:0:0:0:
64,192,124827,1,2,0:0:0:0:
448,192,124970,1,2,0:0:0:0:
448,192,125112,1,2,0:0:0:0:
64,192,125255,1,2,0:0:0:0:
64,192,125398,1,2,0:0:0:0:
