osu file format v14

[General]
AudioFilename: audio.mp3
AudioLeadIn: 0
PreviewTime: -1
Countdown: 0
SampleSet: Soft
StackLeniency: 0.7
Mode: 3
LetterboxInBreaks: 0
SpecialStyle: 0
WidescreenStoryboard: 1

[Editor]
DistanceSpacing: 1.6
BeatDivisor: 8
GridSize: 8
TimelineZoom: 1.3

[Metadata]
Title:Shakunetsu Pt.2 Long Train Running
TitleUnicode:灼熱 Pt.2 Long Train Running
Artist:DJ Mass MAD Izm*
ArtistUnicode:DJ Mass MAD Izm*
Creator:Ciel
Version:chill [NSV]
Source:beatmania IIDX 23 copula
Tags:sv BROKEN SAMBA BREAK Beach Side Bunny mwc 2018 mania world cup 2018 Yoshiap electronic instrumental
BeatmapID:1783635
BeatmapSetID:853414

[Difficulty]
HPDrainRate:8
CircleSize:4
OverallDifficulty:8
ApproachRate:5
SliderMultiplier:1.4
SliderTickRate:1

[Events]
//Background and Video events
0,0,"beach.png",0,0
//Break Periods
//Storyboard Layer 0 (Background)
//Storyboard Layer 1 (Fail)
//Storyboard Layer 2 (Pass)
//Storyboard Layer 3 (Foreground)
//Storyboard Layer 4 (Overlay)
//Storyboard Sound Samples

[TimingPoints]
927,363.636363636364,4,2,0,100,1,0

[HitObjects]
192,192,927,5,0,0:0:0:0:
64,192,927,1,0,0:0:0:0:
320,192,927,1,0,0:0:0:0:
64,192,1199,1,0,0:0:0:0:
448,192,1199,1,0,0:0:0:0:
192,192,1199,1,0,0:0:0:0:
64,192,1472,1,0,0:0:0:0:
320,192,1472,1,0,0:0:0:0:
192,192,1472,1,0,0:0:0:0:
192,192,1745,1,0,0:0:0:0:
448,192,1745,1,0,0:0:0:0:
64,192,1745,1,0,0:0:0:0:
64,192,2017,1,0,0:0:0:0:
192,192,2017,1,0,0:0:0:0:
320,192,2017,1,0,0:0:0:0:
64,192,2199,1,0,0:0:0:0:
192,192,2199,1,0,0:0:0:0:
448,192,2199,1,0,0:0:0:0:
320,192,2381,1,0,0:0:0:0:
448,192,2381,1,0,0:0:0:0:
192,192,2381,1,0,0:0:0:0:
64,192,2654,1,0,0:0:0:0:
448,192,2654,1,0,0:0:0:0:
320,192,2654,1,0,0:0:0:0:
192,192,2927,1,0,0:0:0:0:
448,192,2927,1,0,0:0:0:0:
320,192,2927,1,0,0:0:0:0:
64,192,3199,1,0,0:0:0:0:
320,192,3199,1,0,0:0:0:0:
448,192,3199,1,0,0:0:0:0:
320,192,3472,1,0,0:0:0:0:
448,192,3472,1,0,0:0:0:0:
192,192,3472,1,0,0:0:0:0:
320,192,3654,1,0,0:0:0:0:
448,192,3654,1,0,0:0:0:0:
64,192,3654,1,0,0:0:0:0:
64,192,3836,1,0,0:0:0:0:
192,192,3836,1,0,0:0:0:0:
448,192,3836,1,0,0:0:0:0:
64,192,4108,1,0,0:0:0:0:
320,192,4108,1,0,0:0:0:0:
448,192,4108,1,0,0:0:0:0:
192,192,4381,1,0,0:0:0:0:
448,192,4381,1,0,0:0:0:0:
64,192,4381,1,0,0:0:0:0:
320,192,4654,1,0,0:0:0:0:
64,192,4654,1,0,0:0:0:0:
448,192,4654,1,0,0:0:0:0:
64,192,4927,1,0,0:0:0:0:
192,192,4927,1,0,0:0:0:0:
448,192,4927,1,0,0:0:0:0:
448,192,5108,1,0,0:0:0:0:
320,192,5108,1,0,0:0:0:0:
64,192,5108,1,0,0:0:0:0:
64,192,5290,1,0,0:0:0:0:
192,192,5290,1,0,0:0:0:0:
320,192,5290,1,0,0:0:0:0:
192,192,5563,1,0,0:0:0:0:
320,192,5563,1,0,0:0:0:0:
448,192,5563,1,0,0:0:0:0:
192,192,5836,1,0,0:0:0:0:
320,192,5836,1,0,0:0:0:0:
64,192,5836,1,0,0:0:0:0:
320,192,6108,1,0,0:0:0:0:
192,192,6108,1,0,0:0:0:0:
448,192,6108,1,0,0:0:0:0:
64,192,6381,1,0,0:0:0:0:
192,192,6381,1,0,0:0:0:0:
320,192,6381,1,0,0:0:0:0:
192,192,6563,1,0,0:0:0:0:
320,192,6563,1,0,0:0:0:0:
448,192,6563,1,0,0:0:0:0:
64,192,6745,1,0,0:0:0:0:
192,192,6745,1,0,0:0:0:0:
320,192,6745,1,0,0:0:0:0:
448,192,6745,1,0,0:0:0:0:
192,192,6927,1,0,0:0:0:0:
320,192,7017,1,0,0:0:0:0:
448,192,7017,1,0,0:0:0:0:
64,192,7108,1,0,0:0:0:0:
192,192,7108,1,0,0:0:0:0:
448,192,7199,1,0,0:0:0:0:
192,192,7290,1,0,0:0:0:0:
320,192,7290,1,0,0:0:0:0:
64,192,7472,1,0,0:0:0:0:
192,192,7472,1,0,0:0:0:0:
320,192,7563,1,0,0:0:0:0:
448,192,7563,1,0,0:0:0:0:
192,192,7745,1,0,0:0:0:0:
320,192,7836,1,0,0:0:0:0:
448,192,7836,1,0,0:0:0:0:
64,192,7836,1,0,0:0:0:0:
64,192,8017,1,0,0:0:0:0:
192,192,8017,1,0,0:0:0:0:
448,192,8017,1,0,0:0:0:0:
192,192,8199,1,0,0:0:0:0:
320,192,8199,1,0,0:0:0:0:
64,192,8199,1,0,0:0:0:0:
448,192,8381,1,0,0:0:0:0:
192,192,8472,1,0,0:0:0:0:
64,192,8472,1,0,0:0:0:0:
320,192,8563,1,0,0:0:0:0:
448,192,8563,1,0,0:0:0:0:
64,192,8654,1,0,0:0:0:0:
320,192,8745,1,0,0:0:0:0:
192,192,8745,1,0,0:0:0:0:
320,192,8927,1,0,0:0:0:0:
448,192,8927,1,0,0:0:0:0:
192,192,9017,1,0,0:0:0:0:
64,192,9017,1,0,0:0:0:0:
320,192,9199,1,0,0:0:0:0:
64,192,9290,1,0,0:0:0:0:
192,192,9290,1,0,0:0:0:0:
448,192,9290,1,0,0:0:0:0:
64,192,9472,1,0,0:0:0:0:
320,192,9472,1,0,0:0:0:0:
448,192,9472,1,0,0:0:0:0:
192,192,9654,1,0,0:0:0:0:
320,192,9654,1,0,0:0:0:0:
448,192,9654,1,0,0:0:0:0:
64,192,9836,1,0,0:0:0:0:
320,192,9927,1,0,0:0:0:0:
448,192,9927,1,0,0:0:0:0:
64,192,10017,1,0,0:0:0:0:
192,192,10017,1,0,0:0:0:0:
448,192,10108,1,0,0:0:0:0:
192,192,10199,1,0,0:0:0:0:
320,192,10199,1,0,0:0:0:0:
320,192,10381,1,0,0:0:0:0:
448,192,10381,1,0,0:0:0:0:
64,192,10472,1,0,0:0:0:0:
192,192,10472,1,0,0:0:0:0:
448,192,10654,1,0,0:0:0:0:
64,192,10745,1,0,0:0:0:0:
192,192,10745,1,0,0:0:0:0:
320,192,10745,1,0,0:0:0:0:
192,192,10927,1,0,0:0:0:0:
320,192,10927,1,0,0:0:0:0:
448,192,10927,1,0,0:0:0:0:
64,192,11108,1,0,0:0:0:0:
192,192,11108,1,0,0:0:0:0:
448,192,11108,1,0,0:0:0:0:
320,192,11290,1,0,0:0:0:0:
64,192,11381,1,0,0:0:0:0:
192,192,11381,1,0,0:0:0:0:
448,192,11472,1,0,0:0:0:0:
320,192,11472,1,0,0:0:0:0:
64,192,11563,1,0,0:0:0:0:
192,192,11654,1,0,0:0:0:0:
320,192,11654,1,0,0:0:0:0:
64,192,11836,1,0,0:0:0:0:
192,192,11836,1,0,0:0:0:0:
320,192,11927,1,0,0:0:0:0:
448,192,11927,1,0,0:0:0:0:
448,192,12108,1,0,0:0:0:0:
64,192,12199,1,0,0:0:0:0:
192,192,12199,1,0,0:0:0:0:
320,192,12199,1,0,0:0:0:0:
192,192,12381,1,0,0:0:0:0:
320,192,12381,1,0,0:0:0:0:
448,192,12381,1,0,0:0:0:0:
64,192,12563,128,0,13290:0:0:0:0:
192,192,12563,1,0,0:0:0:0:
320,192,12563,1,0,0:0:0:0:
448,192,12654,1,0,0:0:0:0:
320,192,12745,1,0,0:0:0:0:
192,192,12836,1,0,0:0:0:0:
320,192,12927,1,0,0:0:0:0:
192,192,13017,1,0,0:0:0:0:
320,192,13108,1,0,0:0:0:0:
192,192,13199,1,0,0:0:0:0:
448,192,13290,128,0,14017:0:0:0:0:
320,192,13290,1,0,0:0:0:0:
64,192,13472,1,0,0:0:0:0:
192,192,13563,1,0,0:0:0:0:
320,187,13654,1,0,0:0:0:0:
192,192,13836,1,0,0:0:0:0:
64,192,14017,128,0,14745:0:0:0:0:
320,192,14017,1,0,0:0:0:0:
192,192,14199,1,0,0:0:0:0:
320,192,14290,1,0,0:0:0:0:
448,192,14381,1,0,0:0:0:0:
320,192,14563,1,0,0:0:0:0:
192,192,14654,1,0,0:0:0:0:
448,192,14745,128,0,15472:0:0:0:0:
320,192,14745,1,0,0:0:0:0:
192,192,14927,1,0,0:0:0:0:
320,192,15017,1,0,0:0:0:0:
192,192,15199,1,0,0:0:0:0:
320,192,15290,1,0,0:0:0:0:
64,192,15472,128,0,16199:0:0:0:0:
192,192,15472,1,0,0:0:0:0:
448,192,15654,1,0,0:0:0:0:
320,192,15745,1,0,0:0:0:0:
192,192,15836,1,0,0:0:0:0:
320,192,16017,1,0,0:0:0:0:
448,192,16199,128,0,16927:0:0:0:0:
192,192,16199,1,0,0:0:0:0:
64,192,16381,1,0,0:0:0:0:
192,192,16472,1,0,0:0:0:0:
320,192,16563,1,0,0:0:0:0:
192,192,16745,1,0,0:0:0:0:
64,192,16927,128,0,17654:0:0:0:0:
320,192,16927,1,0,0:0:0:0:
192,192,17017,1,0,0:0:0:0:
320,192,17108,1,0,0:0:0:0:
192,192,17199,1,0,0:0:0:0:
320,192,17290,1,0,0:0:0:0:
192,192,17472,1,0,0:0:0:0:
448,192,17654,128,0,18381:0:0:0:0:
320,192,17654,1,0,0:0:0:0:
192,192,17836,1,0,0:0:0:0:
320,192,17927,1,0,0:0:0:0:
64,192,18199,1,0,0:0:0:0:
64,192,18381,1,0,0:0:0:0:
192,192,18381,1,0,0:0:0:0:
320,192,18381,1,0,0:0:0:0:
64,192,18563,1,0,0:0:0:0:
192,192,18563,1,0,0:0:0:0:
448,192,18563,1,0,0:0:0:0:
64,192,18745,1,0,0:0:0:0:
320,192,18745,1,0,0:0:0:0:
448,192,18745,1,0,0:0:0:0:
192,192,18927,1,0,0:0:0:0:
320,192,18927,1,0,0:0:0:0:
448,192,18927,1,0,0:0:0:0:
320,192,19108,1,0,0:0:0:0:
192,192,19108,1,0,0:0:0:0:
64,192,19108,1,0,0:0:0:0:
192,192,19290,1,0,0:0:0:0:
448,192,19290,1,0,0:0:0:0:
64,192,19290,1,0,0:0:0:0:
448,192,19472,1,0,0:0:0:0:
320,192,19472,1,0,0:0:0:0:
64,192,19472,1,0,0:0:0:0:
192,192,19654,1,0,0:0:0:0:
320,192,19654,1,0,0:0:0:0:
448,192,19654,1,0,0:0:0:0:
64,192,19836,1,0,0:0:0:0:
192,192,19836,1,0,0:0:0:0:
320,192,19836,1,0,0:0:0:0:
64,192,20017,1,0,0:0:0:0:
448,192,20017,1,0,0:0:0:0:
192,192,20017,1,0,0:0:0:0:
64,192,20199,1,0,0:0:0:0:
320,192,20199,1,0,0:0:0:0:
448,192,20199,1,0,0:0:0:0:
448,192,20381,1,0,0:0:0:0:
320,192,20381,1,0,0:0:0:0:
192,192,20381,1,0,0:0:0:0:
320,192,20563,1,0,0:0:0:0:
192,192,20563,1,0,0:0:0:0:
64,192,20563,1,0,0:0:0:0:
192,192,20745,1,0,0:0:0:0:
448,192,20745,1,0,0:0:0:0:
64,192,20745,1,0,0:0:0:0:
448,192,20927,1,0,0:0:0:0:
320,192,20927,1,0,0:0:0:0:
64,192,20927,1,0,0:0:0:0:
192,192,21108,1,0,0:0:0:0:
320,192,21108,1,0,0:0:0:0:
448,192,21108,1,0,0:0:0:0:
64,192,21290,1,0,0:0:0:0:
192,192,21290,1,0,0:0:0:0:
320,192,21290,1,0,0:0:0:0:
64,192,21411,1,0,0:0:0:0:
192,192,21411,1,0,0:0:0:0:
448,192,21411,1,0,0:0:0:0:
64,192,21533,1,0,0:0:0:0:
320,192,21533,1,0,0:0:0:0:
448,192,21533,1,0,0:0:0:0:
192,192,21654,1,0,0:0:0:0:
448,192,21654,1,0,0:0:0:0:
320,192,21654,1,0,0:0:0:0:
320,192,22017,1,0,0:0:0:0:
192,192,22017,1,0,0:0:0:0:
448,192,22017,1,0,0:0:0:0:
320,192,22139,1,0,0:0:0:0:
64,192,22139,1,0,0:0:0:0:
448,192,22139,1,0,0:0:0:0:
448,192,22260,1,0,0:0:0:0:
192,192,22260,1,0,0:0:0:0:
64,192,22260,1,0,0:0:0:0:
192,192,22381,1,0,0:0:0:0:
64,192,22381,1,0,0:0:0:0:
320,192,22381,1,0,0:0:0:0:
64,192,22745,1,0,0:0:0:0:
320,192,22745,1,0,0:0:0:0:
192,192,22745,1,0,0:0:0:0:
64,192,22866,1,0,0:0:0:0:
448,192,22866,1,0,0:0:0:0:
192,192,22866,1,0,0:0:0:0:
448,192,22987,1,0,0:0:0:0:
320,192,22987,1,0,0:0:0:0:
64,192,22987,1,0,0:0:0:0:
192,192,23108,1,0,0:0:0:0:
448,192,23108,1,0,0:0:0:0:
320,192,23108,1,0,0:0:0:0:
448,192,23230,1,0,0:0:0:0:
320,192,23230,1,0,0:0:0:0:
64,192,23230,1,0,0:0:0:0:
64,192,23351,1,0,0:0:0:0:
448,192,23351,1,0,0:0:0:0:
192,192,23351,1,0,0:0:0:0:
64,192,23472,1,0,0:0:0:0:
320,192,23472,1,0,0:0:0:0:
192,192,23472,1,0,0:0:0:0:
64,192,23593,1,0,0:0:0:0:
448,192,23593,1,0,0:0:0:0:
192,192,23593,1,0,0:0:0:0:
448,192,23714,1,0,0:0:0:0:
320,192,23714,1,0,0:0:0:0:
64,192,23714,1,0,0:0:0:0:
192,192,23836,1,0,0:0:0:0:
320,192,23836,1,0,0:0:0:0:
448,192,23836,1,0,0:0:0:0:
64,192,23836,1,0,0:0:0:0:
64,192,24199,1,0,0:0:0:0:
320,192,24199,1,0,0:0:0:0:
192,192,24199,1,0,0:0:0:0:
448,192,24381,128,0,24563:0:0:0:0:
192,192,24563,1,0,0:0:0:0:
320,192,24563,1,0,0:0:0:0:
448,192,24745,128,0,24927:0:0:0:0:
64,192,24927,1,0,0:0:0:0:
192,192,24972,1,0,0:0:0:0:
448,192,25108,1,0,0:0:0:0:
320,192,25154,1,0,0:0:0:0:
64,192,25290,1,0,0:0:0:0:
192,192,25336,1,0,0:0:0:0:
448,192,25472,1,0,0:0:0:0:
320,192,25517,1,0,0:0:0:0:
64,192,25654,1,0,0:0:0:0:
448,192,25654,1,0,0:0:0:0:
320,192,25836,128,0,25927:0:0:0:0:
192,192,25927,128,0,26017:0:0:0:0:
448,192,26017,128,0,26108:0:0:0:0:
64,192,26017,1,0,0:0:0:0:
448,192,26199,128,0,26381:0:0:0:0:
64,192,26381,1,0,0:0:0:0:
192,192,26427,1,0,0:0:0:0:
192,192,26563,128,0,26654:0:0:0:0:
192,192,26745,128,0,26927:0:0:0:0:
448,192,26745,1,0,0:0:0:0:
320,192,26927,1,0,0:0:0:0:
448,192,27108,128,0,27290:0:0:0:0:
64,192,27108,1,0,0:0:0:0:
320,192,27290,1,0,0:0:0:0:
192,192,27381,1,0,0:0:0:0:
448,192,27472,128,0,27836:0:0:0:0:
320,192,27472,1,0,0:0:0:0:
64,192,27654,1,0,0:0:0:0:
64,192,27836,1,0,0:0:0:0:
192,192,27881,1,0,0:0:0:0:
448,192,28017,1,0,0:0:0:0:
320,192,28063,1,0,0:0:0:0:
64,192,28199,1,0,0:0:0:0:
192,192,28245,1,0,0:0:0:0:
448,192,28381,1,0,0:0:0:0:
320,192,28427,1,0,0:0:0:0:
192,192,28563,128,0,28654:0:0:0:0:
64,192,28563,1,0,0:0:0:0:
64,192,28745,128,0,28836:0:0:0:0:
64,192,28927,1,0,0:0:0:0:
192,192,28972,1,0,0:0:0:0:
448,192,29108,1,0,0:0:0:0:
320,192,29154,1,0,0:0:0:0:
64,192,29290,1,0,0:0:0:0:
192,192,29336,1,0,0:0:0:0:
448,192,29472,128,0,29563:0:0:0:0:
448,192,29654,128,0,29836:0:0:0:0:
320,192,29654,1,0,0:0:0:0:
192,192,29836,1,0,0:0:0:0:
64,192,30017,128,0,30108:0:0:0:0:
448,192,30017,1,0,0:0:0:0:
320,192,30017,1,0,0:0:0:0:
320,192,30199,1,0,0:0:0:0:
192,192,30290,1,0,0:0:0:0:
64,192,30381,128,0,30563:0:0:0:0:
320,192,30381,1,0,0:0:0:0:
320,192,30563,1,0,0:0:0:0:
192,192,30654,1,0,0:0:0:0:
64,192,30745,1,0,0:0:0:0:
192,192,30790,1,0,0:0:0:0:
448,192,30927,1,0,0:0:0:0:
320,192,30972,1,0,0:0:0:0:
64,192,31108,1,0,0:0:0:0:
192,192,31154,1,0,0:0:0:0:
448,192,31290,1,0,0:0:0:0:
320,192,31336,1,0,0:0:0:0:
64,192,31472,1,0,0:0:0:0:
192,192,31517,1,0,0:0:0:0:
448,192,31654,1,0,0:0:0:0:
320,192,31699,1,0,0:0:0:0:
448,192,31836,128,0,32017:0:0:0:0:
320,192,31836,1,0,0:0:0:0:
64,192,32017,128,0,32108:0:0:0:0:
64,192,32199,128,0,32290:0:0:0:0:
320,192,32199,1,0,0:0:0:0:
320,192,32472,1,0,0:0:0:0:
448,192,32563,1,0,0:0:0:0:
64,192,32563,128,0,32745:0:0:0:0:
192,192,32745,128,0,32927:0:0:0:0:
320,192,32745,1,0,0:0:0:0:
448,192,32927,128,0,33108:0:0:0:0:
64,192,32927,1,0,0:0:0:0:
320,192,33108,128,0,33199:0:0:0:0:
64,192,33290,1,0,0:0:0:0:
192,192,33336,1,0,0:0:0:0:
448,192,33472,1,0,0:0:0:0:
320,192,33517,1,0,0:0:0:0:
64,192,33654,1,0,0:0:0:0:
192,192,33699,1,0,0:0:0:0:
448,192,33836,128,0,33927:0:0:0:0:
320,192,34017,128,0,34108:0:0:0:0:
192,192,34017,1,0,0:0:0:0:
64,192,34199,128,0,34290:0:0:0:0:
64,192,34381,128,0,34563:0:0:0:0:
192,192,34381,1,0,0:0:0:0:
320,192,34563,1,0,0:0:0:0:
192,192,34654,1,0,0:0:0:0:
64,192,34745,1,0,0:0:0:0:
192,192,34790,1,0,0:0:0:0:
448,192,34927,1,0,0:0:0:0:
320,192,34972,1,0,0:0:0:0:
320,192,35108,128,0,35199:0:0:0:0:
64,192,35108,1,0,0:0:0:0:
320,192,35381,1,0,0:0:0:0:
192,192,35472,128,0,35563:0:0:0:0:
448,192,35472,1,0,0:0:0:0:
192,192,35654,128,0,35836:0:0:0:0:
320,192,35654,1,0,0:0:0:0:
448,192,35836,128,0,36199:0:0:0:0:
64,192,35836,1,0,0:0:0:0:
64,192,36108,1,0,0:0:0:0:
320,192,36199,128,0,36381:0:0:0:0:
192,192,36199,1,0,0:0:0:0:
192,192,36381,1,0,0:0:0:0:
320,192,36563,1,0,0:0:0:0:
448,192,36563,1,0,0:0:0:0:
192,192,36654,1,0,0:0:0:0:
320,192,36745,1,0,0:0:0:0:
192,192,36836,1,0,0:0:0:0:
320,192,36927,1,0,0:0:0:0:
192,192,37017,1,0,0:0:0:0:
320,192,37108,1,0,0:0:0:0:
64,192,37290,128,0,37654:0:0:0:0:
192,192,37290,1,0,0:0:0:0:
192,192,37563,1,0,0:0:0:0:
320,192,37654,128,0,37836:0:0:0:0:
448,192,37654,1,0,0:0:0:0:
448,192,37836,1,0,0:0:0:0:
64,192,38017,1,0,0:0:0:0:
192,192,38017,1,0,0:0:0:0:
320,192,38108,1,0,0:0:0:0:
192,192,38199,1,0,0:0:0:0:
320,192,38290,1,0,0:0:0:0:
192,192,38381,1,0,0:0:0:0:
320,192,38472,1,0,0:0:0:0:
192,192,38563,1,0,0:0:0:0:
448,192,38745,128,0,39108:0:0:0:0:
64,192,38745,1,0,0:0:0:0:
64,192,39017,1,0,0:0:0:0:
192,192,39108,1,0,0:0:0:0:
320,192,39108,128,0,39290:0:0:0:0:
192,192,39290,1,0,0:0:0:0:
320,192,39472,1,0,0:0:0:0:
448,192,39472,1,0,0:0:0:0:
64,192,39563,1,0,0:0:0:0:
448,192,39654,1,0,0:0:0:0:
64,192,39745,1,0,0:0:0:0:
448,192,39836,1,0,0:0:0:0:
64,192,39927,1,0,0:0:0:0:
448,192,40017,1,0,0:0:0:0:
192,192,40199,1,0,0:0:0:0:
64,192,40199,128,0,40563:0:0:0:0:
192,192,40472,1,0,0:0:0:0:
448,192,40563,1,0,0:0:0:0:
320,192,40563,128,0,40745:0:0:0:0:
448,192,40745,1,0,0:0:0:0:
64,192,40927,1,0,0:0:0:0:
192,192,40927,1,0,0:0:0:0:
448,192,41017,1,0,0:0:0:0:
64,192,41108,1,0,0:0:0:0:
448,192,41199,1,0,0:0:0:0:
64,192,41290,1,0,0:0:0:0:
448,192,41381,1,0,0:0:0:0:
64,192,41472,1,0,0:0:0:0:
192,192,41654,1,0,0:0:0:0:
448,192,41654,128,0,42017:0:0:0:0:
192,192,41927,1,0,0:0:0:0:
64,192,42017,1,0,0:0:0:0:
320,192,42017,128,0,42199:0:0:0:0:
64,192,42199,1,0,0:0:0:0:
64,192,42381,1,0,0:0:0:0:
192,192,42381,1,0,0:0:0:0:
320,192,42472,1,0,0:0:0:0:
192,192,42563,1,0,0:0:0:0:
320,192,42654,1,0,0:0:0:0:
192,192,42745,1,0,0:0:0:0:
320,192,42836,1,0,0:0:0:0:
192,192,42927,1,0,0:0:0:0:
64,192,43108,128,0,43472:0:0:0:0:
320,192,43108,1,0,0:0:0:0:
320,192,43381,1,0,0:0:0:0:
192,192,43472,128,0,43654:0:0:0:0:
448,192,43472,1,0,0:0:0:0:
448,192,43654,1,0,0:0:0:0:
320,192,43836,1,0,0:0:0:0:
448,192,43836,1,0,0:0:0:0:
64,192,43927,1,0,0:0:0:0:
320,192,44017,1,0,0:0:0:0:
64,192,44108,1,0,0:0:0:0:
320,192,44199,1,0,0:0:0:0:
64,192,44290,1,0,0:0:0:0:
320,192,44381,1,0,0:0:0:0:
448,192,44563,128,0,44927:0:0:0:0:
192,192,44563,1,0,0:0:0:0:
192,192,44836,1,0,0:0:0:0:
64,192,44927,128,0,45108:0:0:0:0:
320,192,44927,1,0,0:0:0:0:
320,192,45108,1,0,0:0:0:0:
320,192,45290,1,0,0:0:0:0:
448,192,45290,1,0,0:0:0:0:
192,192,45381,1,0,0:0:0:0:
320,192,45472,1,0,0:0:0:0:
192,192,45563,1,0,0:0:0:0:
320,192,45654,1,0,0:0:0:0:
192,192,45745,1,0,0:0:0:0:
320,192,45836,1,0,0:0:0:0:
64,192,46017,128,0,46199:0:0:0:0:
192,192,46017,1,0,0:0:0:0:
320,192,46199,1,0,0:0:0:0:
192,192,46199,128,0,46381:0:0:0:0:
448,192,46381,1,0,0:0:0:0:
320,192,46381,128,0,46563:0:0:0:0:
448,192,46563,128,0,46745:0:0:0:0:
64,192,46563,1,0,0:0:0:0:
64,192,46745,1,0,0:0:0:0:
192,192,46745,1,0,0:0:0:0:
320,192,46836,1,0,0:0:0:0:
192,192,46927,1,0,0:0:0:0:
320,192,47017,1,0,0:0:0:0:
192,192,47108,1,0,0:0:0:0:
448,192,47472,1,0,0:0:0:0:
64,192,47472,1,0,0:0:0:0:
192,192,47472,1,0,0:0:0:0:
320,192,47472,128,0,47654:0:0:0:0:
64,192,47654,128,0,47836:0:0:0:0:
448,192,47836,1,0,0:0:0:0:
320,192,47836,128,0,47927:0:0:0:0:
192,192,47927,128,0,48017:0:0:0:0:
320,192,48017,128,0,48108:0:0:0:0:
192,192,48108,128,0,48199:0:0:0:0:
448,192,48199,128,0,48381:0:0:0:0:
320,192,48199,1,0,0:0:0:0:
64,192,48381,128,0,48472:0:0:0:0:
192,192,48472,128,0,48563:0:0:0:0:
320,192,48563,128,0,48745:0:0:0:0:
448,192,48563,1,0,0:0:0:0:
448,192,48927,128,0,49017:0:0:0:0:
64,192,48927,1,0,0:0:0:0:
64,192,49108,128,0,49199:0:0:0:0:
448,192,49199,128,0,49290:0:0:0:0:
192,192,49290,1,0,0:0:0:0:
320,192,49381,128,0,49472:0:0:0:0:
192,192,49472,128,0,49563:0:0:0:0:
64,192,49563,128,0,49654:0:0:0:0:
320,192,49654,128,0,49745:0:0:0:0:
448,192,49654,1,0,0:0:0:0:
192,192,49836,128,0,49927:0:0:0:0:
64,192,49927,128,0,50017:0:0:0:0:
448,192,50017,128,0,50199:0:0:0:0:
192,192,50017,1,0,0:0:0:0:
320,192,50381,128,0,50563:0:0:0:0:
192,192,50381,1,0,0:0:0:0:
448,192,50563,128,0,50654:0:0:0:0:
64,192,50654,128,0,50745:0:0:0:0:
320,192,50745,1,0,0:0:0:0:
64,192,50927,128,0,51017:0:0:0:0:
192,192,51017,128,0,51108:0:0:0:0:
320,192,51108,128,0,51199:0:0:0:0:
448,192,51108,1,0,0:0:0:0:
64,192,51199,128,0,51290:0:0:0:0:
320,192,51290,128,0,51381:0:0:0:0:
64,192,51381,128,0,51472:0:0:0:0:
192,192,51472,128,0,51654:0:0:0:0:
320,192,51472,1,0,0:0:0:0:
448,192,51836,128,0,51927:0:0:0:0:
192,192,51836,1,0,0:0:0:0:
64,192,51927,128,0,52017:0:0:0:0:
448,192,52017,128,0,52199:0:0:0:0:
192,192,52199,128,0,52381:0:0:0:0:
64,192,52199,1,0,0:0:0:0:
320,192,52381,128,0,52472:0:0:0:0:
64,192,52472,128,0,52563:0:0:0:0:
320,192,52563,128,0,52745:0:0:0:0:
448,192,52563,1,0,0:0:0:0:
192,192,52745,128,0,52836:0:0:0:0:
448,192,52836,128,0,52927:0:0:0:0:
192,192,52927,128,0,53108:0:0:0:0:
64,192,52927,1,0,0:0:0:0:
64,192,53290,128,0,53381:0:0:0:0:
448,192,53290,1,0,0:0:0:0:
320,192,53472,128,0,53654:0:0:0:0:
64,192,53654,128,0,53745:0:0:0:0:
192,192,53654,1,0,0:0:0:0:
448,192,53836,128,0,53927:0:0:0:0:
320,192,53927,128,0,54017:0:0:0:0:
192,192,54017,128,0,54199:0:0:0:0:
64,192,54017,1,0,0:0:0:0:
448,192,54199,128,0,54290:0:0:0:0:
320,192,54290,128,0,54381:0:0:0:0:
64,192,54381,128,0,54563:0:0:0:0:
448,192,54381,1,0,0:0:0:0:
448,192,54745,128,0,54927:0:0:0:0:
64,192,54745,1,0,0:0:0:0:
192,192,54927,128,0,55017:0:0:0:0:
64,192,55017,128,0,55199:0:0:0:0:
320,192,55108,1,0,0:0:0:0:
448,192,55199,128,0,55290:0:0:0:0:
320,192,55290,128,0,55381:0:0:0:0:
64,192,55381,128,0,55472:0:0:0:0:
320,192,55472,128,0,55563:0:0:0:0:
448,192,55472,1,0,0:0:0:0:
192,192,55563,128,0,55654:0:0:0:0:
320,192,55654,128,0,55745:0:0:0:0:
192,192,55745,128,0,55836:0:0:0:0:
320,192,55836,128,0,56017:0:0:0:0:
64,192,55836,1,0,0:0:0:0:
448,192,56199,128,0,56381:0:0:0:0:
320,192,56199,1,0,0:0:0:0:
64,192,56381,128,0,56563:0:0:0:0:
192,192,56381,1,0,0:0:0:0:
448,192,56563,128,0,56654:0:0:0:0:
320,192,56563,1,0,0:0:0:0:
192,192,56654,128,0,56745:0:0:0:0:
448,192,56745,128,0,56836:0:0:0:0:
320,192,56745,1,0,0:0:0:0:
192,192,56836,128,0,56927:0:0:0:0:
448,192,56927,128,0,57017:0:0:0:0:
64,192,56927,1,0,0:0:0:0:
320,192,57017,128,0,57108:0:0:0:0:
64,192,57108,128,0,57199:0:0:0:0:
448,192,57108,1,0,0:0:0:0:
192,192,57199,128,0,57290:0:0:0:0:
448,192,57290,128,0,57472:0:0:0:0:
320,192,57290,1,0,0:0:0:0:
64,192,57472,1,0,0:0:0:0:
320,192,57654,128,0,57836:0:0:0:0:
192,192,57654,1,0,0:0:0:0:
64,192,57836,128,0,57927:0:0:0:0:
448,192,57836,1,0,0:0:0:0:
64,192,58017,128,0,58108:0:0:0:0:
320,192,58017,1,0,0:0:0:0:
64,192,58199,128,0,58290:0:0:0:0:
192,192,58199,1,0,0:0:0:0:
448,192,58381,128,0,58472:0:0:0:0:
64,192,58381,1,0,0:0:0:0:
320,192,58472,128,0,58563:0:0:0:0:
192,192,58563,128,0,58654:0:0:0:0:
448,192,58563,1,0,0:0:0:0:
64,192,58654,128,0,58745:0:0:0:0:
320,192,58745,1,0,0:0:0:0:
448,192,59108,128,0,59836:0:0:0:0:
320,192,59836,1,0,0:0:0:0:
320,192,60017,1,0,0:0:0:0:
192,192,60108,1,0,0:0:0:0:
320,192,60199,1,0,0:0:0:0:
64,192,60381,1,0,0:0:0:0:
192,192,60563,1,0,0:0:0:0:
320,192,60654,1,0,0:0:0:0:
192,192,60745,1,0,0:0:0:0:
320,192,60836,1,0,0:0:0:0:
64,192,60927,128,0,61017:0:0:0:0:
448,192,61108,128,0,61199:0:0:0:0:
320,192,61290,1,0,0:0:0:0:
192,192,61381,1,0,0:0:0:0:
320,192,61472,1,0,0:0:0:0:
192,192,61563,1,0,0:0:0:0:
448,192,61654,128,0,61745:0:0:0:0:
64,192,61836,1,0,0:0:0:0:
448,192,62017,128,0,62745:0:0:0:0:
64,192,62745,1,0,0:0:0:0:
448,192,62927,1,0,0:0:0:0:
320,192,63108,1,0,0:0:0:0:
192,192,63290,1,0,0:0:0:0:
448,192,63472,1,0,0:0:0:0:
64,192,63563,1,0,0:0:0:0:
320,192,63654,1,0,0:0:0:0:
64,192,63745,1,0,0:0:0:0:
448,192,63836,1,0,0:0:0:0:
320,192,64017,128,0,64108:0:0:0:0:
192,192,64199,1,0,0:0:0:0:
448,192,64290,1,0,0:0:0:0:
64,192,64381,1,0,0:0:0:0:
448,192,64472,1,0,0:0:0:0:
192,192,64563,1,0,0:0:0:0:
64,192,64745,1,0,0:0:0:0:
448,192,64927,128,0,65654:0:0:0:0:
192,192,65654,1,0,0:0:0:0:
448,192,65836,1,0,0:0:0:0:
320,192,66017,1,0,0:0:0:0:
192,192,66108,1,0,0:0:0:0:
320,192,66199,1,0,0:0:0:0:
192,192,66381,1,0,0:0:0:0:
64,192,66472,1,0,0:0:0:0:
320,192,66563,1,0,0:0:0:0:
64,192,66654,1,0,0:0:0:0:
448,192,66745,1,0,0:0:0:0:
64,192,66836,1,0,0:0:0:0:
448,192,66927,1,0,0:0:0:0:
320,192,67017,1,0,0:0:0:0:
64,192,67108,1,0,0:0:0:0:
448,192,67199,1,0,0:0:0:0:
192,192,67290,1,0,0:0:0:0:
448,192,67381,1,0,0:0:0:0:
320,192,67472,1,0,0:0:0:0:
448,192,67563,1,0,0:0:0:0:
192,192,67654,1,0,0:0:0:0:
320,192,67745,1,0,0:0:0:0:
64,192,67836,128,0,68563:0:0:0:0:
448,192,68563,1,0,0:0:0:0:
64,192,68745,1,0,0:0:0:0:
320,192,68927,1,0,0:0:0:0:
192,192,69017,1,0,0:0:0:0:
320,192,69108,1,0,0:0:0:0:
64,192,69290,128,0,69381:0:0:0:0:
448,192,69472,1,0,0:0:0:0:
64,192,69563,1,0,0:0:0:0:
320,192,69654,1,0,0:0:0:0:
192,192,69745,1,0,0:0:0:0:
320,192,69836,1,0,0:0:0:0:
192,192,69927,1,0,0:0:0:0:
64,192,70017,1,0,0:0:0:0:
320,192,70108,1,0,0:0:0:0:
448,192,70199,1,0,0:0:0:0:
192,192,70290,1,0,0:0:0:0:
320,192,70381,1,0,0:0:0:0:
64,192,70472,1,0,0:0:0:0:
192,192,70563,1,0,0:0:0:0:
448,192,70745,1,0,0:0:0:0:
64,192,70836,1,0,0:0:0:0:
320,192,70927,1,0,0:0:0:0:
64,192,71017,1,0,0:0:0:0:
448,192,71108,1,0,0:0:0:0:
320,192,71199,1,0,0:0:0:0:
448,192,71290,1,0,0:0:0:0:
192,192,71381,1,0,0:0:0:0:
64,192,71472,128,0,71563:0:0:0:0:
320,192,71563,1,0,0:0:0:0:
64,192,71654,128,0,71745:0:0:0:0:
192,192,71745,1,0,0:0:0:0:
448,192,71836,1,0,0:0:0:0:
320,192,72017,1,0,0:0:0:0:
192,192,72108,1,0,0:0:0:0:
320,192,72199,1,0,0:0:0:0:
448,192,72290,1,0,0:0:0:0:
64,192,72381,128,0,72472:0:0:0:0:
320,192,72472,1,0,0:0:0:0:
64,192,72563,128,0,72654:0:0:0:0:
320,192,72654,1,0,0:0:0:0:
64,192,72745,128,0,72836:0:0:0:0:
320,192,72836,1,0,0:0:0:0:
64,192,72927,128,0,73017:0:0:0:0:
320,192,73017,1,0,0:0:0:0:
64,192,73108,128,0,73199:0:0:0:0:
320,192,73199,1,0,0:0:0:0:
64,192,73290,1,0,0:0:0:0:
448,192,73290,1,0,0:0:0:0:
320,192,73654,1,0,0:0:0:0:
192,192,73654,1,0,0:0:0:0:
448,192,73654,128,0,73836:0:0:0:0:
64,192,73836,128,0,74017:0:0:0:0:
320,192,74017,128,0,74199:0:0:0:0:
448,192,74199,128,0,74381:0:0:0:0:
320,192,74381,128,0,74472:0:0:0:0:
192,192,74381,1,0,0:0:0:0:
64,192,74472,128,0,74563:0:0:0:0:
320,192,74563,128,0,74654:0:0:0:0:
448,192,74654,128,0,74745:0:0:0:0:
320,192,74745,128,0,74927:0:0:0:0:
64,192,74745,1,0,0:0:0:0:
64,192,74927,1,0,0:0:0:0:
448,192,75108,1,0,0:0:0:0:
192,192,75290,128,0,75472:0:0:0:0:
320,192,75290,1,0,0:0:0:0:
448,192,75472,1,0,0:0:0:0:
64,192,75654,128,0,75836:0:0:0:0:
320,192,75654,1,0,0:0:0:0:
192,192,75745,1,0,0:0:0:0:
320,192,75836,1,0,0:0:0:0:
448,192,75836,128,0,76017:0:0:0:0:
64,192,76017,1,0,0:0:0:0:
192,192,76108,1,0,0:0:0:0:
448,192,76199,1,0,0:0:0:0:
64,192,76381,1,0,0:0:0:0:
320,192,76563,128,0,76654:0:0:0:0:
448,192,76563,1,0,0:0:0:0:
192,192,76654,128,0,76745:0:0:0:0:
64,192,76745,128,0,76836:0:0:0:0:
192,192,76836,128,0,76927:0:0:0:0:
448,192,76927,128,0,77017:0:0:0:0:
320,192,77108,128,0,77199:0:0:0:0:
192,192,77290,128,0,77381:0:0:0:0:
448,192,77290,1,0,0:0:0:0:
64,192,77472,128,0,77563:0:0:0:0:
192,192,77563,128,0,77654:0:0:0:0:
320,192,77654,128,0,77836:0:0:0:0:
448,192,77654,1,0,0:0:0:0:
64,192,77836,1,0,0:0:0:0:
192,192,78017,128,0,78108:0:0:0:0:
320,192,78199,1,0,0:0:0:0:
192,192,78381,128,0,78472:0:0:0:0:
320,192,78563,1,0,0:0:0:0:
64,192,78745,128,0,78927:0:0:0:0:
448,192,78745,1,0,0:0:0:0:
192,192,78927,1,0,0:0:0:0:
448,192,79108,128,0,79199:0:0:0:0:
320,192,79381,128,0,79472:0:0:0:0:
64,192,79472,128,0,79563:0:0:0:0:
448,192,79472,1,0,0:0:0:0:
192,192,79563,128,0,79654:0:0:0:0:
320,192,79654,128,0,79745:0:0:0:0:
192,192,79745,128,0,79836:0:0:0:0:
320,192,79836,128,0,79927:0:0:0:0:
448,192,80017,128,0,80108:0:0:0:0:
320,192,80108,128,0,80199:0:0:0:0:
64,192,80199,128,0,80290:0:0:0:0:
448,192,80199,1,0,0:0:0:0:
192,192,80290,128,0,80381:0:0:0:0:
320,192,80381,128,0,80472:0:0:0:0:
192,192,80563,128,0,80654:0:0:0:0:
64,192,80654,128,0,80745:0:0:0:0:
448,192,80745,128,0,80836:0:0:0:0:
64,192,80927,1,0,0:0:0:0:
192,192,80927,1,0,0:0:0:0:
320,192,81108,128,0,81199:0:0:0:0:
320,192,81290,128,0,81381:0:0:0:0:
192,192,81290,1,0,0:0:0:0:
320,192,81472,128,0,81563:0:0:0:0:
320,192,81654,128,0,81836:0:0:0:0:
64,192,81654,1,0,0:0:0:0:
448,192,82017,128,0,82108:0:0:0:0:
192,192,82199,128,0,82290:0:0:0:0:
64,192,82381,1,0,0:0:0:0:
448,192,82745,128,0,83108:0:0:0:0:
64,192,83108,128,0,85290:0:0:0:0:
192,192,85290,1,0,0:0:0:0:
320,192,85290,1,0,0:0:0:0:
448,192,85290,1,0,0:0:0:0:
448,192,85563,1,0,0:0:0:0:
320,192,85563,1,0,0:0:0:0:
64,192,85563,1,0,0:0:0:0:
64,192,85836,1,0,0:0:0:0:
320,192,85836,1,0,0:0:0:0:
192,192,85836,1,0,0:0:0:0:
64,192,86108,1,0,0:0:0:0:
192,192,86108,1,0,0:0:0:0:
448,192,86108,1,0,0:0:0:0:
64,192,86381,1,0,0:0:0:0:
192,192,86381,1,0,0:0:0:0:
320,192,86381,1,0,0:0:0:0:
320,192,86563,1,0,0:0:0:0:
192,192,86563,1,0,0:0:0:0:
448,192,86563,1,0,0:0:0:0:
192,192,86745,1,0,0:0:0:0:
320,192,86745,1,0,0:0:0:0:
64,192,86745,1,0,0:0:0:0:
448,192,87017,1,0,0:0:0:0:
192,192,87017,1,0,0:0:0:0:
64,192,87017,1,0,0:0:0:0:
448,192,87290,1,0,0:0:0:0:
320,192,87290,1,0,0:0:0:0:
64,192,87290,1,0,0:0:0:0:
448,192,87563,1,0,0:0:0:0:
192,192,87563,1,0,0:0:0:0:
320,192,87563,1,0,0:0:0:0:
64,192,87836,1,0,0:0:0:0:
320,192,87836,1,0,0:0:0:0:
448,192,87836,1,0,0:0:0:0:
64,192,88017,1,0,0:0:0:0:
192,192,88017,1,0,0:0:0:0:
448,192,88017,1,0,0:0:0:0:
64,192,88199,1,0,0:0:0:0:
320,192,88199,1,0,0:0:0:0:
448,192,88199,1,0,0:0:0:0:
64,192,88472,1,0,0:0:0:0:
192,192,88472,1,0,0:0:0:0:
320,192,88472,1,0,0:0:0:0:
64,192,88745,1,0,0:0:0:0:
192,192,88745,1,0,0:0:0:0:
448,192,88745,1,0,0:0:0:0:
192,192,89017,1,0,0:0:0:0:
320,192,89017,1,0,0:0:0:0:
448,192,89017,1,0,0:0:0:0:
64,192,89290,1,0,0:0:0:0:
192,192,89290,1,0,0:0:0:0:
448,192,89290,1,0,0:0:0:0:
64,192,89472,1,0,0:0:0:0:
320,192,89472,1,0,0:0:0:0:
448,192,89472,1,0,0:0:0:0:
64,192,89654,1,0,0:0:0:0:
192,192,89654,1,0,0:0:0:0:
448,192,89654,1,0,0:0:0:0:
64,192,89927,1,0,0:0:0:0:
320,192,89927,1,0,0:0:0:0:
192,192,89927,1,0,0:0:0:0:
192,192,90199,1,0,0:0:0:0:
320,192,90199,1,0,0:0:0:0:
448,192,90199,1,0,0:0:0:0:
64,192,90472,1,0,0:0:0:0:
320,192,90472,1,0,0:0:0:0:
448,192,90472,1,0,0:0:0:0:
448,192,90745,1,0,0:0:0:0:
320,192,90745,1,0,0:0:0:0:
192,192,90745,1,0,0:0:0:0:
320,192,90927,1,0,0:0:0:0:
192,192,90927,1,0,0:0:0:0:
64,192,90927,1,0,0:0:0:0:
192,192,91108,1,0,0:0:0:0:
320,192,91108,1,0,0:0:0:0:
448,192,91108,128,0,91381:0:0:0:0:
320,192,91381,128,0,91654:0:0:0:0:
192,192,91381,1,0,0:0:0:0:
64,192,91381,1,0,0:0:0:0:
192,192,91654,128,0,91927:0:0:0:0:
64,192,91654,1,0,0:0:0:0:
448,192,91654,1,0,0:0:0:0:
320,192,91927,128,0,92199:0:0:0:0:
448,192,91927,1,0,0:0:0:0:
64,192,91927,1,0,0:0:0:0:
64,192,92199,1,0,0:0:0:0:
192,192,92199,1,0,0:0:0:0:
448,192,92199,1,0,0:0:0:0:
320,192,92290,1,0,0:0:0:0:
64,192,92381,1,0,0:0:0:0:
192,192,92381,1,0,0:0:0:0:
448,192,92472,1,0,0:0:0:0:
192,192,92563,1,0,0:0:0:0:
320,192,92563,1,0,0:0:0:0:
64,192,92563,128,0,92836:0:0:0:0:
192,192,92836,128,0,93108:0:0:0:0:
320,192,92836,1,0,0:0:0:0:
448,192,92836,1,0,0:0:0:0:
320,192,93108,128,0,93381:0:0:0:0:
448,192,93108,1,0,0:0:0:0:
64,192,93108,1,0,0:0:0:0:
192,192,93381,128,0,93654:0:0:0:0:
64,192,93381,1,0,0:0:0:0:
448,192,93381,1,0,0:0:0:0:
64,192,93654,1,0,0:0:0:0:
320,192,93654,1,0,0:0:0:0:
448,192,93654,1,0,0:0:0:0:
192,192,93745,1,0,0:0:0:0:
320,192,93836,1,0,0:0:0:0:
448,192,93836,1,0,0:0:0:0:
64,192,93927,1,0,0:0:0:0:
192,192,94017,1,0,0:0:0:0:
320,192,94017,1,0,0:0:0:0:
448,192,94017,1,0,0:0:0:0:
64,192,94108,1,0,0:0:0:0:
320,192,94199,1,0,0:0:0:0:
192,192,94290,1,0,0:0:0:0:
448,192,94381,1,0,0:0:0:0:
320,192,94472,1,0,0:0:0:0:
64,192,94563,1,0,0:0:0:0:
448,192,94654,1,0,0:0:0:0:
192,192,94745,1,0,0:0:0:0:
64,192,94836,1,0,0:0:0:0:
320,192,94927,1,0,0:0:0:0:
192,192,95017,1,0,0:0:0:0:
448,192,95108,1,0,0:0:0:0:
320,192,95199,1,0,0:0:0:0:
64,192,95290,1,0,0:0:0:0:
448,192,95381,1,0,0:0:0:0:
192,192,95472,1,0,0:0:0:0:
64,192,95563,1,0,0:0:0:0:
320,192,95654,1,0,0:0:0:0:
192,192,95745,1,0,0:0:0:0:
448,192,95836,1,0,0:0:0:0:
320,192,95927,1,0,0:0:0:0:
64,192,96017,1,0,0:0:0:0:
448,192,96108,1,0,0:0:0:0:
192,192,96199,1,0,0:0:0:0:
64,192,96290,1,0,0:0:0:0:
320,192,96381,1,0,0:0:0:0:
192,192,96472,1,0,0:0:0:0:
448,192,96563,1,0,0:0:0:0:
320,192,96563,1,0,0:0:0:0:
64,192,96927,1,0,0:0:0:0:
192,192,96927,1,0,0:0:0:0:
320,192,97108,1,0,0:0:0:0:
192,192,97199,1,0,0:0:0:0:
320,192,97290,1,0,0:0:0:0:
448,192,97290,1,0,0:0:0:0:
64,192,97472,1,0,0:0:0:0:
192,192,97563,1,0,0:0:0:0:
320,192,97654,1,0,0:0:0:0:
448,192,97654,1,0,0:0:0:0:
64,192,97836,1,0,0:0:0:0:
192,192,97836,1,0,0:0:0:0:
320,192,97927,1,0,0:0:0:0:
448,192,97927,1,0,0:0:0:0:
64,192,98108,1,0,0:0:0:0:
192,192,98108,1,0,0:0:0:0:
320,192,98199,1,0,0:0:0:0:
448,192,98199,1,0,0:0:0:0:
64,192,98381,1,0,0:0:0:0:
192,192,98381,1,0,0:0:0:0:
448,192,98563,1,0,0:0:0:0:
320,192,98654,1,0,0:0:0:0:
64,192,98745,1,0,0:0:0:0:
192,192,98745,1,0,0:0:0:0:
192,192,98927,1,0,0:0:0:0:
320,192,99017,1,0,0:0:0:0:
64,192,99108,1,0,0:0:0:0:
192,192,99108,1,0,0:0:0:0:
320,192,99290,1,0,0:0:0:0:
448,192,99290,1,0,0:0:0:0:
192,192,99381,1,0,0:0:0:0:
64,192,99381,1,0,0:0:0:0:
448,192,99563,1,0,0:0:0:0:
320,192,99563,1,0,0:0:0:0:
192,192,99654,1,0,0:0:0:0:
64,192,99654,1,0,0:0:0:0:
320,192,99836,1,0,0:0:0:0:
448,192,99836,1,0,0:0:0:0:
192,192,99927,1,0,0:0:0:0:
448,192,100017,1,0,0:0:0:0:
192,192,100108,1,0,0:0:0:0:
320,192,100199,1,0,0:0:0:0:
448,192,100199,1,0,0:0:0:0:
64,192,100381,1,0,0:0:0:0:
192,192,100472,1,0,0:0:0:0:
320,192,100563,1,0,0:0:0:0:
448,192,100563,1,0,0:0:0:0:
64,192,100745,1,0,0:0:0:0:
192,192,100745,1,0,0:0:0:0:
320,192,100836,1,0,0:0:0:0:
448,192,100836,1,0,0:0:0:0:
64,192,101017,1,0,0:0:0:0:
192,192,101017,1,0,0:0:0:0:
320,192,101108,1,0,0:0:0:0:
448,192,101108,1,0,0:0:0:0:
64,192,101290,1,0,0:0:0:0:
192,192,101290,1,0,0:0:0:0:
320,192,101381,1,0,0:0:0:0:
448,192,101472,1,0,0:0:0:0:
320,192,101563,1,0,0:0:0:0:
64,192,101654,1,0,0:0:0:0:
192,192,101654,1,0,0:0:0:0:
448,192,101836,1,0,0:0:0:0:
320,192,101927,1,0,0:0:0:0:
64,192,102017,1,0,0:0:0:0:
192,192,102017,1,0,0:0:0:0:
320,192,102199,1,0,0:0:0:0:
448,192,102199,1,0,0:0:0:0:
192,192,102290,1,0,0:0:0:0:
64,192,102290,1,0,0:0:0:0:
320,192,102472,1,0,0:0:0:0:
448,192,102472,1,0,0:0:0:0:
192,192,102563,1,0,0:0:0:0:
64,192,102563,1,0,0:0:0:0:
320,192,102745,1,0,0:0:0:0:
448,192,102745,1,0,0:0:0:0:
64,192,102836,1,0,0:0:0:0:
320,192,102927,1,0,0:0:0:0:
64,192,103017,1,0,0:0:0:0:
320,192,103108,1,0,0:0:0:0:
448,192,103108,1,0,0:0:0:0:
192,192,103290,1,0,0:0:0:0:
64,192,103381,1,0,0:0:0:0:
320,192,103472,1,0,0:0:0:0:
448,192,103472,1,0,0:0:0:0:
64,192,103654,1,0,0:0:0:0:
192,192,103654,1,0,0:0:0:0:
320,192,103745,1,0,0:0:0:0:
448,192,103745,1,0,0:0:0:0:
64,192,103927,1,0,0:0:0:0:
192,192,103927,1,0,0:0:0:0:
320,192,104017,1,0,0:0:0:0:
448,192,104017,1,0,0:0:0:0:
64,192,104199,1,0,0:0:0:0:
192,192,104199,1,0,0:0:0:0:
320,192,104381,1,0,0:0:0:0:
192,192,104472,1,0,0:0:0:0:
320,192,104563,1,0,0:0:0:0:
448,192,104563,1,0,0:0:0:0:
448,192,104745,1,0,0:0:0:0:
320,192,104836,1,0,0:0:0:0:
64,192,104927,1,0,0:0:0:0:
192,192,104927,1,0,0:0:0:0:
320,192,105108,1,0,0:0:0:0:
448,192,105108,1,0,0:0:0:0:
192,192,105199,1,0,0:0:0:0:
64,192,105199,1,0,0:0:0:0:
320,192,105381,1,0,0:0:0:0:
448,192,105381,1,0,0:0:0:0:
192,192,105472,1,0,0:0:0:0:
64,192,105472,1,0,0:0:0:0:
320,192,105654,1,0,0:0:0:0:
448,192,105654,1,0,0:0:0:0:
192,192,105745,1,0,0:0:0:0:
448,192,105836,1,0,0:0:0:0:
320,192,105927,1,0,0:0:0:0:
64,192,106017,1,0,0:0:0:0:
192,192,106017,1,0,0:0:0:0:
320,192,106199,1,0,0:0:0:0:
192,192,106290,1,0,0:0:0:0:
320,192,106381,1,0,0:0:0:0:
448,192,106381,1,0,0:0:0:0:
64,192,106563,1,0,0:0:0:0:
192,192,106563,1,0,0:0:0:0:
320,192,106654,1,0,0:0:0:0:
448,192,106654,1,0,0:0:0:0:
64,192,106836,1,0,0:0:0:0:
192,192,106836,1,0,0:0:0:0:
320,192,106927,1,0,0:0:0:0:
448,192,106927,1,0,0:0:0:0:
64,192,107108,1,0,0:0:0:0:
192,192,107108,1,0,0:0:0:0:
448,192,107199,1,0,0:0:0:0:
192,192,107290,1,0,0:0:0:0:
448,192,107381,1,0,0:0:0:0:
320,192,107472,1,0,0:0:0:0:
448,192,107563,1,0,0:0:0:0:
64,192,107654,1,0,0:0:0:0:
320,192,107745,1,0,0:0:0:0:
192,192,107836,1,0,0:0:0:0:
64,192,107927,1,0,0:0:0:0:
320,192,108017,1,0,0:0:0:0:
64,192,108108,1,0,0:0:0:0:
448,192,108199,1,0,0:0:0:0:
320,192,108199,1,0,0:0:0:0:
192,192,108199,1,0,0:0:0:0:
192,192,108563,1,0,0:0:0:0:
448,192,108563,1,0,0:0:0:0:
64,192,108563,1,0,0:0:0:0:
320,192,108654,1,0,0:0:0:0:
192,192,108745,1,0,0:0:0:0:
64,192,108836,1,0,0:0:0:0:
192,192,108927,1,0,0:0:0:0:
320,192,108927,1,0,0:0:0:0:
448,192,108927,1,0,0:0:0:0:
64,192,109290,1,0,0:0:0:0:
192,192,109290,1,0,0:0:0:0:
448,192,109290,1,0,0:0:0:0:
320,192,109381,1,0,0:0:0:0:
192,192,109472,1,0,0:0:0:0:
64,192,109563,1,0,0:0:0:0:
320,192,109654,1,0,0:0:0:0:
192,192,109654,1,0,0:0:0:0:
448,192,109654,1,0,0:0:0:0:
64,192,109745,1,0,0:0:0:0:
192,192,109836,1,0,0:0:0:0:
448,192,109927,1,0,0:0:0:0:
64,192,110017,1,0,0:0:0:0:
192,192,110017,1,0,0:0:0:0:
320,192,110017,1,0,0:0:0:0:
448,192,110108,1,0,0:0:0:0:
320,192,110199,1,0,0:0:0:0:
192,192,110290,1,0,0:0:0:0:
64,192,110381,1,0,0:0:0:0:
320,192,110381,1,0,0:0:0:0:
448,192,110381,1,0,0:0:0:0:
64,192,110745,1,0,0:0:0:0:
320,192,110745,1,0,0:0:0:0:
192,192,110745,1,0,0:0:0:0:
448,192,110836,1,0,0:0:0:0:
320,192,110927,1,0,0:0:0:0:
192,192,111017,1,0,0:0:0:0:
320,192,111108,1,0,0:0:0:0:
64,192,111108,1,0,0:0:0:0:
448,192,111108,1,0,0:0:0:0:
320,192,111199,1,0,0:0:0:0:
192,192,111290,1,0,0:0:0:0:
64,192,111381,1,0,0:0:0:0:
192,192,111472,1,0,0:0:0:0:
320,192,111472,1,0,0:0:0:0:
448,192,111472,1,0,0:0:0:0:
64,192,111563,1,0,0:0:0:0:
192,192,111654,1,0,0:0:0:0:
320,192,111745,1,0,0:0:0:0:
64,192,111836,1,0,0:0:0:0:
192,192,111836,1,0,0:0:0:0:
448,192,111836,1,0,0:0:0:0:
192,192,112199,1,0,0:0:0:0:
448,192,112199,1,0,0:0:0:0:
320,192,112199,1,0,0:0:0:0:
64,192,112290,1,0,0:0:0:0:
192,192,112381,1,0,0:0:0:0:
320,192,112472,1,0,0:0:0:0:
192,192,112563,1,0,0:0:0:0:
64,192,112563,1,0,0:0:0:0:
448,192,112563,1,0,0:0:0:0:
320,192,112654,1,0,0:0:0:0:
448,192,112745,1,0,0:0:0:0:
192,192,112836,1,0,0:0:0:0:
64,192,112927,1,0,0:0:0:0:
320,192,112927,1,0,0:0:0:0:
448,192,112927,1,0,0:0:0:0:
192,192,113017,1,0,0:0:0:0:
320,192,113108,1,0,0:0:0:0:
448,192,113199,1,0,0:0:0:0:
320,192,113290,1,0,0:0:0:0:
192,192,113290,1,0,0:0:0:0:
64,192,113290,1,0,0:0:0:0:
64,192,113654,1,0,0:0:0:0:
448,192,113654,1,0,0:0:0:0:
320,192,113654,1,0,0:0:0:0:
192,192,113745,1,0,0:0:0:0:
320,192,113836,1,0,0:0:0:0:
448,192,113927,1,0,0:0:0:0:
192,192,114017,1,0,0:0:0:0:
320,192,114017,1,0,0:0:0:0:
64,192,114017,1,0,0:0:0:0:
64,192,114108,1,0,0:0:0:0:
192,192,114199,1,0,0:0:0:0:
320,192,114290,1,0,0:0:0:0:
64,192,114381,1,0,0:0:0:0:
192,192,114381,1,0,0:0:0:0:
448,192,114381,1,0,0:0:0:0:
64,192,114563,1,0,0:0:0:0:
192,192,114563,1,0,0:0:0:0:
320,192,114563,1,0,0:0:0:0:
64,192,114745,1,0,0:0:0:0:
320,192,114745,1,0,0:0:0:0:
448,192,114745,1,0,0:0:0:0:
192,192,114927,1,0,0:0:0:0:
320,192,114927,1,0,0:0:0:0:
448,192,114927,1,0,0:0:0:0:
64,192,115108,1,0,0:0:0:0:
192,192,115108,1,0,0:0:0:0:
448,192,115108,1,0,0:0:0:0:
64,192,115290,1,0,0:0:0:0:
192,192,115290,1,0,0:0:0:0:
320,192,115290,1,0,0:0:0:0:
448,192,115381,1,0,0:0:0:0:
320,192,115472,1,0,0:0:0:0:
192,192,115472,1,0,0:0:0:0:
64,192,115472,1,0,0:0:0:0:
64,192,115654,1,0,0:0:0:0:
320,192,115654,1,0,0:0:0:0:
448,192,115654,1,0,0:0:0:0:
320,192,115836,1,0,0:0:0:0:
64,192,115836,1,0,0:0:0:0:
448,192,115836,1,0,0:0:0:0:
192,192,116017,1,0,0:0:0:0:
320,192,116017,1,0,0:0:0:0:
448,192,116017,1,0,0:0:0:0:
448,192,116199,1,0,0:0:0:0:
64,192,116199,1,0,0:0:0:0:
192,192,116199,1,0,0:0:0:0:
64,192,116381,1,0,0:0:0:0:
320,192,116381,1,0,0:0:0:0:
192,192,116381,1,0,0:0:0:0:
320,192,116563,1,0,0:0:0:0:
64,192,116563,1,0,0:0:0:0:
448,192,116563,1,0,0:0:0:0:
448,192,116745,1,0,0:0:0:0:
320,192,116745,1,0,0:0:0:0:
192,192,116745,1,0,0:0:0:0:
64,192,116836,1,0,0:0:0:0:
320,192,116927,1,0,0:0:0:0:
192,192,116927,1,0,0:0:0:0:
448,192,116927,1,0,0:0:0:0:
448,192,117108,1,0,0:0:0:0:
192,192,117108,1,0,0:0:0:0:
64,192,117108,1,0,0:0:0:0:
320,192,117290,1,0,0:0:0:0:
448,192,117290,1,0,0:0:0:0:
192,192,117381,1,0,0:0:0:0:
320,192,117472,1,0,0:0:0:0:
64,192,117472,1,0,0:0:0:0:
448,192,117563,1,0,0:0:0:0:
320,192,117654,1,0,0:0:0:0:
192,192,117654,1,0,0:0:0:0:
64,192,117745,1,0,0:0:0:0:
192,192,117836,1,0,0:0:0:0:
448,192,117836,1,0,0:0:0:0:
320,192,117927,1,0,0:0:0:0:
64,192,118017,1,0,0:0:0:0:
192,192,118017,1,0,0:0:0:0:
448,192,118017,1,0,0:0:0:0:
64,192,118290,1,0,0:0:0:0:
320,192,118290,1,0,0:0:0:0:
448,192,118290,1,0,0:0:0:0:
64,192,118563,1,0,0:0:0:0:
192,192,118563,1,0,0:0:0:0:
448,192,118563,1,0,0:0:0:0:
320,192,118745,1,0,0:0:0:0:
448,192,118745,1,0,0:0:0:0:
192,192,118836,1,0,0:0:0:0:
320,192,118927,1,0,0:0:0:0:
64,192,118927,1,0,0:0:0:0:
448,192,119017,1,0,0:0:0:0:
192,192,119108,1,0,0:0:0:0:
320,192,119108,1,0,0:0:0:0:
64,192,119108,1,0,0:0:0:0:
192,192,119290,1,0,0:0:0:0:
448,192,119290,1,0,0:0:0:0:
320,192,119290,1,0,0:0:0:0:
64,192,119472,1,0,0:0:0:0:
192,192,119472,1,0,0:0:0:0:
448,192,119472,1,0,0:0:0:0:
320,192,119745,1,0,0:0:0:0:
64,192,119745,1,0,0:0:0:0:
448,192,119745,1,0,0:0:0:0:
192,192,120017,1,0,0:0:0:0:
64,192,120017,1,0,0:0:0:0:
320,192,120017,1,0,0:0:0:0:
448,192,120017,1,0,0:0:0:0:
