osu file format v14

[General]
AudioFilename: audio.mp3
AudioLeadIn: 0
PreviewTime: 35831
Countdown: 0
SampleSet: Normal
StackLeniency: 0.2
Mode: 0
LetterboxInBreaks: 0
WidescreenStoryboard: 1

[Editor]
DistanceSpacing: 1.6
BeatDivisor: 16
GridSize: 8
TimelineZoom: 3.400004

[Metadata]
Title:SHAKUNETSU Pt.2 Long Train Running
TitleUnicode:灼熱 Pt.2 Long Train Running
Artist:DJ Mass MAD Izm*
ArtistUnicode:DJ Mass MAD Izm*
Creator:Totori
Version:delete dnf
Source:beatmania IIDX 23 Copula
Tags:BROKEN SAMBA BREAK rustbell Callionet fanzhen0019
BeatmapID:1231400
BeatmapSetID:576097

[Difficulty]
HPDrainRate:1
CircleSize:5
OverallDifficulty:0
ApproachRate:10
SliderMultiplier:2.19999990463257
SliderTickRate:1

[Events]
//Background and Video events
0,0,"untitled.jpg",0,0
//Break Periods
//Storyboard Layer 0 (Background)
//Storyboard Layer 1 (Fail)
//Storyboard Layer 2 (Pass)
//Storyboard Layer 3 (Foreground)
//Storyboard Sound Samples

[TimingPoints]
927,363.636363636364,4,1,0,85,1,0
2017,-50,4,1,0,85,0,0
2381,-100,4,1,0,85,0,0
3472,-50,4,1,0,85,0,0
3836,-100,4,1,0,85,0,0
4927,-50,4,1,0,85,0,0
5287,-100,4,1,0,85,0,0
6381,-50,4,1,0,85,0,0
6745,-100,4,1,0,85,0,0
7836,-50,4,1,0,85,0,0
8199,-100,4,1,0,85,0,0
9290,-50,4,1,0,85,0,0
9654,-100,4,1,0,85,0,0
10745,-50,4,1,0,85,0,0
11472,-66.6666666666667,4,1,0,85,0,0
11836,-100,4,1,0,85,0,0
12563,-133.333333333333,4,1,0,85,0,0
18381,-100,4,1,0,85,0,0
21654,-50,4,1,0,85,0,0
22017,-100,4,1,0,85,0,0
22381,-50,4,1,0,85,0,0
22745,-100,4,1,0,85,0,0
24199,-83.3333333333333,4,1,0,85,0,0
35108,-66.6666666666667,4,1,0,85,0,0
35836,-100,4,1,0,85,0,0
52927,-50,4,1,0,85,0,0
53290,-83.3333333333333,4,1,0,85,0,0
59108,-25,4,1,1,100,0,0
59836,-100,4,1,0,60,0,0
62017,-25,4,1,1,100,0,0
62745,-100,4,1,0,60,0,0
64927,-25,4,1,1,100,0,0
65654,-100,4,1,0,60,0,0
67836,-25,4,1,1,85,0,0
68563,-100,4,1,0,60,0,0
73290,-25,4,1,1,100,0,0
73654,-100,4,1,0,85,0,0
96927,-83.3333333333333,4,1,0,85,0,0
108563,-66.6666666666667,4,1,0,85,0,1

[HitObjects]
16,168,927,6,0,L|48:360,3,164.999992847443
128,344,2017,2,2,L|91:128,1,219.999990463257,0|2,0:0|0:0,0:0:0:0:
496,168,2381,6,0,L|464:360,3,164.999992847443
384,344,3472,2,2,L|421:128,1,219.999990463257,0|2,0:0|0:0,0:0:0:0:
328,72,3836,6,0,B|384:16|384:16|488:40,3,164.999992847443
384,360,4927,6,2,B|312:280|312:280|192:320,1,219.999990463257,0|2,0:0|0:0,0:0:0:0:
184,72,5290,6,0,B|128:16|128:16|24:40,2,164.999992847443
256,232,6017,5,0,0:0:0:0:
288,288,6108,2,2,B|255:333|255:333|224:288,1,109.999995231628,0|0,0:0|0:0,0:0:0:0:
128,360,6381,6,0,B|200:280|200:280|320:320,1,219.999990463257,2|2,0:0|0:0,0:0:0:0:
456,288,6745,6,0,L|464:168,1,109.999995231628,4|10,0:0|0:0,0:0:0:0:
400,128,7017,2,0,P|368:120|336:136,1,54.9999976158142
200,120,7199,1,10,0:0:0:0:
328,136,7290,1,0,0:0:0:0:
192,104,7381,1,0,0:0:0:0:
360,112,7472,2,0,P|416:88|512:120,1,164.999992847443,10|10,0:0|0:0,0:0:0:0:
496,32,7836,6,0,P|480:112|360:112,1,219.999990463257
56,288,8199,6,0,L|48:168,1,109.999995231628,0|10,0:0|0:0,0:0:0:0:
112,128,8471,2,0,P|144:120|176:136,1,54.9999976158142
312,120,8653,1,10,0:0:0:0:
184,136,8744,1,0,0:0:0:0:
320,104,8835,1,0,0:0:0:0:
152,112,8926,2,0,P|96:88|0:120,1,164.999992847443,10|10,0:0|0:0,0:0:0:0:
16,32,9290,6,0,P|32:112|152:112,1,219.999990463257
256,216,9654,6,0,L|256:336,1,109.999995231628,0|10,0:0|0:0,0:0:0:0:
256,381,9927,2,0,L|256:317,1,54.9999976158142
392,200,10108,1,10,0:0:0:0:
344,328,10199,1,0,0:0:0:0:
168,328,10290,1,0,0:0:0:0:
120,200,10381,2,0,L|144:32,1,164.999992847443,10|10,0:0|0:0,0:0:0:0:
0,168,10745,6,0,B|112:184|112:184|192:112,1,219.999990463257
256,352,11108,5,0,0:0:0:0:
256,192,11245,12,0,11290,0:0:0:0:
256,192,11313,12,6,11472,0:0:0:0:
256,192,11495,12,0,11654,0:0:0:0:
368,36,11836,6,0,L|392:200,2,164.999992847443,4|4|4,0:0|0:0|0:0,0:0:0:0:
184,64,12563,6,0,L|160:72,1,20.6249998927116,4|0,0:0|2:0,0:0:0:0:
64,120,12654,2,0,L|96:128,1,20.6249998927116,2|0,0:2|2:0,0:0:0:0:
312,184,12745,6,0,P|304:192|304:208,1,20.6249998927116,2|0,0:2|2:0,0:0:0:0:
256,256,12836,2,0,L|256:288,1,20.6249998927116,2|0,0:2|2:0,0:0:0:0:
200,184,12927,2,0,P|208:192|208:208,1,20.6249998927116,0|0,0:0|2:0,0:0:0:0:
256,104,13017,2,0,L|256:136,1,20.6249998927116,0|0,0:0|2:0,0:0:0:0:
328,64,13108,6,0,L|352:72,1,20.6249998927116,0|0,0:0|2:0,0:0:0:0:
448,120,13199,2,0,L|416:128,1,20.6249998927116,0|0,0:0|2:0,0:0:0:0:
504,32,13290,5,0,0:0:0:0:
256,344,13472,1,0,0:0:0:0:
256,344,13563,1,8,0:0:0:0:
16,264,13745,1,0,0:0:0:0:
16,264,13836,1,8,0:0:0:0:
408,200,14017,6,0,L|400:128,1,61.8749996781349,0|0,0:0|2:0,0:0:0:0:
104,296,14199,6,0,L|128:312,1,20.6249998927116,2|0,0:2|2:0,0:0:0:0:
72,368,14290,2,0,L|104:384,1,20.6249998927116,2|0,0:2|2:0,0:0:0:0:
256,344,14381,2,0,L|256:320,1,20.6249998927116,2|0,0:2|2:0,0:0:0:0:
440,368,14563,6,0,L|421:377,1,20.6249998927116,0|0,0:0|2:0,0:0:0:0:
408,296,14654,2,0,L|390:307,1,20.6249998927116,0|0,0:0|2:0,0:0:0:0:
104,200,14745,2,0,L|120:72,2,123.74999935627,0|8|8,0:0|0:0|0:0,0:0:0:0:
8,32,15472,6,0,P|0:80|16:96,1,61.8749996781349,0|0,0:0|2:0,0:0:0:0:
168,176,15654,2,0,L|200:184,1,20.6249998927116,2|0,0:2|2:0,0:0:0:0:
224,104,15745,2,0,L|248:104,1,20.6249998927116,2|0,0:2|2:0,0:0:0:0:
256,16,15836,1,0,0:0:0:0:
256,16,16017,1,0,0:0:0:0:
8,32,16199,5,0,0:0:0:0:
256,344,16381,1,0,0:0:0:0:
256,344,16472,1,8,0:0:0:0:
496,264,16654,1,0,0:0:0:0:
496,264,16745,1,8,0:0:0:0:
504,88,16927,6,0,P|514:60|502:32,1,61.8749996781349,0|0,0:0|2:0,0:0:0:0:
267,104,17108,2,0,L|288:104,1,20.6249998927116,2|0,0:2|2:0,0:0:0:0:
323,181,17199,2,0,L|344:176,1,20.6249998927116,2|0,0:2|2:0,0:0:0:0:
400,248,17290,2,0,L|472:200,1,82.4999995708466
112,248,17654,6,0,L|0:176,2,123.74999935627,0|8|8,0:0|0:0|0:0,0:0:0:0:
320,352,18381,5,12,0:0:0:0:
512,352,18563,1,0,0:0:0:0:
320,272,18745,1,8,0:0:0:0:
512,272,18927,1,0,0:0:0:0:
320,192,19108,2,0,L|464:192,1,137.499994039536,8|0,0:0|2:0,0:0:0:0:
512,112,19381,2,0,L|368:112,1,137.499994039536,8|0,0:0|2:0,0:0:0:0:
256,64,19654,1,8,0:0:0:0:
192,352,19836,5,8,0:0:0:0:
0,352,20018,1,0,0:0:0:0:
192,272,20200,1,8,0:0:0:0:
0,272,20382,1,0,0:0:0:0:
192,192,20563,2,0,L|40:192,1,137.499994039536,8|0,0:0|2:0,0:0:0:0:
0,112,20836,2,0,L|144:112,1,137.499994039536,8|0,0:0|2:0,0:0:0:0:
256,64,21109,1,8,0:0:0:0:
416,352,21290,6,0,L|456:336,1,36.6666650772095,6|0,0:0|2:0,0:0:0:0:
360,264,21411,2,0,L|400:264,1,36.6666650772095,2|0,0:0|2:0,0:0:0:0:
464,192,21533,2,0,L|512:208,1,36.6666650772095,2|0,0:0|2:0,0:0:0:0:
256,192,21631,12,6,21654,0:0:0:0:
96,352,22017,6,0,L|56:336,1,36.6666650772095,6|0,0:0|2:0,0:0:0:0:
152,264,22138,2,0,L|112:264,1,36.6666650772095,2|0,0:0|2:0,0:0:0:0:
48,192,22260,2,0,L|0:208,1,36.6666650772095,2|0,0:0|2:0,0:0:0:0:
256,192,22358,12,6,22381,0:0:0:0:
376,48,22745,6,0,L|424:64,1,36.6666650772095,6|0,0:0|2:0,0:0:0:0:
443,189,22866,2,0,L|408:176,1,36.6666650772095,2|0,0:0|2:0,0:0:0:0:
160,112,22987,6,0,L|200:120,1,36.6666650772095,2|0,0:0|2:0,0:0:0:0:
352,112,23108,2,0,L|312:120,1,36.6666650772095,6|0,0:0|2:0,0:0:0:0:
136,48,23230,6,0,L|88:64,1,36.6666650772095,2|0,0:0|2:0,0:0:0:0:
70,189,23351,2,0,L|104:176,1,36.6666650772095,2|0,0:0|2:0,0:0:0:0:
256,192,23427,12,0,23472,0:0:0:0:
256,192,23502,12,6,23593,0:0:0:0:
256,192,23623,12,6,23714,0:0:0:0:
256,192,23745,12,6,23836,0:0:0:0:
56,312,24199,6,0,L|200:296,1,131.999990249634,4|2,0:0|0:0,0:0:0:0:
56,312,24563,2,2,L|200:296,1,131.999990249634,0|2,0:0|0:0,0:0:0:0:
24,232,24927,6,0,L|48:200,1,32.9999975624085,0|0,0:0|2:0,0:0:0:0:
128,176,25017,2,0,L|128:136,1,32.9999975624085,2|0,0:2|2:0,0:0:0:0:
184,224,25108,2,0,L|208:192,1,32.9999975624085,2|0,0:2|2:0,0:0:0:0:
288,168,25199,2,0,L|288:128,1,32.9999975624085,0|0,0:0|2:0,0:0:0:0:
336,64,25290,6,0,P|350:75|368:80,1,32.9999975624085,2|0,0:2|2:0,0:0:0:0:
472,112,25381,2,0,P|457:100|440:96,1,32.9999975624085,2|0,0:2|2:0,0:0:0:0:
344,80,25472,6,0,P|358:91|376:96,1,32.9999975624085,0|0,0:0|2:0,0:0:0:0:
480,128,25563,2,0,P|465:116|448:112,1,32.9999975624085,0|0,0:0|2:0,0:0:0:0:
400,160,25654,6,2,L|416:296,1,131.999990249634,0|0,0:0|0:0,0:0:0:0:
424,368,25927,1,0,0:0:0:0:
304,328,26017,6,0,L|304:256,1,65.9999951248171,2|0,0:0|2:0,0:0:0:0:
208,328,26199,2,0,L|208:280,1,32.9999975624085,2|0,0:0|2:0,0:0:0:0:
112,160,26381,5,0,0:0:0:0:
304,121,26563,2,0,L|304:88,1,32.9999975624085,2|0,0:0|2:0,0:0:0:0:
208,121,26745,2,2,B|208:80|208:80|96:56|96:56|72:104,1,197.999985374451,0|0,0:0|2:0,0:0:0:0:
112,160,27108,6,0,L|96:296,1,131.999990249634,2|0,0:0|0:0,0:0:0:0:
112,160,27472,2,2,L|96:296,1,131.999990249634,0|2,0:0|0:0,0:0:0:0:
224,135,27836,6,0,L|224:168,1,32.9999975624085,2|0,0:2|2:0,0:0:0:0:
308,197,27926,2,0,L|328:224,1,32.9999975624085,2|0,0:2|2:0,0:0:0:0:
384,143,28017,2,0,L|384:176,1,32.9999975624085,2|0,0:2|2:0,0:0:0:0:
468,205,28107,2,0,L|488:232,1,32.9999975624085,0|0,0:0|2:0,0:0:0:0:
456,312,28199,6,0,P|440:328|416:336,1,32.9999975624085,2|0,0:2|2:0,0:0:0:0:
296,336,28290,2,0,P|310:344|321:356,1,32.9999975624085,2|0,0:2|2:0,0:0:0:0:
432,304,28381,6,0,P|416:320|392:328,1,32.9999975624085,0|0,0:0|2:0,0:0:0:0:
272,328,28472,2,0,P|286:336|297:348,1,32.9999975624085,0|0,0:0|2:0,0:0:0:0:
88,368,28563,6,0,L|103:236,1,131.999990249634,2|2,0:0|0:0,0:0:0:0:
60,112,28927,6,0,P|44:117|32:128,1,32.9999975624085,2|0,0:2|2:0,0:0:0:0:
139,95,29018,2,0,P|155:90|168:80,1,32.9999975624085,2|0,0:2|2:0,0:0:0:0:
68,96,29109,6,0,P|52:101|40:112,1,32.9999975624085,2|0,0:2|2:0,0:0:0:0:
147,79,29200,2,0,P|163:74|176:64,1,32.9999975624085,0|0,0:0|2:0,0:0:0:0:
152,168,29290,6,0,L|192:176,1,32.9999975624085,0|0,0:0|2:0,0:0:0:0:
360,168,29381,2,0,L|320:176,1,32.9999975624085,0|0,0:0|2:0,0:0:0:0:
256,296,29472,1,2,0:0:0:0:
256,192,29495,8,6,29654,0:0:0:0:
368,240,30017,6,0,L|352:376,1,131.999990249634,2|0,0:0|0:0,0:0:0:0:
144,240,30381,2,2,L|160:376,1,131.999990249634,0|2,0:0|0:0,0:0:0:0:
200,136,30745,6,0,P|168:152|144:152,1,32.9999975624085,0|0,0:0|2:0,0:0:0:0:
56,184,30836,2,0,P|42:174|27:168,1,32.9999975624085,2|0,0:2|2:0,0:0:0:0:
232,224,30927,6,0,P|200:240|176:240,1,32.9999975624085,2|0,0:2|2:0,0:0:0:0:
88,272,31018,2,0,P|74:262|59:256,1,32.9999975624085,0|0,0:0|2:0,0:0:0:0:
452,256,31108,6,0,P|437:262|424:272,1,32.9999975624085,2|0,0:2|2:0,0:0:0:0:
308,239,31199,2,0,P|293:233|280:224,1,32.9999975624085,2|0,0:2|2:0,0:0:0:0:
484,168,31290,6,0,P|469:174|456:184,1,32.9999975624085,0|0,0:0|2:0,0:0:0:0:
340,151,31381,2,0,P|325:145|312:136,1,32.9999975624085,2|0,0:2|2:0,0:0:0:0:
256,48,31472,6,0,P|240:48|216:40,1,32.9999975624085,2|0,0:2|2:0,0:0:0:0:
352,24,31563,2,0,P|336:24|312:16,1,32.9999975624085,2|0,0:2|2:0,0:0:0:0:
399,96,31654,2,0,P|383:95|367:91,1,32.9999975624085,0|0,0:0|2:0,0:0:0:0:
495,72,31745,2,0,P|479:71|463:67,1,32.9999975624085,2|0,0:2|2:0,0:0:0:0:
484,168,31836,6,2,P|488:243|480:320,1,131.999990249634,0|2,0:0|0:0,0:0:0:0:
28,299,32199,6,2,P|23:233|28:168,1,131.999990249634,0|0,0:0|0:0,0:0:0:0:
112,96,32472,2,0,P|128:95|144:91,1,32.9999975624085,0|0,0:0|2:0,0:0:0:0:
16,72,32563,2,0,P|32:71|48:67,1,32.9999975624085,2|0,0:0|2:0,0:0:0:0:
160,24,32745,2,0,P|176:23|192:19,1,32.9999975624085,2|0,0:0|2:0,0:0:0:0:
304,296,32927,6,0,L|296:368,1,65.9999951248171,2|0,0:0|2:0,0:0:0:0:
208,296,33108,2,2,L|216:368,1,65.9999951248171,0|0,0:0|2:0,0:0:0:0:
16,240,33290,6,0,L|40:264,1,32.9999975624085,2|0,0:2|2:0,0:0:0:0:
120,216,33381,2,0,L|120:256,1,32.9999975624085,0|0,0:0|2:0,0:0:0:0:
216,176,33472,2,0,L|216:128,1,32.9999975624085,2|0,0:2|2:0,0:0:0:0:
304,72,33563,2,0,L|288:32,1,32.9999975624085,2|0,0:2|2:0,0:0:0:0:
220,41,33654,6,0,L|208:72,1,32.9999975624085,2|0,0:2|2:0,0:0:0:0:
296,143,33745,2,0,L|296:176,1,32.9999975624085,0|0,0:0|2:0,0:0:0:0:
392,249,33836,2,0,L|392:216,1,32.9999975624085,2|0,0:0|2:0,0:0:0:0:
472,264,33927,2,0,L|496:240,1,32.9999975624085,0|0,0:0|2:0,0:0:0:0:
464,136,34017,6,2,P|400:120|368:144,1,98.9999926872256,0|0,0:0|2:0,0:0:0:0:
136,135,34199,2,2,P|92:116|48:136,1,98.9999926872256,0|0,0:0|2:0,0:0:0:0:
168,296,34381,6,2,P|256:360|344:296,1,230.99998293686,0|0,0:0|2:0,0:0:0:0:
416,192,34745,6,0,P|408:200|392:240,1,32.9999975624085,2|0,0:2|2:0,0:0:0:0:
304,216,34836,2,0,L|296:264,1,32.9999975624085,0|0,0:0|2:0,0:0:0:0:
208,216,34927,2,0,L|213:248,1,32.9999975624085,0|0,0:0|2:0,0:0:0:0:
96,192,35018,2,0,P|107:204|115:218,1,32.9999975624085,0|0,0:0|2:0,0:0:0:0:
48,136,35108,6,0,P|88:80|184:128,1,164.999999141693,6|0,0:0|2:0,0:0:0:0:
464,136,35381,2,2,P|414:76|340:101,1,164.999999141693,4|0,0:0|2:0,0:0:0:0:
256,192,35654,6,0,L|256:248,1,41.2499997854233,4|0,0:0|2:0,0:0:0:0:
256,192,35722,12,0,35813,0:0:0:0:
88,352,35836,6,2,P|128:328|48:328,1,219.999990463257,6|0,0:0|2:0,0:0:0:0:
43,313,36199,6,2,P|120:272|192:368,1,219.999990463257,2|0,0:0|2:0,0:0:0:0:
192,360,36563,6,0,P|222:351|230:351,1,27.4999988079071,0|0,0:0|2:0,0:0:0:0:
320,360,36654,2,0,P|289:351|281:351,1,27.4999988079071,2|0,0:2|2:0,0:0:0:0:
64,240,36745,6,0,P|94:231|102:231,1,27.4999988079071,2|0,0:2|2:0,0:0:0:0:
192,240,36836,2,0,P|161:231|153:231,1,27.4999988079071,2|0,0:2|2:0,0:0:0:0:
449,240,36927,6,0,P|436:234|422:231,1,27.4999988079071,2|0,0:2|2:0,0:0:0:0:
320,240,37017,2,0,P|332:234|346:231,1,27.4999988079071,2|0,0:2|2:0,0:0:0:0:
256,264,37108,6,0,L|256:291,1,27.4999988079071,0|0,0:0|2:0,0:0:0:0:
318,360,37290,6,2,P|374:275|468:313,1,219.999990463257,2|0,0:0|2:0,0:0:0:0:
468,313,37654,6,2,P|394:272|424:352,1,219.999990463257,2|0,0:0|2:0,0:0:0:0:
424,352,38017,6,0,L|416:320,1,27.4999988079071,0|0,0:0|2:0,0:0:0:0:
456,240,38108,6,0,L|464:200,1,27.4999988079071,2|0,0:2|2:0,0:0:0:0:
368,136,38199,2,0,L|362:162,1,27.4999988079071,2|0,0:2|2:0,0:0:0:0:
256,88,38290,2,0,L|256:128,1,27.4999988079071,2|0,0:2|2:0,0:0:0:0:
144,136,38381,2,0,L|149:162,1,27.4999988079071,2|0,0:2|2:0,0:0:0:0:
56,240,38472,2,0,L|50:213,1,27.4999988079071,2|0,0:2|2:0,0:0:0:0:
88,352,38563,6,0,L|94:325,1,27.4999988079071,0|0,0:0|2:0,0:0:0:0:
96,32,38745,6,2,P|24:32|96:88,1,219.999990463257,2|0,0:0|2:0,0:0:0:0:
91,92,39108,6,2,P|168:152|256:88,1,219.999990463257,2|0,0:0|2:0,0:0:0:0:
255,88,39472,6,0,L|256:40,1,27.4999988079071,0|0,0:0|2:0,0:0:0:0:
336,64,39563,2,0,L|344:24,1,27.4999988079071,2|0,0:2|2:0,0:0:0:0:
176,64,39654,2,0,L|168:24,1,27.4999988079071,2|0,0:2|2:0,0:0:0:0:
96,208,39745,6,0,L|64:224,1,27.4999988079071,2|0,0:2|2:0,0:0:0:0:
176,264,39836,2,0,L|216:272,1,27.4999988079071,2|0,0:2|2:0,0:0:0:0:
336,264,39927,2,0,L|309:269,1,27.4999988079071,2|0,0:2|2:0,0:0:0:0:
416,208,40018,2,0,L|440:220,1,27.4999988079071,0|0,0:0|2:0,0:0:0:0:
256,88,40199,6,2,P|336:152|420:92,1,219.999990463257,0|0,0:0|2:0,0:0:0:0:
419,92,40563,6,2,P|497:57|416:32,1,219.999990463257,2|0,0:0|2:0,0:0:0:0:
416,32,40927,6,0,L|376:40,1,27.4999988079071,0|0,0:0|2:0,0:0:0:0:
336,96,41017,2,0,L|328:128,1,27.4999988079071,2|0,0:2|2:0,0:0:0:0:
304,216,41108,2,0,L|296:248,1,27.4999988079071,2|0,0:2|2:0,0:0:0:0:
214,242,41199,6,0,L|208:216,1,27.4999988079071,2|0,0:2|2:0,0:0:0:0:
182,122,41290,2,0,L|176:96,1,27.4999988079071,2|0,0:2|2:0,0:0:0:0:
122,37,41380,2,0,L|96:32,1,27.4999988079071,2|0,0:2|2:0,0:0:0:0:
16,96,41472,6,0,P|32:128|48:136,1,54.9999976158142,0|0,0:0|2:0,0:0:0:0:
16,96,41654,6,0,P|8:192|64:312,1,219.999990463257,2|0,0:0|2:0,0:0:0:0:
56,303,42017,6,2,P|144:304|144:192,1,219.999990463257,2|0,0:0|2:0,0:0:0:0:
146,194,42381,6,0,L|104:200,1,27.4999988079071,0|0,0:0|2:0,0:0:0:0:
176,112,42472,2,0,L|133:117,1,27.4999988079071,2|0,0:2|2:0,0:0:0:0:
136,32,42563,2,0,L|93:37,1,27.4999988079071,2|0,0:2|2:0,0:0:0:0:
256,96,42654,6,0,L|256:128,1,27.4999988079071,2|0,0:2|2:0,0:0:0:0:
365,194,42745,6,0,L|408:200,1,27.4999988079071,2|0,0:2|2:0,0:0:0:0:
336,112,42836,2,0,L|378:117,1,27.4999988079071,2|0,0:2|2:0,0:0:0:0:
376,32,42927,2,0,L|418:37,1,27.4999988079071,2|0,0:2|2:0,0:0:0:0:
365,194,43108,6,2,P|356:293|455:303,1,219.999990463257,0|0,0:0|2:0,0:0:0:0:
455,303,43472,6,2,P|501:204|496:96,1,219.999990463257,2|0,0:0|2:0,0:0:0:0:
496,96,43836,6,0,L|448:96,1,27.4999988079071,0|0,0:0|2:0,0:0:0:0:
392,144,43927,2,0,L|343:143,1,27.4999988079071,2|0,0:2|2:0,0:0:0:0:
328,48,44017,2,0,L|279:47,1,27.4999988079071,2|0,0:2|2:0,0:0:0:0:
270,153,44108,6,0,L|230:153,1,27.4999988079071,2|0,0:2|2:0,0:0:0:0:
211,47,44199,6,0,L|184:48,1,27.4999988079071,2|0,0:2|2:0,0:0:0:0:
147,143,44290,2,0,L|120:144,1,27.4999988079071,2|0,0:2|2:0,0:0:0:0:
43,96,44380,2,0,L|15:96,1,27.4999988079071,0|0,0:0|2:0,0:0:0:0:
175,310,44563,6,0,P|255:355|256:264,1,219.999990463257,2|0,0:0|2:0,0:0:0:0:
256,264,44927,6,2,P|232:232|336:224,1,219.999990463257,2|0,0:0|2:0,0:0:0:0:
336,217,45290,6,0,L|384:240,1,27.4999988079071,0|0,0:0|2:0,0:0:0:0:
400,144,45381,2,0,L|432:152,1,27.4999988079071,2|0,0:2|2:0,0:0:0:0:
448,56,45472,2,0,L|488:56,1,27.4999988079071,2|0,0:2|2:0,0:0:0:0:
175,217,45563,6,0,L|128:240,1,27.4999988079071,2|0,0:2|2:0,0:0:0:0:
112,144,45654,2,0,L|80:152,1,27.4999988079071,2|0,0:2|2:0,0:0:0:0:
64,56,45745,2,0,L|24:56,1,27.4999988079071,2|0,0:2|2:0,0:0:0:0:
256,280,45836,6,0,L|256:320,1,27.4999988079071,0|0,0:0|2:0,0:0:0:0:
16,352,46017,5,6,0:0:0:0:
496,352,46199,1,0,0:0:0:0:
16,192,46381,5,0,0:0:0:0:
496,192,46563,1,0,0:0:0:0:
16,32,46745,5,0,0:0:0:0:
496,32,46927,1,0,0:0:0:0:
256,192,46972,12,6,47108,0:0:0:0:
256,192,47381,12,2,47472,0:0:0:0:
256,192,47495,12,2,47563,0:0:0:0:
256,192,47586,12,2,47654,0:0:0:0:
256,192,47677,12,2,47836,0:0:0:0:
256,192,47858,12,2,47927,0:0:0:0:
256,192,47949,12,2,48017,0:0:0:0:
256,192,48040,12,2,48108,0:0:0:0:
256,192,48131,12,2,48199,0:0:0:0:
256,192,48222,12,2,48381,0:0:0:0:
256,192,48404,12,2,48472,0:0:0:0:
256,192,48495,12,2,48563,0:0:0:0:
256,192,48586,12,2,48927,0:0:0:0:
256,192,48949,12,2,49108,0:0:0:0:
256,192,49131,12,2,49199,0:0:0:0:
256,192,49222,12,2,49381,0:0:0:0:
256,192,49404,12,2,49472,0:0:0:0:
256,192,49495,12,2,49563,0:0:0:0:
256,192,49586,12,2,49654,0:0:0:0:
256,192,49677,12,2,49836,0:0:0:0:
256,192,49858,12,2,50017,0:0:0:0:
256,192,50040,12,2,50381,0:0:0:0:
256,192,50404,12,2,50563,0:0:0:0:
256,192,50586,12,2,50654,0:0:0:0:
256,192,50677,12,2,50836,0:0:0:0:
256,192,50858,12,2,50927,0:0:0:0:
256,192,50949,12,2,51017,0:0:0:0:
256,192,51040,12,2,51108,0:0:0:0:
256,192,51131,12,2,51290,0:0:0:0:
256,192,51313,12,2,51381,0:0:0:0:
256,192,51404,12,2,51472,0:0:0:0:
256,192,51495,12,2,51836,0:0:0:0:
256,192,51858,12,2,51927,0:0:0:0:
256,192,51949,12,2,52017,0:0:0:0:
256,192,52040,12,2,52108,0:0:0:0:
256,192,52131,12,2,52199,0:0:0:0:
256,192,52222,12,2,52381,0:0:0:0:
256,192,52404,12,2,52472,0:0:0:0:
256,192,52495,12,2,52563,0:0:0:0:
256,192,52586,12,2,52745,0:0:0:0:
304,192,52927,6,2,P|256:271|208:192,1,219.999990463257,6|0,0:0|2:0,0:0:0:0:
256,192,53245,12,2,53290,0:0:0:0:
256,192,53313,12,2,53472,0:0:0:0:
256,192,53495,12,2,53654,0:0:0:0:
256,192,53677,12,2,53836,0:0:0:0:
256,192,53858,12,2,53927,0:0:0:0:
256,192,53949,12,2,54017,0:0:0:0:
256,192,54040,12,2,54199,0:0:0:0:
256,192,54222,12,2,54381,0:0:0:0:
256,192,54404,12,2,54745,0:0:0:0:
256,192,54767,12,2,54836,0:0:0:0:
256,192,54858,12,2,54927,0:0:0:0:
256,192,54949,12,2,55017,0:0:0:0:
256,192,55040,12,2,55108,0:0:0:0:
256,192,55131,12,2,55199,0:0:0:0:
256,192,55222,12,2,55290,0:0:0:0:
256,192,55313,12,2,55381,0:0:0:0:
256,192,55404,12,2,55472,0:0:0:0:
256,192,55495,12,2,55654,0:0:0:0:
256,192,55677,12,2,55745,0:0:0:0:
256,192,55767,12,2,55836,0:0:0:0:
256,192,55858,12,2,56199,0:0:0:0:
256,192,56222,12,2,56290,0:0:0:0:
256,192,56313,12,2,56381,0:0:0:0:
256,192,56404,12,2,56563,0:0:0:0:
256,192,56586,12,2,56654,0:0:0:0:
256,192,56677,12,2,56745,0:0:0:0:
256,192,56767,12,2,56836,0:0:0:0:
256,192,56858,12,2,56927,0:0:0:0:
256,192,56949,12,2,57108,0:0:0:0:
256,192,57131,12,2,57199,0:0:0:0:
256,192,57222,12,2,57290,0:0:0:0:
256,192,57313,12,2,57654,0:0:0:0:
256,192,57677,12,2,57836,0:0:0:0:
256,251,58017,6,2,L|256:120,1,131.999990249634,6|0,0:0|2:0,0:0:0:0:
256,192,58290,12,2,58381,0:0:0:0:
256,192,58404,12,2,58472,0:0:0:0:
256,192,58495,12,2,58563,0:0:0:0:
256,192,58586,12,2,58654,0:0:0:0:
256,192,58677,12,6,58745,0:0:0:0:
256,192,58767,12,0,59017,2:0:0:0:
8,312,59108,6,0,P|-309:166|8:64,1,879.999961853028,4|0,0:0|2:0,0:0:0:0:
7,64,59472,2,0,P|326:187|8:311,1,879.999961853028,0|0,0:0|2:0,0:0:0:0:
8,311,59836,6,0,L|0:272,1,27.4999988079071,0|0,0:0|2:0,0:0:0:0:
88,272,59927,2,0,L|79:232,1,27.4999988079071,0|0,0:0|2:0,0:0:0:0:
168,232,60017,2,0,L|159:192,1,27.4999988079071,0|0,0:0|2:0,0:0:0:0:
247,193,60108,2,0,L|238:153,1,27.4999988079071,0|0,0:0|2:0,0:0:0:0:
256,280,60199,2,0,P|304:312|368:304,1,109.999995231628
424,272,60472,1,0,0:0:0:0:
464,200,60563,6,0,L|448:208,1,18.3333325386047,0|0,0:0|2:0,0:0:0:0:
416,344,60623,2,0,L|432:352,1,18.3333325386047,0|0,0:0|2:0,0:0:0:0:
448,200,60684,6,0,L|432:208,1,18.3333325386047,0|0,0:0|2:0,0:0:0:0:
400,344,60744,2,0,L|416:352,1,18.3333325386047,0|0,0:0|2:0,0:0:0:0:
432,200,60805,6,0,L|416:208,1,18.3333325386047,0|0,0:0|2:0,0:0:0:0:
384,344,60865,2,0,L|400:352,1,18.3333325386047,0|0,0:0|2:0,0:0:0:0:
416,200,60927,6,0,P|368:168|304:176,1,109.999995231628
40,200,61290,6,0,L|0:192,1,27.4999988079071,0|0,0:0|2:0,0:0:0:0:
96,144,61381,2,0,L|104:104,1,27.4999988079071,0|0,0:0|2:0,0:0:0:0:
152,200,61472,2,0,L|192:208,1,27.4999988079071,0|0,0:0|2:0,0:0:0:0:
96,256,61563,2,0,L|88:296,1,27.4999988079071,0|0,0:0|2:0,0:0:0:0:
96,200,61654,6,0,P|144:168|208:176,1,109.999995231628
416,144,61927,2,0,L|408:104,1,27.4999988079071
503,64,62017,6,0,P|822:187|504:312,1,879.999961853028,4|0,0:0|2:0,0:0:0:0:
502,311,62381,2,0,P|184:187|503:64,1,879.999961853028,0|0,0:0|2:0,0:0:0:0:
502,63,62745,6,0,P|464:96|384:96,1,109.999995231628
105,102,63108,2,0,P|51:97|9:63,1,109.999995231628
88,16,63381,1,0,0:0:0:0:
184,48,63472,5,0,0:0:0:0:
192,160,63593,6,0,L|184:192,1,18.3333325386047,0|0,0:0|2:0,0:0:0:0:
320,160,63654,2,0,L|328:192,1,18.3333325386047,0|0,0:0|2:0,0:0:0:0:
160,240,63714,2,0,L|128:248,1,18.3333325386047,0|0,0:0|2:0,0:0:0:0:
352,240,63775,2,0,L|384:248,1,18.3333325386047,0|0,0:0|2:0,0:0:0:0:
80,280,63836,2,0,L|40:280,1,27.4999988079071,0|0,0:0|2:0,0:0:0:0:
432,280,64017,2,0,L|480:280,1,27.4999988079071,0|0,0:0|2:0,0:0:0:0:
424,16,64199,6,0,L|384:16,1,27.4999988079071,0|0,0:0|2:0,0:0:0:0:
328,48,64290,2,0,L|288:48,1,27.4999988079071,0|0,0:0|2:0,0:0:0:0:
88,16,64381,6,0,L|128:16,1,27.4999988079071,0|0,0:0|2:0,0:0:0:0:
184,48,64472,2,0,L|224:48,1,27.4999988079071,0|0,0:0|2:0,0:0:0:0:
406,102,64563,6,0,P|460:97|502:63,1,109.999995231628
192,0,64927,6,0,P|255:-309|320:0,1,879.999961853028,4|0,0:0|2:0,0:0:0:0:
320,0,65290,2,0,P|255:308|191:0,1,879.999961853028,0|0,0:0|2:0,0:0:0:0:
191,0,65654,6,0,L|200:48,1,27.4999988079071,0|0,0:0|2:0,0:0:0:0:
321,0,65836,2,0,L|312:48,1,27.4999988079071,0|0,0:0|2:0,0:0:0:0:
96,112,66017,6,0,L|105:160,1,27.4999988079071,0|0,0:0|2:0,0:0:0:0:
256,144,66108,2,0,L|256:184,1,27.4999988079071,0|0,0:0|2:0,0:0:0:0:
416,112,66199,2,0,L|407:160,1,27.4999988079071,0|0,0:0|2:0,0:0:0:0:
216,376,66381,5,0,0:0:0:0:
144,360,66472,1,0,0:0:0:0:
216,320,66563,1,0,0:0:0:0:
144,304,66654,1,0,0:0:0:0:
296,296,66745,5,0,0:0:0:0:
400,280,66836,1,0,0:0:0:0:
296,240,66927,1,0,0:0:0:0:
400,224,67018,1,0,0:0:0:0:
176,200,67108,5,0,0:0:0:0:
32,184,67199,1,0,0:0:0:0:
176,144,67290,1,0,0:0:0:0:
32,128,67381,1,0,0:0:0:0:
312,104,67472,5,0,0:0:0:0:
512,80,67563,1,0,0:0:0:0:
312,48,67654,1,0,0:0:0:0:
512,24,67745,1,0,0:0:0:0:
256,8,67836,6,0,B|0:8|0:8|0:376|0:376|256:376,1,879.999961853028,4|0,0:0|2:0,0:0:0:0:
256,376,68199,2,0,B|512:376|512:376|512:8|512:8|256:8,1,879.999961853028,0|0,0:0|2:0,0:0:0:0:
256,8,68563,6,0,L|256:56,1,27.4999988079071,0|0,0:0|2:0,0:0:0:0:
256,192,68745,2,0,L|255:240,1,27.4999988079071,0|0,0:0|2:0,0:0:0:0:
256,96,68927,2,0,L|255:144,1,27.4999988079071,0|0,0:0|2:0,0:0:0:0:
256,280,69109,2,0,L|255:328,1,27.4999988079071,0|0,0:0|2:0,0:0:0:0:
80,232,69290,5,0,0:0:0:0:
456,152,69472,2,0,L|440:120,1,27.4999988079071,0|0,0:0|2:0,0:0:0:0:
360,136,69563,2,0,L|344:104,1,27.4999988079071
176,208,69654,6,0,L|168:240,1,27.4999988079071,0|0,0:0|2:0,0:0:0:0:
256,280,69745,2,0,L|256:312,1,27.4999988079071,0|0,0:0|2:0,0:0:0:0:
336,208,69836,2,0,L|342:234,1,27.4999988079071,0|0,0:0|2:0,0:0:0:0:
164,111,69927,6,0,L|152:136,1,27.4999988079071,0|0,0:0|2:0,0:0:0:0:
68,127,70018,2,0,L|56:152,1,27.4999988079071,0|0,0:0|2:0,0:0:0:0:
16,216,70108,6,0,L|16:256,1,27.4999988079071,0|0,0:0|2:0,0:0:0:0:
112,280,70199,2,0,L|112:328,1,27.4999988079071,0|0,0:0|2:0,0:0:0:0:
208,344,70290,2,0,L|208:376,1,27.4999988079071,0|0,0:0|2:0,0:0:0:0:
304,344,70381,2,0,L|304:371,1,27.4999988079071,0|0,0:0|2:0,0:0:0:0:
400,280,70472,2,0,L|400:307,1,27.4999988079071,0|0,0:0|2:0,0:0:0:0:
496,216,70563,2,0,L|496:243,1,27.4999988079071,0|0,0:0|2:0,0:0:0:0:
443,127,70654,6,0,L|456:152,1,27.4999988079071,0|0,0:0|2:0,0:0:0:0:
480,56,70745,6,0,B|440:16|440:16|400:56,1,109.999995231628
344,96,71017,2,0,L|344:136,1,27.4999988079071
304,32,71108,6,0,L|304:-8,1,27.4999988079071,0|0,0:0|2:0,0:0:0:0:
256,128,71199,2,0,L|256:168,1,27.4999988079071,0|0,0:0|2:0,0:0:0:0:
208,32,71290,2,0,L|208:4,1,27.4999988079071,0|0,0:0|2:0,0:0:0:0:
168,96,71381,2,0,L|168:136,1,27.4999988079071,0|0,0:0|2:0,0:0:0:0:
109,53,71472,6,0,B|72:16|72:16|32:56,1,109.999995231628
72,120,71745,2,0,L|72:160,1,27.4999988079071
24,200,71836,6,0,L|56:216,1,27.4999988079071,0|0,0:0|2:0,0:0:0:0:
176,224,71927,2,0,L|200:256,1,27.4999988079071,0|0,0:0|2:0,0:0:0:0:
336,224,72017,6,0,L|319:246,1,27.4999988079071,0|0,0:0|2:0,0:0:0:0:
488,200,72108,2,0,L|463:212,1,27.4999988079071,0|0,0:0|2:0,0:0:0:0:
400,288,72199,5,0,0:0:0:0:
328,336,72290,1,0,0:0:0:0:
408,360,72381,2,0,L|440:360,1,27.4999988079071,0|0,0:0|2:0,0:0:0:0:
184,336,72563,2,0,L|152:336,1,27.4999988079071,0|0,0:0|2:0,0:0:0:0:
400,288,72745,2,0,L|432:288,1,27.4999988079071,0|0,0:0|2:0,0:0:0:0:
104,360,72927,2,0,L|72:360,1,27.4999988079071,0|0,0:0|2:0,0:0:0:0:
328,336,73108,2,0,L|360:336,1,27.4999988079071,0|0,0:0|2:0,0:0:0:0:
112,288,73290,6,0,B|64:288|64:288|168:280|208:144|80:88|16:184|16:184|144:144|304:208|240:360,1,659.999971389771,4|0,0:0|2:0,0:0:0:0:
256,368,73654,5,4,0:0:0:0:
448,192,74017,1,0,2:0:0:0:
448,192,74199,1,2,2:0:0:0:
448,192,74381,1,8,0:0:0:0:
448,192,74563,1,0,3:0:0:0:
448,192,74745,1,0,3:0:0:0:
448,192,74927,1,0,3:0:0:0:
360,136,75108,5,0,3:0:0:0:
360,136,75290,1,2,2:0:0:0:
360,136,75472,1,0,0:0:0:0:
304,232,75654,5,0,2:0:0:0:
208,232,75836,1,12,0:0:0:0:
152,136,76017,5,0,3:0:0:0:
152,136,76199,1,0,3:0:0:0:
208,232,76381,1,0,3:0:0:0:
64,192,76563,5,4,0:0:0:0:
96,48,76927,5,0,2:0:0:0:
96,48,77108,1,2,2:0:0:0:
256,112,77290,1,8,0:0:0:0:
200,32,77472,5,0,3:0:0:0:
200,32,77654,1,0,3:0:0:0:
256,112,77835,1,0,3:0:0:0:
312,32,78017,5,0,3:0:0:0:
256,112,78199,1,2,2:0:0:0:
200,32,78381,5,0,0:0:0:0:
200,32,78563,1,0,2:0:0:0:
256,112,78745,1,12,0:0:0:0:
416,48,78927,5,0,2:0:0:0:
416,48,79108,1,0,3:0:0:0:
416,48,79290,1,0,3:0:0:0:
480,192,79472,5,4,0:0:0:0:
304,240,79836,1,0,2:0:0:0:
304,240,80017,1,2,2:0:0:0:
416,288,80199,5,8,0:0:0:0:
256,144,80381,5,0,3:0:0:0:
256,144,80563,1,0,3:0:0:0:
256,144,80745,1,0,3:0:0:0:
208,240,80927,5,0,2:0:0:0:
304,240,81108,1,2,2:0:0:0:
208,240,81290,1,0,1:0:0:0:
304,240,81471,1,0,2:0:0:0:
96,288,81654,5,12,0:0:0:0:
256,144,81836,5,0,3:0:0:0:
256,144,82017,1,0,3:0:0:0:
96,288,82199,5,0,3:0:0:0:
32,192,82381,5,4,0:0:0:0:
256,192,82495,12,0,82517,2:0:0:0:
256,192,82540,12,0,82562,2:0:0:0:
256,192,82585,12,0,82607,2:0:0:0:
256,192,82630,12,0,82653,2:0:0:0:
256,192,82676,12,0,82698,2:0:0:0:
256,192,82721,12,0,82744,2:0:0:0:
256,192,82767,12,0,82790,2:0:0:0:
256,192,82812,12,0,82835,2:0:0:0:
256,192,82858,12,0,82881,2:0:0:0:
256,192,82903,12,0,82926,2:0:0:0:
256,192,83086,12,0,83108,2:0:0:0:
256,192,83131,12,0,83153,2:0:0:0:
256,192,83176,12,0,83198,2:0:0:0:
256,192,83221,12,0,83244,2:0:0:0:
256,192,83267,12,0,83289,2:0:0:0:
256,192,83312,12,0,83335,2:0:0:0:
256,192,83358,12,0,83381,2:0:0:0:
256,192,83403,12,0,83426,2:0:0:0:
256,192,83449,12,0,83472,2:0:0:0:
256,192,83494,12,0,83517,2:0:0:0:
256,192,83540,12,0,83562,2:0:0:0:
256,192,83585,12,0,83607,2:0:0:0:
256,192,83630,12,0,83652,2:0:0:0:
256,192,83675,12,0,83698,2:0:0:0:
256,192,83721,12,0,83743,2:0:0:0:
256,192,83766,12,0,83789,2:0:0:0:
256,192,83812,12,0,83835,2:0:0:0:
256,192,84540,12,0,84563,1:0:0:0:
256,192,84586,12,0,84609,1:0:0:0:
256,192,84632,12,0,84654,1:0:0:0:
256,192,84677,12,0,84700,1:0:0:0:
256,192,84723,12,0,84746,1:0:0:0:
256,192,84768,12,0,84791,1:0:0:0:
256,192,84814,12,0,84837,1:0:0:0:
256,192,84859,12,0,84882,1:0:0:0:
256,192,84905,12,0,84927,1:0:0:0:
256,192,84950,12,0,84973,1:0:0:0:
256,192,84995,12,0,85017,1:0:0:0:
256,192,85041,12,0,85064,1:0:0:0:
256,192,85086,12,0,85109,1:0:0:0:
256,192,85132,12,0,85155,1:0:0:0:
256,192,85177,12,0,85200,1:0:0:0:
256,192,85223,12,0,85246,1:0:0:0:
456,48,85290,5,4,0:0:0:0:
304,264,85472,1,0,0:0:0:0:
392,88,85563,1,2,0:0:0:0:
328,336,85745,1,0,0:0:0:0:
376,160,85836,1,2,0:0:0:0:
208,128,86108,6,2,P|184:80|202:29,1,109.999995231628,0|0,0:0|0:0,0:0:0:0:
309,29,86381,2,0,P|327:80|304:128,1,109.999995231628,2|2,0:0|0:0,0:0:0:0:
136,160,86745,5,2,0:0:0:0:
184,336,86927,1,0,0:0:0:0:
120,88,87018,1,2,0:0:0:0:
208,264,87199,1,0,0:0:0:0:
56,48,87290,1,2,0:0:0:0:
303,255,87563,6,2,P|327:303|309:354,1,109.999995231628,0|0,0:0|0:0,0:0:0:0:
202,354,87836,2,0,P|184:303|208:255,1,109.999995231628,2|2,0:0|0:0,0:0:0:0:
256,184,88199,5,2,0:0:0:0:
456,24,88381,1,0,0:0:0:0:
184,160,88472,1,2,0:0:0:0:
56,24,88654,1,0,0:0:0:0:
328,160,88745,1,2,0:0:0:0:
392,328,89017,6,2,P|344:328|296:280,1,109.999995231628,0|0,0:0|0:0,0:0:0:0:
212,288,89290,2,0,P|173:325|120:328,1,109.999995231628,2|2,0:0|0:0,0:0:0:0:
16,192,89654,5,2,0:0:0:0:
256,128,89836,1,0,0:0:0:0:
88,216,89926,1,2,0:0:0:0:
424,216,90108,1,0,0:0:0:0:
256,128,90199,1,2,0:0:0:0:
496,192,90381,1,0,0:0:0:0:
352,200,90472,5,2,0:0:0:0:
304,264,90563,1,0,0:0:0:0:
288,336,90654,1,0,0:0:0:0:
224,336,90745,5,2,0:0:0:0:
208,264,90836,1,0,0:0:0:0:
160,200,90927,1,2,0:0:0:0:
24,344,91108,5,6,0:0:0:0:
24,344,91381,1,2,0:0:0:0:
24,344,91654,1,2,0:0:0:0:
24,344,91927,2,2,L|144:336,1,109.999995231628,0|0,0:0|0:0,0:0:0:0:
133,336,92199,2,2,L|0:328,1,109.999995231628
480,200,92563,5,2,0:0:0:0:
480,200,92836,1,2,0:0:0:0:
480,200,93109,1,2,0:0:0:0:
480,200,93382,2,2,L|360:192,1,109.999995231628,0|0,0:0|0:0,0:0:0:0:
370,192,93654,2,2,L|503:183,1,109.999995231628
8,72,94017,5,2,0:0:0:0:
17,59,94108,1,0,0:0:0:0:
73,76,94199,1,0,0:0:0:0:
82,55,94290,1,2,0:0:0:0:
138,81,94381,1,0,0:0:0:0:
147,50,94472,1,0,0:0:0:0:
203,85,94563,1,2,0:0:0:0:
212,46,94654,1,0,0:0:0:0:
268,90,94745,1,0,0:0:0:0:
277,41,94836,1,2,0:0:0:0:
333,95,94927,1,0,0:0:0:0:
342,36,95018,1,2,0:0:0:0:
398,100,95108,1,2,0:0:0:0:
407,31,95199,1,0,0:0:0:0:
463,105,95290,1,2,0:0:0:0:
472,26,95381,1,0,0:0:0:0:
504,72,95472,5,2,0:0:0:0:
495,59,95563,1,0,0:0:0:0:
439,76,95654,1,0,0:0:0:0:
430,55,95745,1,2,0:0:0:0:
374,81,95836,1,0,0:0:0:0:
365,50,95927,1,0,0:0:0:0:
309,85,96018,1,2,0:0:0:0:
300,46,96109,1,0,0:0:0:0:
244,90,96200,1,0,0:0:0:0:
235,41,96291,1,2,0:0:0:0:
179,95,96382,1,0,0:0:0:0:
170,36,96472,1,2,0:0:0:0:
114,100,96563,1,6,0:0:0:0:
105,31,96654,1,0,0:0:0:0:
49,105,96745,1,2,0:0:0:0:
40,26,96836,1,0,0:0:0:0:
16,176,96927,6,0,P|72:224|136:208,1,131.999990249634,2|0,0:0|0:0,0:0:0:0:
320,176,97199,2,0,L|320:216,1,32.9999975624085,0|0,0:0|2:0,0:0:0:0:
80,240,97290,6,0,P|136:288|200:272,1,131.999990249634,2|0,0:0|0:0,0:0:0:0:
256,240,97562,2,0,L|256:280,1,32.9999975624085,0|0,0:0|2:0,0:0:0:0:
368,304,97654,6,0,P|328:344|256:352,1,131.999990249634,2|0,0:0|2:0,0:0:0:0:
144,304,97927,2,0,P|184:344|256:352,1,131.999990249634,2|0,0:0|0:0,0:0:0:0:
256,168,98199,1,2,0:0:0:0:
496,176,98381,6,0,P|440:224|376:208,1,131.999990249634
192,176,98653,2,0,L|192:216,1,32.9999975624085,0|0,0:0|2:0,0:0:0:0:
432,240,98744,6,2,P|376:288|312:272,1,131.999990249634,0|0,0:0|0:0,0:0:0:0:
256,240,99016,2,0,L|256:280,1,32.9999975624085,0|0,0:0|2:0,0:0:0:0:
144,304,99108,6,2,P|184:344|256:352,1,131.999990249634,0|0,0:0|2:0,0:0:0:0:
368,304,99381,2,2,P|328:344|256:352,1,131.999990249634,0|0,0:0|0:0,0:0:0:0:
256,168,99653,1,2,0:0:0:0:
0,96,99836,6,0,L|0:56,1,32.9999975624085,0|0,0:0|2:0,0:0:0:0:
64,112,99927,2,0,L|64:72,1,32.9999975624085,2|0,0:0|2:0,0:0:0:0:
128,128,100017,2,0,L|128:88,1,32.9999975624085,0|0,0:0|2:0,0:0:0:0:
192,144,100108,2,0,L|192:104,1,32.9999975624085,0|0,0:0|2:0,0:0:0:0:
24,168,100199,6,0,P|64:200|152:192,1,131.999990249634,2|0,0:0|0:0,0:0:0:0:
384,128,100472,2,0,L|384:88,1,32.9999975624085,0|0,0:0|2:0,0:0:0:0:
256,232,100563,5,2,0:0:0:0:
432,296,100745,2,0,L|408:328,1,32.9999975624085,0|0,0:0|2:0,0:0:0:0:
216,352,100836,2,0,L|176:360,1,32.9999975624085,2|0,0:0|2:0,0:0:0:0:
80,296,101017,6,0,L|104:328,1,32.9999975624085,0|0,0:0|2:0,0:0:0:0:
296,352,101108,2,0,L|336:360,1,32.9999975624085,2|0,0:0|2:0,0:0:0:0:
320,111,101290,6,0,L|320:144,1,32.9999975624085,0|0,0:0|2:0,0:0:0:0:
384,95,101381,2,0,L|384:128,1,32.9999975624085,0|0,0:0|2:0,0:0:0:0:
448,79,101471,2,0,L|448:112,1,32.9999975624085,0|0,0:0|2:0,0:0:0:0:
512,63,101562,2,0,L|512:96,1,32.9999975624085,0|0,0:0|2:0,0:0:0:0:
472,208,101654,6,0,L|424:216,1,32.9999975624085,0|0,0:0|2:0,0:0:0:0:
344,224,101745,2,0,L|328:256,1,32.9999975624085,0|0,0:0|2:0,0:0:0:0:
256,192,101836,2,0,L|256:144,1,32.9999975624085,0|0,0:0|2:0,0:0:0:0:
182,253,101927,2,0,L|168:224,1,32.9999975624085,0|0,0:0|2:0,0:0:0:0:
72,213,102017,2,0,L|40:208,1,32.9999975624085,2|0,0:0|2:0,0:0:0:0:
176,24,102199,5,0,0:0:0:0:
384,95,102290,2,0,L|384:128,1,32.9999975624085,2|0,0:0|2:0,0:0:0:0:
336,24,102472,5,0,0:0:0:0:
128,95,102563,2,0,L|128:128,1,32.9999975624085,2|0,0:0|2:0,0:0:0:0:
0,296,102745,6,0,L|40:304,1,32.9999975624085,0|0,0:0|2:0,0:0:0:0:
96,264,102836,2,0,L|136:272,1,32.9999975624085,0|0,0:0|2:0,0:0:0:0:
192,232,102927,2,0,L|232:240,1,32.9999975624085,0|0,0:0|2:0,0:0:0:0:
256,304,103017,2,0,L|296:312,1,32.9999975624085,0|0,0:0|2:0,0:0:0:0:
320,376,103108,2,0,P|384:376|440:328,1,131.999990249634,2|0,0:0|0:0,0:0:0:0:
440,168,103381,6,0,L|440:128,1,32.9999975624085,0|0,0:0|2:0,0:0:0:0:
368,208,103472,2,0,P|304:208|248:160,1,131.999990249634,2|0,0:0|0:0,0:0:0:0:
320,24,103745,6,0,P|384:24|440:72,1,131.999990249634,2|0,0:0|0:0,0:0:0:0:
248,88,104017,2,0,L|248:48,1,32.9999975624085,2|0,0:0|2:0,0:0:0:0:
512,296,104199,6,0,L|472:304,1,32.9999975624085,0|0,0:0|2:0,0:0:0:0:
416,264,104290,2,0,L|376:272,1,32.9999975624085,0|0,0:0|2:0,0:0:0:0:
320,232,104381,2,0,L|280:240,1,32.9999975624085,0|0,0:0|2:0,0:0:0:0:
256,304,104472,2,0,L|216:312,1,32.9999975624085,0|0,0:0|2:0,0:0:0:0:
192,376,104562,2,2,P|128:376|72:328,1,131.999990249634,0|0,0:0|0:0,0:0:0:0:
72,168,104835,6,0,L|72:128,1,32.9999975624085,0|0,0:0|2:0,0:0:0:0:
259,167,104926,2,2,P|208:207|144:208,1,131.999990249634,0|0,0:0|0:0,0:0:0:0:
76,64,105199,6,2,P|127:24|192:24,1,131.999990249634,0|0,0:0|0:0,0:0:0:0:
264,55,105471,2,0,L|264:88,1,32.9999975624085,0|0,0:0|2:0,0:0:0:0:
512,328,105654,6,0,L|480:360,1,32.9999975624085,0|0,0:0|2:0,0:0:0:0:
384,288,105745,2,0,L|352:320,1,32.9999975624085,0|0,0:0|2:0,0:0:0:0:
256,248,105836,2,0,L|256:296,1,32.9999975624085,0|0,0:0|2:0,0:0:0:0:
128,288,105927,2,0,L|151:311,1,32.9999975624085,0|0,0:0|2:0,0:0:0:0:
0,328,106017,2,0,P|72:360|128:336,1,131.999990249634,2|0,0:0|0:0,0:0:0:0:
360,311,106290,2,0,L|384:288,1,32.9999975624085,0|0,0:0|2:0,0:0:0:0:
336,200,106381,6,0,P|352:160|344:72,1,131.999990249634,2|0,0:0|0:0,0:0:0:0:
167,73,106654,2,0,P|156:137|176:200,1,131.999990249634,2|0,0:0|0:0,0:0:0:0:
128,288,106927,2,0,L|151:311,1,32.9999975624085,2|0,0:0|2:0,0:0:0:0:
376,368,107108,5,0,0:0:0:0:
488,336,107199,1,0,0:0:0:0:
352,304,107290,1,0,0:0:0:0:
464,272,107381,1,0,0:0:0:0:
256,272,107472,5,2,0:0:0:0:
400,224,107563,1,0,0:0:0:0:
232,208,107654,1,0,0:0:0:0:
376,160,107745,1,0,0:0:0:0:
96,184,107836,5,2,0:0:0:0:
304,120,107927,1,0,0:0:0:0:
72,120,108018,1,0,0:0:0:0:
280,56,108109,1,2,0:0:0:0:
0,360,108199,5,12,0:0:0:0:
256,192,108245,12,0,108517,2:0:0:0:
48,296,108563,6,2,L|224:312,1,164.999999141693,4|2,0:0|0:0,0:0:0:0:
512,96,108927,2,0,L|464:96,1,41.2499997854233,0|0,0:0|2:0,0:0:0:0:
496,168,109017,2,0,L|448:168,1,41.2499997854233,2|0,0:0|2:0,0:0:0:0:
512,240,109108,2,0,L|464:240,1,41.2499997854233,2|0,0:0|2:0,0:0:0:0:
496,312,109198,2,0,L|448:312,1,41.2499997854233,0|0,0:0|2:0,0:0:0:0:
384,200,109290,6,2,P|320:176|224:232,1,164.999999141693,0|0,0:0|0:0,0:0:0:0:
144,240,109563,2,0,P|208:216|304:272,1,164.999999141693,2|0,0:0|0:0,0:0:0:0:
256,368,109836,1,2,0:0:0:0:
256,192,109987,12,2,110017,0:0:0:0:
256,192,110048,12,2,110078,0:0:0:0:
256,192,110108,12,2,110139,0:0:0:0:
256,192,110169,12,2,110199,0:0:0:0:
256,192,110230,12,2,110290,0:0:0:0:
256,192,110313,12,2,110381,0:0:0:0:
256,192,110404,12,2,110563,0:0:0:0:
256,192,110586,12,2,110654,0:0:0:0:
256,192,110677,12,2,110745,0:0:0:0:
256,192,110767,12,2,110927,0:0:0:0:
256,192,110949,12,2,111017,0:0:0:0:
256,192,111040,12,2,111199,0:0:0:0:
256,192,111222,12,2,111290,0:0:0:0:
0,96,111472,6,0,L|48:96,1,41.2499997854233,0|0,0:0|2:0,0:0:0:0:
16,168,111562,2,0,L|64:168,1,41.2499997854233,2|0,0:0|2:0,0:0:0:0:
0,240,111654,2,0,L|48:240,1,41.2499997854233,2|0,0:0|2:0,0:0:0:0:
16,312,111743,2,0,L|64:312,1,41.2499997854233,0|0,0:0|2:0,0:0:0:0:
120,272,111836,6,0,L|176:272,1,41.2499997854233,2|0,0:0|2:0,0:0:0:0:
232,192,111927,2,0,L|232:248,1,41.2499997854233,0|0,0:0|2:0,0:0:0:0:
312,304,112017,2,0,L|256:304,1,41.2499997854233,0|0,0:0|2:0,0:0:0:0:
200,384,112108,2,0,L|200:328,1,41.2499997854233,2|0,0:0|2:0,0:0:0:0:
312,232,112199,6,0,P|392:192|472:216,1,164.999999141693,2|0,0:0|0:0,0:0:0:0:
176,112,112472,2,2,P|96:72|16:96,1,164.999999141693,0|0,0:0|0:0,0:0:0:0:
256,0,112745,1,2,0:0:0:0:
256,192,112904,12,2,112927,0:0:0:0:
256,192,112949,12,2,113017,0:0:0:0:
256,192,113040,12,2,113108,0:0:0:0:
256,192,113131,12,2,113199,0:0:0:0:
256,192,113222,12,2,113245,0:0:0:0:
256,192,113267,12,2,113290,0:0:0:0:
256,192,113313,12,2,113381,0:0:0:0:
256,192,113404,12,2,113472,0:0:0:0:
256,192,113495,12,2,113563,0:0:0:0:
256,192,113586,12,2,113654,0:0:0:0:
256,192,113677,12,2,113836,0:0:0:0:
256,192,113858,12,2,113927,0:0:0:0:
256,192,113949,12,2,114108,0:0:0:0:
256,192,114131,12,2,114199,0:0:0:0:
472,320,114381,6,0,L|432:336,1,41.2499997854233,4|0,0:0|2:0,0:0:0:0:
392,272,114472,2,0,L|352:288,1,41.2499997854233,0|0,0:0|2:0,0:0:0:0:
352,360,114563,2,0,L|312:376,1,41.2499997854233,0|0,0:0|2:0,0:0:0:0:
272,312,114654,2,0,L|232:328,1,41.2499997854233,0|0,0:0|2:0,0:0:0:0:
256,232,114745,6,0,L|216:248,1,41.2499997854233,0|0,0:0|2:0,0:0:0:0:
176,184,114836,2,0,L|136:200,1,41.2499997854233,2|0,0:0|2:0,0:0:0:0:
136,272,114927,2,0,L|96:288,1,41.2499997854233,0|0,0:0|2:0,0:0:0:0:
56,224,115017,2,0,L|16:240,1,41.2499997854233,0|0,0:0|2:0,0:0:0:0:
256,192,115086,12,2,115108,0:0:0:0:
256,192,115131,12,2,115290,0:0:0:0:
256,192,115313,12,2,115381,0:0:0:0:
256,192,115404,12,2,115563,0:0:0:0:
256,192,115586,12,2,115654,0:0:0:0:
16,88,115836,6,2,L|184:88,1,164.999999141693,0|0,0:0|0:0,0:0:0:0:
256,24,116108,2,0,L|304:24,1,41.2499997854233,2|0,0:0|2:0,0:0:0:0:
408,24,116199,2,0,L|456:24,1,41.2499997854233,0|0,0:0|2:0,0:0:0:0:
328,88,116290,2,0,L|384:88,1,41.2499997854233,2|0,0:0|2:0,0:0:0:0:
256,152,116381,2,0,L|304:152,1,41.2499997854233,2|0,0:0|2:0,0:0:0:0:
408,152,116472,2,0,L|456:152,1,41.2499997854233
256,192,116540,12,2,116563,0:0:0:0:
256,192,116586,12,2,116745,0:0:0:0:
256,192,116767,12,2,116836,0:0:0:0:
256,192,116858,12,2,117017,0:0:0:0:
256,192,117040,12,2,117108,0:0:0:0:
216,320,117290,5,2,0:0:0:0:
296,320,117381,1,0,0:0:0:0:
216,320,117472,1,0,0:0:0:0:
296,320,117563,1,0,0:0:0:0:
216,320,117654,1,0,0:0:0:0:
296,320,117745,1,0,0:0:0:0:
216,320,117836,1,2,0:0:0:0:
296,320,117927,1,0,0:0:0:0:
256,192,117995,12,2,118017,0:0:0:0:
256,192,118040,12,2,118108,0:0:0:0:
256,192,118131,12,2,118290,0:0:0:0:
256,192,118313,12,2,118381,0:0:0:0:
256,192,118404,12,2,118563,0:0:0:0:
173,192,118745,5,0,0:0:0:0:
338,192,118836,1,2,0:0:0:0:
173,192,118927,1,0,0:0:0:0:
338,192,119018,1,2,0:0:0:0:
173,192,119108,2,2,L|349:192,1,164.999999141693,0|2,0:0|0:0,0:0:0:0:
256,192,119449,12,4,119471,0:0:0:0:
256,192,119495,12,4,119745,0:0:0:0:
256,192,119767,12,14,120017,0:0:0:0:
