osu file format v14

[General]
AudioFilename: cao.mp3
AudioLeadIn: 2000
PreviewTime: 34682
Countdown: 0
SampleSet: Normal
StackLeniency: 0.7
Mode: 0
LetterboxInBreaks: 1
UseSkinSprites: 1
WidescreenStoryboard: 0

[Editor]
DistanceSpacing: 1.2
BeatDivisor: 4
GridSize: 4
TimelineZoom: 1.5

[Metadata]
Title:Red. by Full Metal Jacket
TitleUnicode:Red. by Full Metal Jacket
Artist:DJ Mass MAD Izm*
ArtistUnicode:DJ Mass MAD Izm*
Creator:fanzhen0019
Version:Hard
Source:beatmania IIDX 17 SIRIUS
Tags:iidx17 spinner spam tech breakbeats yangzd88 Curisu LKs BakaHuang Axey bemani
BeatmapID:230131
BeatmapSetID:60264

[Difficulty]
HPDrainRate:7
CircleSize:4
OverallDifficulty:6
ApproachRate:9
SliderMultiplier:1.6
SliderTickRate:1

[Events]
//Background and Video events
0,0,"6966122.jpg",0,0
//Break Periods
//Storyboard Layer 0 (Background)
//Storyboard Layer 1 (Fail)
//Storyboard Layer 2 (Pass)
//Storyboard Layer 3 (Foreground)
//Storyboard Layer 4 (Overlay)
//Storyboard Sound Samples

[TimingPoints]
410,379.746835443038,4,1,0,60,1,0
13701,-200,4,1,0,60,0,0
14080,-100,4,1,0,60,0,0
35346,-100,4,1,0,60,0,1
47498,-66.6666666666667,4,1,0,60,0,1
47878,-100,4,1,0,60,0,1
59270,-100,4,1,0,60,0,0
75220,-100,4,1,0,60,0,0
85473,-100,4,1,1,60,0,1
94587,-100,4,1,1,60,0,0
100663,-100,4,1,0,60,0,0

[Colours]
Combo1 : 255,128,192
Combo2 : 235,245,20
Combo3 : 245,95,25
Combo4 : 110,245,20
Combo5 : 25,200,250
Combo6 : 135,20,240
Combo7 : 0,128,255

[HitObjects]
256,192,410,12,12,3068,0:0:0:0:
64,64,3447,6,0,L|48:160,1,80
240,144,4017,1,0,0:0:0:0:
192,224,4207,2,0,L|176:320,2,80,0|0|8,0:0|0:0|0:0,0:0:0:0:
288,64,4966,6,0,L|368:64,1,80
432,240,5536,1,0,0:0:0:0:
432,240,5726,2,0,L|352:240,1,80
224,160,6106,2,0,P|192:208|224:272,1,120,8|0,0:0|0:0,0:0:0:0:
256,288,6485,6,0,L|224:368,1,80
432,240,7055,1,0,0:0:0:0:
365,170,7245,2,0,L|333:250,1,80
407,331,7625,2,0,L|492:318,1,80,8|0,0:0|0:0,0:0:0:0:
480,160,8004,5,0,0:0:0:0:
464,144,8099,1,0,0:0:0:0:
448,128,8194,1,0,0:0:0:0:
432,112,8289,1,0,0:0:0:0:
416,96,8384,1,8,0:0:0:0:
288,32,8574,2,0,B|240:32|240:32|208:64,1,80
80,144,8954,2,0,B|128:144|128:144|160:112,1,80,0|8,0:0|0:0,0:0:0:0:
48,80,9334,1,0,0:0:0:0:
64,112,9428,1,0,0:0:0:0:
80,144,9523,6,0,L|80:224,1,80,0|0,0:0|0:0,0:0:0:0:
160,32,10094,1,0,0:0:0:0:
192,96,10283,2,0,L|192:176,2,80,0|0|8,0:0|0:0|0:0,0:0:0:0:
176,64,10758,2,0,L|256:64,1,80,0|8,0:0|0:0,0:0:0:0:
288,64,11042,6,0,L|320:144,1,80
432,288,11612,1,0,0:0:0:0:
432,288,11802,2,0,L|464:368,1,80,0|8,0:0|0:0,0:0:0:0:
496,240,12182,2,0,P|432:248|376:240,1,120,8|8,0:0|0:0,0:0:0:0:
352,224,12561,6,0,L|272:240,1,80
128,352,13131,1,0,0:0:0:0:
128,352,13321,2,0,L|206:336,1,80
32,240,13701,2,0,L|80:256,1,40,8|0,0:0|0:0,0:0:0:0:
144,192,14080,5,0,0:0:0:0:
161,181,14175,1,0,0:0:0:0:
178,170,14270,1,0,0:0:0:0:
195,160,14365,1,0,0:0:0:0:
212,150,14460,1,8,0:0:0:0:
128,96,14650,2,0,L|48:112,1,80,8|0,0:0|0:0,0:0:0:0:
288,208,15030,1,8,0:0:0:0:
288,208,15220,2,0,B|320:192|320:192|368:208|368:208|400:192,1,120,8|0,0:0|0:0,0:0:0:0:
464,160,15599,6,0,L|448:80,1,80
256,112,16169,1,0,0:0:0:0:
256,112,16359,2,0,L|240:32,1,80,0|0,0:0|0:0,0:0:0:0:
160,96,16739,1,8,0:0:0:0:
136,104,16834,1,0,0:0:0:0:
112,112,16928,1,0,0:0:0:0:
88,120,17023,1,0,0:0:0:0:
48,144,17118,6,0,L|96:208,1,80
256,112,17688,1,0,0:0:0:0:
320,176,17878,2,0,L|368:240,1,80,0|8,0:0|0:0,0:0:0:0:
336,336,18258,2,0,L|400:320,3,40,8|0|0|0,0:0|0:0|0:0|0:0,0:0:0:0:
441,278,18637,5,0,0:0:0:0:
256,240,18922,1,0,0:0:0:0:
71,278,19207,1,0,0:0:0:0:
126,131,19397,21,0,0:0:0:0:
256,158,19682,1,0,0:0:0:0:
385,131,19967,1,0,0:0:0:0:
352,64,20156,69,0,0:0:0:0:
256,48,20441,1,2,0:0:0:0:
160,64,20726,1,2,0:0:0:0:
208,144,20916,22,0,P|256:176|304:144,2,120,2|2|2,0:0|0:0|0:0,0:0:0:0:
160,64,21675,6,0,L|0:96,1,160,4|8,0:0|0:0,0:0:0:0:
112,192,22340,1,0,0:0:0:0:
112,192,22435,2,0,L|48:256,1,80
176,272,22815,2,0,L|160:352,1,80,8|0,0:0|0:0,0:0:0:0:
256,320,23194,6,0,L|416:320,3,160,0|8|0|8,0:0|0:0|0:0|0:0,0:0:0:0:
352,64,24713,6,0,L|512:96,1,160,0|8,0:0|0:0,0:0:0:0:
400,192,25378,1,0,0:0:0:0:
400,192,25473,2,0,L|464:256,1,80
336,272,25853,2,0,L|352:352,1,80,8|0,0:0|0:0,0:0:0:0:
256,336,26232,6,0,P|192:368|112:336,2,160,0|8|0,0:0|0:0|0:0,0:0:0:0:
96,224,27372,2,0,L|128:176,1,40,8|0,0:0|0:0,0:0:0:0:
112,48,27751,6,0,L|272:64,1,160,0|8,0:0|0:0,0:0:0:0:
96,144,28416,1,0,0:0:0:0:
96,144,28511,2,0,L|168:178,2,80,0|0|8,0:0|0:0|0:0,0:0:0:0:
32,224,29080,5,0,0:0:0:0:
32,224,29175,1,0,0:0:0:0:
32,224,29270,2,0,P|32:320|96:336,1,160,0|8,0:0|0:0,0:0:0:0:
256,256,30030,2,0,L|352:256,1,80
416,304,30410,1,8,0:0:0:0:
464,224,30599,1,0,0:0:0:0:
448,192,30694,1,0,0:0:0:0:
432,160,30789,6,0,P|464:80|432:16,1,160,0|8,0:0|0:0,0:0:0:0:
257,113,31549,2,0,P|225:193|257:257,1,160,0|8,0:0|0:0,0:0:0:0:
336,288,32118,1,0,0:0:0:0:
384,304,32213,1,0,0:0:0:0:
432,320,32308,5,0,0:0:0:0:
256,256,32593,1,6,0:2:0:0:
80,320,32878,1,0,0:0:0:0:
112,224,33068,5,0,0:0:0:0:
256,176,33353,1,6,0:2:0:0:
400,224,33638,1,0,0:0:0:0:
368,128,33827,5,0,0:0:0:0:
256,96,34112,1,6,0:2:0:0:
144,128,34397,1,0,0:0:0:0:
416,208,34777,5,12,0:0:0:0:
96,208,35156,1,0,0:0:0:0:
176,256,35346,5,6,0:0:0:0:
96,304,35536,2,0,L|32:320,6,40,0|0|8|0|0|0|0,0:0|0:0|0:0|0:0|0:0|0:0|0:0,0:0:0:0:
57,198,36296,2,0,L|96:208,3,40,0|0|8|0,0:0|0:0|0:0|0:0,0:0:0:0:
139,188,36675,1,0,0:0:0:0:
192,112,36865,6,0,L|208:64,3,40
224,32,37245,1,8,0:0:0:0:
304,128,37435,2,0,L|320:176,3,40
327,191,37815,1,0,0:0:0:0:
338,216,37910,1,0,0:0:0:0:
348,241,38004,2,0,B|390:252|390:252|439:245,1,80,8|0,0:0|0:0,0:0:0:0:
480,112,38384,6,0,L|432:144,4,40,0|0|0|0|8,0:0|0:0|0:0|0:0|0:0,0:0:0:0:
352,80,38954,2,0,L|318:57,5,40
304,48,39523,2,0,L|260:124,1,80,0|0,0:0|0:0,0:0:0:0:
192,48,39903,6,0,L|160:96,3,40
96,64,40283,2,0,L|64:112,3,40,8|0|0|0,0:0|0:0|0:0|0:0,0:0:0:0:
57,120,40663,1,0,0:0:0:0:
57,120,40853,1,0,0:0:0:0:
96,208,41042,2,0,L|64:256,2,40,8|0|0,0:0|0:0|0:0,0:0:0:0:
192,176,41422,5,0,0:0:0:0:
144,304,41612,1,0,0:0:0:0:
224,256,41802,2,0,L|256:289,3,40,8|0|0|0,0:0|0:0|0:0|0:0,0:0:0:0:
288,288,42182,6,0,L|336:272,3,40
360,264,42561,1,8,0:0:0:0:
364,276,42656,1,0,0:0:0:0:
368,288,42751,1,0,0:0:0:0:
448,312,42941,6,0,L|472:224,1,80
496,136,43321,1,8,0:0:0:0:
440,48,43511,2,0,L|432:0,2,40
400,144,43891,2,0,L|320:144,1,80,0|8,0:0|0:0,0:0:0:0:
248,80,44270,1,0,0:0:0:0:
248,80,44460,5,0,0:0:0:0:
224,88,44555,1,0,0:0:0:0:
200,96,44650,1,0,0:0:0:0:
80,136,44840,2,0,L|88:176,4,40,8|0|0|0|0,0:0|0:0|0:0|0:0|0:0,0:0:0:0:
208,224,45410,2,0,L|200:264,4,40,0|0|8|0|0,0:0|0:0|0:0|0:0|0:0,0:0:0:0:
104,312,45979,5,0,0:0:0:0:
104,312,46074,1,0,0:0:0:0:
104,312,46169,1,8,0:0:0:0:
216,336,46359,2,0,L|256:344,1,40,8|0,0:0|0:0,0:0:0:0:
288,320,46549,2,0,L|328:312,1,40
360,336,46739,6,0,L|496:336,2,120,8|8|8,0:0|0:0|0:0,0:0:0:0:
296,232,47498,6,0,P|296:160|336:128,2,120.000004577637,6|0|8,0:0|0:0|0:0,0:0:0:0:
432,208,48068,6,0,L|448:256,4,40,0|0|2|0|0,0:0|0:0|0:0|0:0|0:0,0:0:0:0:
400,120,48637,1,8,0:0:0:0:
296,232,48827,6,0,L|312:280,4,40,2|0|2|0|0,0:0|0:0|0:0|0:0|0:0,0:0:0:0:
264,144,49396,1,8,0:0:0:0:
168,256,49587,6,0,L|184:304,4,40,2|0|0|0|2,0:0|0:0|0:0|0:0|0:0,0:0:0:0:
136,168,50156,1,8,0:0:0:0:
136,168,50346,1,2,0:0:0:0:
104,80,50536,6,0,L|48:88,3,40,2|0|2|0,0:0|0:0|0:0|0:0,0:0:0:0:
40,104,50916,2,0,P|32:144|56:184,1,80,8|2,0:0|0:0,0:0:0:0:
136,168,51296,1,2,0:0:0:0:
256,224,51485,2,0,L|248:312,1,80,0|8,0:0|0:0,0:0:0:0:
249,303,51865,1,2,0:0:0:0:
408,304,52055,6,0,L|464:296,3,40,2|0|2|0,0:0|0:0|0:0|0:0,0:0:0:0:
472,280,52435,2,0,P|480:240|456:200,1,80,8|2,0:0|0:0,0:0:0:0:
352,168,52815,6,0,L|408:160,3,40,2|0|0|0,0:0|0:0|0:0|0:0,0:0:0:0:
416,144,53195,2,0,P|424:104|400:64,1,80,8|2,0:0|0:0,0:0:0:0:
296,44,53574,6,0,L|248:40,2,40,2|0|0,0:0|0:0|0:0,0:0:0:0:
232,116,53954,2,0,P|184:124|148:108,1,80,8|2,0:0|0:0,0:0:0:0:
144,100,54239,1,0,0:0:0:0:
136,88,54334,2,0,L|144:48,4,40,2|0|0|0|8,0:0|0:0|0:0|0:0|0:0,0:0:0:0:
40,100,54903,1,2,0:0:0:0:
40,100,54998,1,0,0:0:0:0:
40,100,55093,6,0,L|48:184,2,80,2|0|8,0:0|0:0|0:0,0:0:0:0:
136,200,55663,1,2,0:0:0:0:
136,200,55758,1,0,0:0:0:0:
136,200,55853,6,0,L|128:284,2,80,2|0|8,0:0|0:0|0:0,0:0:0:0:
136,200,56422,1,2,0:0:0:0:
264,172,56612,6,0,L|312:164,4,40,2|0|2|0|8,0:0|0:0|0:0|0:0|0:0,0:0:0:0:
276,76,57182,1,2,0:0:0:0:
364,40,57372,2,0,P|400:48|432:84,1,80,2|0,0:0|0:0,0:0:0:0:
456,172,57751,2,0,L|448:260,1,80,8|2,0:0|0:0,0:0:0:0:
436,348,58131,6,0,L|352:360,1,80,2|0,0:0|0:0,0:0:0:0:
300,304,58511,2,0,L|216:316,1,80,4|0,0:0|0:0,0:0:0:0:
164,256,58891,1,0,0:0:0:0:
84,268,59080,1,0,0:0:0:0:
4,280,59270,1,0,0:0:0:0:
256,192,59365,12,12,60789,0:2:0:0:
344,232,61169,5,4,0:0:0:0:
428,276,61359,2,0,L|424:316,2,40,0|0|8,0:0|0:0|0:0,0:0:0:0:
344,232,61739,1,0,0:0:0:0:
316,136,61928,6,0,P|324:92|312:48,1,80
195,58,62308,2,0,P|187:97|196:136,1,80,8|0,0:0|0:0,0:0:0:0:
256,212,62688,5,0,0:0:0:0:
256,308,62878,2,0,L|256:352,2,40,0|0|8,0:0|0:0|0:0,0:0:0:0:
256,212,63258,1,0,0:0:0:0:
316,136,63447,5,0,0:0:0:0:
256,60,63637,1,0,0:0:0:0:
195,135,63827,1,8,0:0:0:0:
84,276,64207,6,0,L|88:316,4,40,0|0|0|0|8,0:0|0:0|0:0|0:0|0:0,0:0:0:0:
168,232,64777,1,0,0:0:0:0:
196,136,64966,6,0,P|188:92|200:48,1,80
316,58,65346,2,0,P|324:97|316:136,1,80,8|0,0:0|0:0,0:0:0:0:
256,212,65726,5,0,0:0:0:0:
256,308,65916,2,0,L|256:352,2,40,0|0|8,0:0|0:0|0:0,0:0:0:0:
256,212,66296,1,0,0:0:0:0:
196,136,66485,5,0,0:0:0:0:
256,60,66675,1,0,0:0:0:0:
316,136,66865,1,8,0:0:0:0:
472,256,67245,6,0,L|420:248,3,40,0|0|0|0,0:0|0:0|0:0|0:0,0:0:0:0:
416,260,67625,2,0,P|368:268|328:248,1,80,8|0,0:0|0:0,0:0:0:0:
256,212,68004,1,0,0:0:0:0:
256,308,68194,1,0,0:0:0:0:
256,212,68384,1,8,0:0:0:0:
40,256,68764,6,0,L|92:248,3,40,0|0|0|0,0:0|0:0|0:0|0:0,0:0:0:0:
96,260,69144,2,0,P|144:268|184:248,1,80,8|0,0:0|0:0,0:0:0:0:
256,212,69523,1,0,0:0:0:0:
256,308,69713,1,0,0:0:0:0:
256,212,69903,1,8,0:0:0:0:
188,32,70283,6,0,L|180:80,4,40,0|0|0|0|8,0:0|0:0|0:0|0:0|0:0,0:0:0:0:
324,32,70853,2,0,L|332:80,4,40,0|0|0|0|0,0:0|0:0|0:0|0:0|0:0,0:0:0:0:
256,100,71422,2,0,L|256:184,1,80,8|0,0:0|0:0,0:0:0:0:
256,180,71802,5,2,0:0:0:0:
336,232,71992,2,0,L|364:204,2,40,0|0|10,0:0|0:0|0:0,0:0:0:0:
256,340,72372,2,0,L|256:380,2,40,0|0|2,0:0|0:0|0:0,0:0:0:0:
176,232,72751,2,0,L|148:204,2,40,0|0|10,0:0|0:0|0:0,0:0:0:0:
344,328,73321,5,4,0:0:0:0:
440,320,73511,1,0,0:0:0:0:
432,224,73701,1,8,0:0:0:0:
336,232,73891,1,0,0:0:0:0:
344,328,74080,1,0,0:0:0:0:
440,320,74270,1,0,0:0:0:0:
432,224,74460,2,0,L|424:96,1,120,8|0,0:0|0:0,0:0:0:0:
412,80,74840,6,0,P|368:72|328:96,1,80
292,164,75220,2,0,P|256:149|220:164,1,80,8|0,0:0|0:0,0:0:0:0:
174,86,75599,2,0,P|138:71|100:80,1,80
100,79,75979,2,0,L|90:208,1,120,8|0,0:0|0:0,0:0:0:0:
88,228,76359,5,0,0:0:0:0:
168,284,76549,1,0,0:0:0:0:
80,320,76739,1,8,0:0:0:0:
88,228,76928,1,0,0:0:0:0:
176,192,77118,1,0,0:0:0:0:
256,244,77308,1,0,0:0:0:0:
256,244,77498,6,0,L|256:332,1,80,8|0,0:0|0:0,0:0:0:0:
344,284,77878,1,0,0:0:0:0:
336,192,78068,1,0,0:0:0:0:
424,228,78258,1,8,0:0:0:0:
432,320,78447,1,0,0:0:0:0:
344,284,78637,5,0,0:0:0:0:
336,192,78827,1,8,0:0:0:0:
256,244,79017,2,0,L|256:368,1,120,8|0,0:0|0:0,0:0:0:0:
236,376,79397,6,0,P|192:384|160:368,1,80,0|0,0:0|0:0,0:0:0:0:
88,244,79777,2,0,P|44:236|12:252,1,80,8|0,0:0|0:0,0:0:0:0:
13,250,80156,1,0,0:0:0:0:
48,160,80346,2,0,L|44:104,2,40,0|0|8,0:0|0:0|0:0,0:0:0:0:
144,152,80726,1,0,0:0:0:0:
200,76,80916,6,0,P|164:60|112:64,1,80,0|0,0:0|0:0,0:0:0:0:
256,152,81296,1,8,0:0:0:0:
256,240,81485,2,0,L|256:284,2,40,0|0|0,0:0|0:0|0:0,0:0:0:0:
256,152,81865,1,8,0:0:0:0:
312,76,82055,2,0,P|348:60|400:64,1,80,8|8,0:0|0:0,0:0:0:0:
472,108,82435,6,0,P|484:144|480:188,2,80,0|0|8,0:0|0:0|0:0,0:0:0:0:
376,176,83004,2,0,P|368:216|376:260,2,80,0|0|8,0:0|0:0|0:0,0:0:0:0:
256,152,83574,1,0,0:0:0:0:
136,176,83764,1,8,0:0:0:0:
136,176,83859,1,8,0:0:0:0:
136,176,83954,2,0,P|144:216|136:260,2,80,0|0|8,0:0|0:0|0:0,0:0:0:0:
40,108,84524,2,0,P|28:144|32:188,2,80,0|0|8,0:0|0:0|0:0,0:0:0:0:
148,64,85093,6,0,P|192:96|264:68,1,120,12|0,0:2|2:0,0:0:0:0:
288,56,85473,6,0,L|372:52,1,80,6|2,0:0|0:0,0:0:0:0:
367,52,85853,1,8,0:0:0:0:
404,132,86042,2,0,B|293:139|293:139|340:172,1,160,2|2,0:0|0:0,0:0:0:0:
408,216,86612,2,0,L|488:212,1,80,8|2,0:0|0:0,0:0:0:0:
408,360,86992,6,0,L|368:284,1,80,2|2,0:0|0:0,0:0:0:0:
328,212,87372,1,8,0:0:0:0:
216,288,87561,2,0,B|256:357|256:357|296:288,1,160,2|2,0:0|0:0,0:0:0:0:
141,289,88131,2,0,L|104:360,1,80,0|2,0:0|0:0,0:0:0:0:
184,212,88511,5,2,0:0:0:0:
104,216,88701,2,0,L|24:212,1,80,2|8,0:0|0:0,0:0:0:0:
108,132,89080,2,0,B|219:139|219:139|172:172,1,160,2|2,0:0|0:0,0:0:0:0:
144,52,89650,2,0,L|224:56,1,80,8|2,0:0|0:0,0:0:0:0:
224,56,90030,5,2,0:0:0:0:
324,100,90220,2,0,P|348:132|348:176,1,80,2|8,0:0|0:0,0:0:0:0:
284,228,90599,2,0,B|252:196|256:154|256:154|260:196|228:228,1,160,2|2,0:0|0:0,0:0:0:0:
162,170,91169,2,0,P|164:131|188:100,1,80,8|2,0:0|0:0,0:0:0:0:
288,56,91549,6,0,L|392:52,2,80,2|2|8,0:0|0:0|0:0,0:0:0:0:
416,124,92118,2,0,P|408:180|328:248,1,160,2|2,0:0|0:0,0:0:0:0:
256,216,92688,2,0,L|256:128,1,80,8|2,0:0|0:0,0:0:0:0:
224,56,93068,6,0,L|120:52,2,80,2|2|8,0:0|0:0|0:0,0:0:0:0:
96,124,93637,2,0,P|104:180|184:248,1,160,2|2,0:0|0:0,0:0:0:0:
256,216,94207,6,0,P|272:168|184:172,1,160,4|4,0:0|0:2,0:0:0:0:
322,158,94966,1,0,0:0:0:0:
456,156,95346,6,0,P|440:212|432:288,2,120,8|0|8,0:0|0:0|0:0,0:0:0:0:
388,112,96106,5,0,0:0:0:0:
256,112,96485,1,0,0:0:0:0:
124,112,96865,6,0,P|140:168|148:244,2,120,8|0|8,0:0|0:0|0:0,0:0:0:0:
172,48,97625,5,0,0:0:0:0:
340,48,98004,1,0,0:0:0:0:
256,184,98384,2,0,L|256:320,2,120,8|0|8,0:0|0:0|0:0,0:0:0:0:
256,100,99144,6,0,L|176:128,1,80
256,100,99523,2,0,L|336:128,1,80
180,126,99903,2,0,L|60:132,1,120,8|8,0:0|0:0,0:0:0:0:
40,148,100283,6,0,L|24:60,1,80,12|0,0:2|0:0,0:0:0:0:
128,220,100663,6,0,L|44:228,1,80,4|0,0:0|0:0,0:0:0:0:
60,336,101042,2,0,L|144:328,1,80,8|0,0:0|0:0,0:0:0:0:
136,224,101422,6,0,L|52:232,1,80
68,340,101802,2,0,L|152:332,1,80,8|0,0:0|0:0,0:0:0:0:
236,272,102182,6,0,L|232:228,4,40,0|0|8|8|8,0:0|0:0|0:0|0:0|0:0,0:0:0:0:
244,356,102751,1,0,0:0:0:0:
312,304,102941,5,12,0:0:0:0:
296,116,103226,1,12,0:0:0:0:
384,220,103511,1,12,0:0:0:0:
384,220,103701,6,0,L|468:228,1,80,4|0,0:0|0:0,0:0:0:0:
452,336,104080,2,0,L|368:328,1,80,8|0,0:0|0:0,0:0:0:0:
376,224,104460,6,0,L|460:232,1,80
444,340,104840,2,0,L|360:332,1,80,8|0,0:0|0:0,0:0:0:0:
276,272,105220,5,4,0:2:0:0:
248,188,105410,2,0,L|236:148,6,40,0|8|8|0|8|8|0,0:0|0:0|0:0|0:0|0:0|0:0|0:0,0:0:0:0:
180,252,106169,6,0,B|84:276|112:216|16:240,1,160,4|0,0:2|0:0,0:0:0:0:
25,237,106644,1,0,0:0:0:0:
25,237,106739,6,0,L|32:320,2,80,4|2|10,0:0|0:0|0:0,0:0:0:0:
80,160,107308,1,0,0:0:0:0:
172,136,107498,2,0,L|165:56,1,80,2|2,0:0|0:0,0:0:0:0:
80,160,107878,2,0,P|100:200|136:216,1,80,8|0,0:0|0:0,0:0:0:0:
228,224,108258,6,0,L|308:224,1,80,0|2,0:0|0:0,0:0:0:0:
280,368,108637,2,0,L|200:368,1,80,10|0,0:0|0:0,0:0:0:0:
116,296,109017,5,4,0:0:0:0:
256,296,109302,1,4,0:0:0:0:
396,296,109587,1,4,0:0:0:0:
486,237,109777,6,0,L|480:320,2,80,4|2|10,0:0|0:0|0:0,0:0:0:0:
432,160,110346,1,0,0:0:0:0:
340,136,110536,2,0,L|346:56,1,80,2|2,0:0|0:0,0:0:0:0:
432,160,110916,2,0,P|412:200|376:216,1,80,8|0,0:0|0:0,0:0:0:0:
256,192,111296,6,0,L|256:108,1,80,4|0,0:0|0:0,0:0:0:0:
256,112,111580,1,0,0:0:0:0:
256,112,111675,1,0,0:0:0:0:
256,16,111865,1,8,0:0:0:0:
165,56,112055,2,0,L|172:136,1,80,0|8,0:0|0:0,0:0:0:0:
340,136,112435,2,0,L|346:56,1,80,2|8,0:0|0:0,0:0:0:0:
436,96,112815,6,0,L|488:92,4,40,6|0|0|0|10,0:0|0:0|0:0|0:0|0:0,0:0:0:0:
420,192,113384,1,0,0:0:0:0:
340,136,113574,2,0,P|336:64|368:16,2,120,6|6|6,0:0|0:0|0:0,0:0:0:0:
332,232,114334,5,0,0:0:0:0:
256,288,114523,1,0,0:0:0:0:
180,232,114713,1,8,0:0:0:0:
256,288,114903,1,0,0:0:0:0:
256,96,115283,6,0,P|208:32|120:36,1,160,4|0,0:2|0:0,0:0:0:0:
76,96,115853,6,0,L|24:92,4,40,2|0|0|0|10,0:0|0:0|0:0|0:0|0:0,0:0:0:0:
92,192,116422,1,0,0:0:0:0:
172,136,116612,2,0,P|176:64|144:16,2,120,2|2|2,0:0|0:0|0:0,0:0:0:0:
256,196,117372,5,4,0:0:0:0:
256,292,117561,1,0,0:0:0:0:
256,292,117656,1,0,0:0:0:0:
256,292,117751,2,0,L|256:376,1,80,8|0,0:0|0:0,0:0:0:0:
352,360,118131,5,4,0:0:0:0:
256,196,118416,1,4,0:0:0:0:
160,360,118701,1,12,0:2:0:0:
