osu file format v14

[General]
AudioFilename: cao.mp3
AudioLeadIn: 2000
PreviewTime: 34682
Countdown: 0
SampleSet: Normal
StackLeniency: 0.7
Mode: 0
LetterboxInBreaks: 1
UseSkinSprites: 1
WidescreenStoryboard: 1

[Editor]
DistanceSpacing: 1.2
BeatDivisor: 4
GridSize: 8
TimelineZoom: 1.5

[Metadata]
Title:Red. by Full Metal Jacket
TitleUnicode:Red. by Full Metal Jacket
Artist:DJ Mass MAD Izm*
ArtistUnicode:DJ Mass MAD Izm*
Creator:fanzhen0019
Version:Beginner
Source:beatmania IIDX 17 SIRIUS
Tags:iidx17 spinner spam tech breakbeats yangzd88 Curisu LKs BakaHuang Axey bemani
BeatmapID:2397027
BeatmapSetID:60264

[Difficulty]
HPDrainRate:3
CircleSize:3
OverallDifficulty:3
ApproachRate:5
SliderMultiplier:0.8
SliderTickRate:1

[Events]
//Background and Video events
0,0,"6966122.jpg",0,0
//Break Periods
//Storyboard Layer 0 (Background)
//Storyboard Layer 1 (Fail)
//Storyboard Layer 2 (Pass)
//Storyboard Layer 3 (Foreground)
//Storyboard Layer 4 (Overlay)
//Storyboard Sound Samples

[TimingPoints]
410,379.746835443038,4,1,0,60,1,0
35346,-100,4,1,0,60,0,1
59270,-100,4,1,0,60,0,0
75220,-100,4,1,0,60,0,0
85473,-100,4,1,1,60,0,1
94587,-100,4,1,1,60,0,0
100663,-100,4,1,0,60,0,0

[Colours]
Combo1 : 255,128,192
Combo2 : 235,245,20
Combo3 : 245,95,25
Combo4 : 110,245,20
Combo5 : 25,200,250
Combo6 : 135,20,240
Combo7 : 0,128,255

[HitObjects]
84,144,410,6,0,B|64:64|64:64|140:78|140:78|208:36,1,240
304,36,1928,2,0,B|371:78|371:78|448:64|448:64|428:144,1,240,0|12,0:0|0:0,0:0:0:0:
460,236,3447,6,0,L|296:252,1,160
256,168,4587,1,8,0:0:0:0:
211,251,4966,2,0,L|52:236,1,160
72,44,6485,6,0,B|104:120|104:120|176:80,1,160
256,40,7625,1,8,0:0:0:0:
340,82,8004,2,0,B|408:120|408:120|440:44,1,160
456,232,9523,5,0,0:0:0:0:
424,320,9903,1,8,0:0:0:0:
328,320,10283,2,0,P|256:280|208:208,1,160
256,128,11422,1,8,0:0:0:0:
300,217,11802,2,0,P|253:282|184:320,1,160
88,320,12941,1,8,0:0:0:0:
56,232,13321,1,0,0:0:0:0:
16,40,14080,6,0,L|96:48,1,80,0|8,0:0|0:0,0:0:0:0:
192,56,14840,2,0,L|176:144,1,80
208,224,15599,6,0,B|128:224|128:224|88:200,2,120,0|0|8,0:0|0:0|0:0,0:0:0:0:
304,224,17118,2,0,B|384:224|384:224|424:200,2,120,0|0|8,0:0|0:0|0:0,0:0:0:0:
256,304,18637,5,0,0:0:0:0:
144,192,19397,5,0,0:0:0:0:
256,80,20156,5,2,0:0:0:0:
368,192,20916,5,2,0:0:0:0:
480,344,21675,6,0,L|312:344,1,160,6|0,0:0|0:0,0:0:0:0:
256,272,22815,1,8,0:0:0:0:
192,344,23194,2,0,L|112:344,2,80,2|0|0,0:0|0:0|0:0,0:0:0:0:
256,272,24334,1,8,0:0:0:0:
320,200,24713,6,0,P|352:128|312:64,1,160,2|0,0:0|0:0,0:0:0:0:
256,136,25853,1,8,0:0:0:0:
192,200,26232,2,0,L|112:200,2,80,2|0|0,0:0|0:0|0:0,0:0:0:0:
368,272,27751,6,0,B|392:344|392:344|304:368,1,160,2|0,0:0|0:0,0:0:0:0:
256,288,28891,1,8,0:0:0:0:
201,366,29270,2,0,B|120:344|120:344|144:272,1,160,2|0,0:0|0:0,0:0:0:0:
88,192,30410,1,8,0:0:0:0:
144,112,30789,2,0,B|120:40|120:40|201:17,1,160,2|0,0:0|0:0,0:0:0:0:
256,96,31928,1,8,0:0:0:0:
310,17,32308,2,0,B|392:40|392:40|368:112|368:112|392:192|392:192|368:264|368:264|392:344|392:344|312:368,1,480,2|0,0:0|0:0,0:0:0:0:
318,366,34777,1,8,0:0:0:0:
192,296,35346,6,0,P|144:304|104:280,1,80
48,224,36106,2,0,L|40:136,1,80,0|8,0:0|0:0,0:0:0:0:
80,56,36865,2,0,P|160:32|240:40,2,160
200,208,39144,5,0,0:0:0:0:
288,176,39523,1,8,0:0:0:0:
376,144,39903,2,0,P|376:96|384:64,1,80
480,80,40663,2,0,P|480:128|472:160,1,80,0|8,0:0|0:0,0:0:0:0:
448,248,41422,6,0,L|456:368,2,120,0|0|8,0:0|0:0|0:0,0:0:0:0:
352,264,42941,2,0,L|360:384,2,120,0|0|8,0:0|0:0|0:0,0:0:0:0:
264,304,44460,2,0,P|224:320|184:320,1,80
128,240,45220,2,0,P|88:224|48:224,1,80,0|8,0:0|0:0,0:0:0:0:
0,144,45979,2,0,L|8:56,1,80
96,32,46739,6,0,B|152:48|152:48|216:32,1,120,8|8,0:0|0:0,0:0:0:0:
248,56,47498,6,0,L|424:48,1,160,4|0,0:0|0:0,0:0:0:0:
480,112,48637,1,8,0:0:0:0:
416,184,49017,2,0,B|408:264|408:264|432:304,2,120,0|0|8,0:0|0:0|0:0,0:0:0:0:
320,184,50536,6,0,P|216:120|104:152,1,240,0|8,0:0|0:0,0:0:0:0:
96,240,52055,2,0,P|200:304|312:272,1,240,0|8,0:0|0:0,0:0:0:0:
392,240,53574,6,0,L|480:240,1,80
472,336,54334,2,0,L|392:336,1,80,0|8,0:0|0:0,0:0:0:0:
296,336,55093,2,0,B|256:222|256:222|216:336,1,240,0|8,0:0|0:0,0:0:0:0:
120,336,56612,2,0,L|40:336,1,80,0|8,0:0|0:0,0:0:0:0:
40,240,57372,2,0,L|120:240,1,80,0|8,0:0|0:0,0:0:0:0:
256,192,58131,12,4,61169,0:0:0:0:
64,232,62688,6,0,L|64:312,2,80
120,152,63827,1,8,0:0:0:0:
160,240,64207,2,0,L|160:320,2,80
216,160,65346,1,8,0:0:0:0:
256,248,65726,2,0,L|256:328,2,80
312,168,66865,1,8,0:0:0:0:
312,168,67245,6,0,B|384:144|384:144|376:48|376:48|304:48,1,240,0|8,0:0|0:0,0:0:0:0:
203,48,68764,2,0,B|136:48|136:48|128:144|128:144|200:168,1,240,0|8,0:0|0:0,0:0:0:0:
256,248,70283,2,0,L|256:368,2,120,0|0|8,0:0|0:0|0:0,0:0:0:0:
168,288,71802,6,0,L|80:288,1,80,0|8,0:0|0:0,0:0:0:0:
16,224,72561,2,0,L|16:144,1,80,0|8,0:0|0:0,0:0:0:0:
16,48,73321,6,0,B|96:64|96:64|168:40|168:40|256:56,1,240,0|8,0:0|0:0,0:0:0:0:
200,136,74840,2,0,B|280:152|280:152|352:128|352:128|433:142,1,240,0|8,0:0|0:0,0:0:0:0:
433,241,76359,2,0,B|352:256|352:256|280:232|280:232|200:248,1,240,0|8,0:0|0:0,0:0:0:0:
249,329,77878,2,0,B|168:344|168:344|96:320|96:320|16:336,1,240,0|8,0:0|0:0,0:0:0:0:
16,336,79397,6,0,B|40:256|40:256|8:184|8:184|40:112,1,240,0|8,0:0|0:0,0:0:0:0:
72,24,80916,2,0,B|144:48|144:48|144:136|144:136|224:160,1,240,0|8,0:0|0:0,0:0:0:0:
295,226,82435,2,0,B|368:248|368:248|368:336|368:336|440:360,1,240,0|8,0:0|0:0,0:0:0:0:
472,270,83954,2,0,B|504:200|504:200|472:128|472:128|496:48,1,240,0|12,0:0|0:0,0:0:0:0:
400,48,85473,6,0,B|368:32|368:32|320:32,1,80,2|8,0:0|0:0,0:0:0:0:
256,104,86232,2,0,L|256:184,2,80,2|8|2,0:0|0:0|0:0,0:0:0:0:
188,32,87372,2,0,B|144:32|144:32|112:48,1,80,8|2,0:0|0:0,0:0:0:0:
16,48,88131,1,8,0:0:0:0:
112,48,88511,6,0,B|96:80|96:80|96:128,1,80,2|8,0:0|0:0,0:0:0:0:
168,192,89270,2,0,L|248:192,2,80,2|8|2,0:0|0:0|0:0,0:0:0:0:
96,259,90410,2,0,B|96:304|96:304|112:336,1,80,8|2,0:0|0:0,0:0:0:0:
16,336,91169,5,8,0:0:0:0:
112,336,91549,2,0,B|144:352|144:352|192:352,1,80,2|8,0:0|0:0,0:0:0:0:
256,280,92308,2,0,L|256:200,2,80,2|8|2,0:0|0:0|0:0,0:0:0:0:
323,352,93448,2,0,B|368:352|368:352|400:336,1,80,8|2,0:0|0:0,0:0:0:0:
496,336,94207,1,8,0:0:0:0:
256,192,94587,12,4,100663,0:0:0:0:
256,192,101422,5,0,0:0:0:0:
416,296,102182,1,0,0:0:0:0:
488,232,102561,1,8,0:0:0:0:
416,168,102941,2,0,B|384:192|384:192|304:192,1,120,8|8,0:0|0:0,0:0:0:0:
256,192,103701,5,0,0:0:0:0:
256,384,104460,2,0,L|256:288,1,80,0|8,0:0|0:0,0:0:0:0:
176,248,105220,1,8,0:0:0:0:
80,248,105599,1,8,0:0:0:0:
32,112,106169,6,0,P|64:88|104:88,1,80,2|2,0:0|0:0,0:0:0:0:
144,112,106739,6,0,L|232:112,1,80,0|8,0:0|0:0,0:0:0:0:
280,32,107498,2,0,L|368:32,1,80,0|8,0:0|0:0,0:0:0:0:
416,112,108258,2,0,L|504:112,1,80,0|8,0:0|0:0,0:0:0:0:
456,200,109017,2,0,B|408:240|384:200|336:232,1,120,8|8,0:0|0:0,0:0:0:0:
368,272,109777,6,0,L|288:272,1,80,0|8,0:0|0:0,0:0:0:0:
232,352,110536,2,0,L|152:352,1,80,0|8,0:0|0:0,0:0:0:0:
96,272,111296,2,0,L|16:272,2,80,0|8|0,0:0|0:0|0:0,0:0:0:0:
152,192,112435,1,0,0:0:0:0:
72,136,112815,6,0,B|136:32|136:32|216:120,1,240,4|0,0:0|0:0,0:0:0:0:
312,112,114334,2,0,L|392:120,1,80
488,136,115093,2,0,L|496:96,1,40,0|6,0:0|0:0,0:0:0:0:
448,232,115853,6,0,B|468:312|468:312|392:298|392:298|344:336|344:336|280:320,1,280,4|0,0:0|0:0,0:0:0:0:
225,321,117372,2,0,B|168:336|168:336|120:298|120:298|44:312|44:312|64:232,1,280,0|8,0:0|0:0,0:0:0:0:
