osu file format v14

[General]
AudioFilename: audio.mp3
AudioLeadIn: 1000
PreviewTime: 43288
Countdown: 0
SampleSet: Normal
StackLeniency: 0.7
Mode: 1
LetterboxInBreaks: 0
WidescreenStoryboard: 0

[Editor]
Bookmarks: 1110,3486,12397,12991,24872,34674,43882,53387,64080,72991,73585,84872
DistanceSpacing: 1.8
BeatDivisor: 4
GridSize: 32
TimelineZoom: 2.2

[Metadata]
Title:Prismatic Lollipops
TitleUnicode:Prismatic Lollipops
Artist:DJ Mashiro
ArtistUnicode:DJ Mashiro
Creator:eiri-
Version:Kantan
Source:Cytus
Tags:Ayyri Featured Artist FA 3R2 Rayark Rhythm Video Game Instrumental Happy Hardcore Electronic
BeatmapID:3221872
BeatmapSetID:1577826

[Difficulty]
HPDrainRate:8
CircleSize:2
OverallDifficulty:3
ApproachRate:10
SliderMultiplier:1.4
SliderTickRate:1

[Events]
//Background and Video events
0,0,"Prismatic Lollipops.jpg",0,-10
//Break Periods
//Storyboard Layer 0 (Background)
//Storyboard Layer 1 (Fail)
//Storyboard Layer 2 (Pass)
//Storyboard Layer 3 (Foreground)
//Storyboard Layer 4 (Overlay)
//Storyboard Sound Samples

[TimingPoints]
1110,297.029702970297,4,1,0,60,1,0
3486,-100,4,1,0,75,0,1
12397,-100,4,1,0,75,0,0
12991,-100,4,1,0,75,0,1
24872,-100,4,1,0,60,0,0
34637,-100,4,1,0,65,0,0
43845,-100,4,1,0,70,0,0
64080,-100,4,1,0,75,0,1
72991,-100,4,1,0,75,0,0
73585,-100,4,1,0,75,0,1
84872,-100,4,1,0,75,0,0

[HitObjects]
256,192,1110,5,12,0:0:0:0:
256,192,1704,1,12,0:0:0:0:
256,192,2298,1,12,0:0:0:0:
256,192,2595,1,12,0:0:0:0:
256,192,2892,1,12,0:0:0:0:
256,192,3486,1,12,0:0:0:0:
256,192,4080,1,0,0:0:0:0:
256,192,4525,1,8,0:0:0:0:
256,192,5268,1,8,0:0:0:0:
256,192,5862,1,0,0:0:0:0:
256,192,6753,1,8,0:0:0:0:
256,192,7199,1,0,0:0:0:0:
256,192,7644,1,8,0:0:0:0:
256,192,8238,1,8,0:0:0:0:
256,192,9129,1,0,0:0:0:0:
256,192,9575,1,8,0:0:0:0:
256,192,10020,1,0,0:0:0:0:
256,192,10614,1,8,0:0:0:0:
256,192,11654,1,0,0:0:0:0:
256,192,12397,1,8,0:0:0:0:
256,192,12991,1,12,0:0:0:0:
256,192,13585,1,0,0:0:0:0:
256,192,14030,1,8,0:0:0:0:
256,192,14773,1,8,0:0:0:0:
256,192,15367,1,0,0:0:0:0:
256,192,16407,1,0,0:0:0:0:
256,192,17149,1,12,0:0:0:0:
256,192,17743,1,12,0:0:0:0:
256,192,18337,1,0,0:0:0:0:
256,192,18931,1,12,0:0:0:0:
256,192,19525,1,8,0:0:0:0:
256,192,19822,1,0,0:0:0:0:
256,192,20119,1,12,0:0:0:0:
256,192,20713,1,12,0:0:0:0:
256,192,21308,1,12,0:0:0:0:
256,192,21902,1,4,0:0:0:0:
256,192,22496,1,12,0:0:0:0:
256,192,23090,1,12,0:0:0:0:
256,192,23684,1,12,0:0:0:0:
256,192,23981,1,12,0:0:0:0:
256,192,24278,1,12,0:0:0:0:
256,192,24872,1,12,0:0:0:0:
256,192,25763,1,8,0:0:0:0:
256,192,26060,1,0,0:0:0:0:
256,192,26654,1,8,0:0:0:0:
256,192,27397,1,8,0:0:0:0:
256,192,27842,1,8,0:0:0:0:
256,192,28585,1,0,0:0:0:0:
256,192,29030,1,8,0:0:0:0:
256,192,29624,1,8,0:0:0:0:
256,192,30812,1,0,0:0:0:0:
256,192,31110,1,8,0:0:0:0:
256,192,31407,1,0,0:0:0:0:
256,192,32001,1,8,0:0:0:0:
256,192,32298,1,0,0:0:0:0:
256,192,32595,1,8,0:0:0:0:
256,192,33189,1,12,0:0:0:0:
256,192,33783,1,0,0:0:0:0:
256,192,34674,1,12,0:0:0:0:
256,192,35268,1,0,0:0:0:0:
256,192,35565,1,8,0:0:0:0:
256,192,36159,1,8,0:0:0:0:
256,192,36902,1,0,0:0:0:0:
256,192,37347,1,8,0:0:0:0:
256,192,38090,1,0,0:0:0:0:
256,192,38535,1,8,0:0:0:0:
256,192,38832,1,0,0:0:0:0:
256,192,39129,1,12,0:0:0:0:
256,192,40317,1,8,0:0:0:0:
256,192,40614,1,0,0:0:0:0:
256,192,40911,1,8,0:0:0:0:
256,192,41506,1,12,0:0:0:0:
256,192,42100,1,12,0:0:0:0:
256,192,42694,1,4,0:0:0:0:
256,192,43882,1,12,0:0:0:0:
256,192,44179,1,0,0:0:0:0:
256,192,44476,1,8,0:0:0:0:
256,192,45070,1,8,0:0:0:0:
256,192,45367,1,8,0:0:0:0:
256,192,45664,1,0,0:0:0:0:
256,192,46258,1,12,0:0:0:0:
256,192,47446,1,4,0:0:0:0:
256,192,47743,1,12,0:0:0:0:
256,192,48040,1,4,0:0:0:0:
256,192,48634,1,12,0:0:0:0:
256,192,48931,1,8,0:0:0:0:
256,192,49228,1,0,0:0:0:0:
256,192,49822,1,8,0:0:0:0:
256,192,50119,1,0,0:0:0:0:
256,192,50416,1,8,0:0:0:0:
256,192,51010,1,12,0:0:0:0:
256,192,51605,1,0,0:0:0:0:
256,192,52199,1,12,0:0:0:0:
256,192,52496,1,4,0:0:0:0:
256,192,52793,1,12,0:0:0:0:
256,192,53387,1,12,0:0:0:0:
256,192,53684,1,0,0:0:0:0:
256,192,53981,1,8,0:0:0:0:
256,192,54575,1,8,0:0:0:0:
256,192,54872,1,8,0:0:0:0:
256,192,55169,1,0,0:0:0:0:
256,192,55763,1,12,0:0:0:0:
256,192,56951,1,4,0:0:0:0:
256,192,57248,1,12,0:0:0:0:
256,192,57545,1,4,0:0:0:0:
256,192,58139,1,12,0:0:0:0:
256,192,58436,1,8,0:0:0:0:
256,192,58733,1,0,0:0:0:0:
256,192,59327,1,8,0:0:0:0:
256,192,59624,1,0,0:0:0:0:
256,192,59921,1,8,0:0:0:0:
256,192,60515,1,12,0:0:0:0:
256,192,61109,1,4,0:0:0:0:
256,192,61704,1,12,0:0:0:0:
256,192,62001,1,4,0:0:0:0:
256,192,62298,1,12,0:0:0:0:
256,192,62892,1,12,0:0:0:0:
256,192,64080,1,12,0:0:0:0:
256,192,64674,1,0,0:0:0:0:
256,192,65119,1,8,0:0:0:0:
256,192,65862,1,8,0:0:0:0:
256,192,66456,1,0,0:0:0:0:
256,192,67347,1,8,0:0:0:0:
256,192,67793,1,0,0:0:0:0:
256,192,68238,1,8,0:0:0:0:
256,192,68832,1,8,0:0:0:0:
256,192,69723,1,0,0:0:0:0:
256,192,70169,1,8,0:0:0:0:
256,192,70614,1,0,0:0:0:0:
256,192,71209,1,8,0:0:0:0:
256,192,72248,1,0,0:0:0:0:
256,192,72991,1,8,0:0:0:0:
256,192,73585,1,12,0:0:0:0:
256,192,74179,1,0,0:0:0:0:
256,192,74624,1,8,0:0:0:0:
256,192,75367,1,8,0:0:0:0:
256,192,75961,1,0,0:0:0:0:
256,192,77001,1,0,0:0:0:0:
256,192,77743,1,12,0:0:0:0:
256,192,78337,1,12,0:0:0:0:
256,192,78931,1,0,0:0:0:0:
256,192,79525,1,12,0:0:0:0:
256,192,80119,1,8,0:0:0:0:
256,192,80416,1,0,0:0:0:0:
256,192,80713,1,12,0:0:0:0:
256,192,81308,1,12,0:0:0:0:
256,192,81902,1,12,0:0:0:0:
256,192,82496,1,4,0:0:0:0:
256,192,83090,1,12,0:0:0:0:
256,192,83684,1,12,0:0:0:0:
256,192,84278,1,12,0:0:0:0:
256,192,84575,1,12,0:0:0:0:
256,192,84872,1,12,0:0:0:0:
