osu file format v14

[General]
AudioFilename: audio.mp3
AudioLeadIn: 0
PreviewTime: 154578
Countdown: 1
SampleSet: None
StackLeniency: 0.7
Mode: 0
LetterboxInBreaks: 0
WidescreenStoryboard: 0

[Editor]
Bookmarks: 149822
DistanceSpacing: 1
BeatDivisor: 16
GridSize: 32
TimelineZoom: 5.099997

[Metadata]
Title:Eurodancer
TitleUnicode:Eurodancer
Artist:DJ Mangoo
ArtistUnicode:DJ Mangoo
Creator:Nokamu
Version:Hard
Source:
Tags:djmango eurodancer electro
BeatmapID:1431899
BeatmapSetID:626727

[Difficulty]
HPDrainRate:5
CircleSize:4
OverallDifficulty:5
ApproachRate:8
SliderMultiplier:1.4
SliderTickRate:1

[Events]
//Background and Video events
0,0,"Hyperspace 06.jpg",0,0
//Break Periods
2,51530,61609
//Storyboard Layer 0 (Background)
//Storyboard Layer 1 (Fail)
//Storyboard Layer 2 (Pass)
//Storyboard Layer 3 (Foreground)
//Storyboard Sound Samples

[TimingPoints]
0,300,4,3,0,100,1,0
0,-100,4,3,0,100,0,0
18855,300,4,3,0,100,1,0
25677,-66.6666666666667,4,3,0,100,0,1
51484,300,4,3,0,100,1,0
51484,-100,4,3,0,100,0,0
103290,-66.6666666666667,4,3,0,100,0,0
128959,272.727272727273,4,3,0,100,1,0
128959,-66.6666666666667,4,3,0,100,0,1
148049,-66.6666666666667,4,3,0,100,0,0
154578,-66.6666666666667,4,3,0,100,0,1
180129,-133.333333333333,4,3,0,100,0,0

[HitObjects]
256,192,12825,12,0,18450,0:0:0:0:
144,160,19399,5,0,0:0:0:0:
224,112,19586,1,0,0:0:0:0:
144,80,19774,1,0,0:0:0:0:
144,176,19961,1,0,0:0:0:0:
304,112,20167,2,0,B|353:120|353:120|376:156,1,87.5
336,304,20561,5,0,0:0:0:0:
224,304,20748,1,0,0:0:0:0:
272,224,20973,1,0,0:0:0:0:
336,304,21161,1,0,0:0:0:0:
272,224,21349,1,0,0:0:0:0:
181,159,21536,1,0,0:0:0:0:
103,96,21779,6,0,B|64:112|64:112|64:80|64:80|48:96,2,96.25
160,176,22398,1,0,0:0:0:0:
208,64,22605,5,0,0:0:0:0:
288,64,22792,1,0,0:0:0:0:
176,144,22980,1,0,0:0:0:0:
320,144,23167,1,0,0:0:0:0:
256,272,23355,1,0,0:0:0:0:
256,112,23542,1,0,0:0:0:0:
128,64,23767,6,0,B|128:160|128:160|64:128|64:128|96:240|96:240|172:269,2,358.75
160,128,25792,5,0,0:0:0:0:
272,96,25980,1,0,0:0:0:0:
160,128,26167,1,0,0:0:0:0:
160,272,26355,1,0,0:0:0:0:
64,272,26579,5,0,0:0:0:0:
64,96,26767,1,0,0:0:0:0:
160,128,26954,1,0,0:0:0:0:
64,96,27142,1,0,0:0:0:0:
176,128,27348,6,0,B|206:108|206:108|240:128,2,65.6250025033952
176,240,27761,2,0,B|147:259|147:259|112:240,2,65.6250025033952
320,80,28155,2,0,B|432:80|432:80|312:228|448:240,1,328.125012516976
352,289,28980,5,0,0:0:0:0:
302,188,29167,1,0,0:0:0:0:
247,324,29355,1,0,0:0:0:0:
192,160,29542,1,0,0:0:0:0:
128,352,29767,5,0,0:0:0:0:
192,160,29954,1,0,0:0:0:0:
352,288,30142,1,0,0:0:0:0:
352,288,30330,1,0,0:0:0:0:
400,128,30555,6,0,B|418:106|418:106|384:80,2,65.6250025033952
288,240,30967,2,0,B|261:233|261:233|272:192,2,65.6250025033952
416,192,31380,2,0,B|368:96|368:96|256:128|272:272,1,315.000012016297
368,96,32205,5,0,0:0:0:0:
256,144,32392,1,0,0:0:0:0:
368,96,32580,1,0,0:0:0:0:
320,256,32767,1,0,0:0:0:0:
368,112,32955,6,0,B|437:95|437:95|448:176,1,144.375005507469
416,224,33367,1,0,0:0:0:0:
272,224,33592,1,0,0:0:0:0:
320,160,33780,5,0,0:0:0:0:
320,320,34005,1,0,0:0:0:0:
320,128,34193,1,0,0:0:0:0:
320,288,34380,1,0,0:0:0:0:
320,96,34605,6,0,B|288:112|288:112|272:64|272:64|224:112,2,131.25000500679
368,192,35168,1,0,0:0:0:0:
400,304,35393,5,0,0:0:0:0:
288,336,35580,1,0,0:0:0:0:
256,224,35767,1,0,0:0:0:0:
368,192,35992,1,0,0:0:0:0:
400,304,36180,5,0,0:0:0:0:
368,192,36367,1,0,0:0:0:0:
236,132,36555,2,0,P|41:199|236:196,2,577.500022029878
448,128,38617,5,0,0:0:0:0:
384,48,38805,1,0,0:0:0:0:
336,144,38992,1,0,0:0:0:0:
384,48,39180,1,0,0:0:0:0:
336,144,39404,5,0,0:0:0:0:
448,128,39592,1,0,0:0:0:0:
336,144,39779,1,0,0:0:0:0:
400,224,39967,1,0,0:0:0:0:
304,288,40173,6,0,B|331:259|331:259|304:240,2,65.6250025033952
224,288,40567,2,0,B|203:309|203:309|224:352,2,65.6250025033952
176,128,40998,2,0,B|128:176|128:176|256:160|304:288,1,288.750011014939
320,352,41617,1,0,0:0:0:0:
144,320,41805,5,0,0:0:0:0:
128,192,41992,1,0,0:0:0:0:
224,288,42180,1,0,0:0:0:0:
80,256,42367,1,0,0:0:0:0:
224,192,42592,5,0,0:0:0:0:
96,288,42779,1,0,0:0:0:0:
223,143,42967,1,0,0:0:0:0:
128,320,43155,1,0,0:0:0:0:
224,110,43380,6,0,B|204:135|204:135|224:174,2,65.6250025033952
368,80,43792,2,0,B|394:53|394:53|368:32,2,65.6250025033952
416,176,44205,2,0,B|288:160|288:160|228:105|208:208,1,236.250009012223
384,288,45030,5,0,0:0:0:0:
336,128,45218,1,0,0:0:0:0:
256,288,45405,1,0,0:0:0:0:
432,208,45593,1,0,0:0:0:0:
256,288,45817,5,0,0:0:0:0:
336,128,46005,1,0,0:0:0:0:
160,192,46192,1,0,0:0:0:0:
240,48,46380,1,0,0:0:0:0:
80,96,46586,6,0,B|108:77|108:77|144:96,2,65.6250025033952
160,192,46980,2,0,B|130:210|130:210|96:192,2,65.6250025033952
272,96,47373,2,0,B|392:144|392:144|320:256|384:304,1,301.875011515618
256,320,48011,1,0,0:0:0:0:
176,112,48218,5,0,0:0:0:0:
176,256,48405,1,0,0:0:0:0:
288,160,48593,1,0,0:0:0:0:
176,112,48780,1,0,0:0:0:0:
288,160,49005,5,0,0:0:0:0:
144,320,49192,1,0,0:0:0:0:
208,224,49380,1,0,0:0:0:0:
96,224,49568,1,0,0:0:0:0:
288,304,49793,6,0,B|288:352,10,26.2500010013581
320,272,50205,2,0,B|320:224,10,26.2500010013581
320,192,50618,2,0,B|256:304|256:304|192:192|192:192|256:80|256:80|320:192,1,498.750019025803
256,192,62359,12,0,64084,0:0:0:0:
96,128,64234,6,0,L|160:64,1,87.5
336,144,64609,2,0,L|240:160,1,87.5
128,224,64984,2,0,L|208:287,1,87.5
256,64,65396,2,0,L|191:141,1,87.5
416,288,65809,5,0,0:0:0:0:
288,192,65996,1,0,0:0:0:0:
416,288,66183,1,0,0:0:0:0:
288,192,66371,1,0,0:0:0:0:
448,160,66615,5,0,0:0:0:0:
256,320,66802,1,0,0:0:0:0:
448,160,66990,1,0,0:0:0:0:
256,320,67177,1,0,0:0:0:0:
128,96,67384,6,0,L|63:176,1,87.5
128,320,67796,2,0,L|63:242,1,87.5
224,192,68209,2,0,L|122:192,1,87.5
416,192,68584,2,0,L|327:192,1,87.5
192,256,68996,5,0,0:0:0:0:
192,128,69183,1,0,0:0:0:0:
320,128,69370,1,0,0:0:0:0:
320,256,69558,1,0,0:0:0:0:
160,192,69802,5,0,0:0:0:0:
256,96,69989,1,0,0:0:0:0:
352,192,70177,1,0,0:0:0:0:
256,288,70364,1,0,0:0:0:0:
192,96,70590,6,0,L|192:182,1,78.75
320,288,70984,2,0,L|320:192,1,87.5
192,96,71396,2,0,L|192:192,1,87.5
320,288,71771,2,0,L|320:192,1,87.5
320,96,72184,6,0,L|320:192,1,87.5
128,160,72559,1,0,0:0:0:0:
256,64,72784,1,0,0:0:0:0:
192,288,72990,6,0,L|192:192,1,87.5
384,224,73365,1,0,0:0:0:0:
256,320,73590,1,0,0:0:0:0:
96,146,73796,6,0,L|96:242,3,87.5
448,256,74584,6,0,L|449:161,3,87.5
256,192,75389,5,0,0:0:0:0:
256,192,75577,1,0,0:0:0:0:
256,192,75764,1,0,0:0:0:0:
256,192,75952,1,0,0:0:0:0:
132,230,76196,6,0,L|164:276,1,52.5
320,96,76571,2,0,B|261:74,1,52.5
342,318,76984,2,0,L|389:279,1,52.5
142,181,77359,5,0,0:0:0:0:
192,128,77584,2,0,L|256:64,2,87.5
275,237,78184,1,0,0:0:0:0:
224,288,78409,2,0,L|160:352,2,87.5
384,160,79009,5,0,0:0:0:0:
288,64,79196,1,0,0:0:0:0:
256,192,79384,1,0,0:0:0:0:
288,64,79571,1,0,0:0:0:0:
256,192,79815,5,0,0:0:0:0:
160,288,80002,1,0,0:0:0:0:
128,160,80190,1,0,0:0:0:0:
256,192,80377,1,0,0:0:0:0:
448,256,80621,6,0,L|384:320,1,87.5
161,148,80996,2,0,L|257:164,1,87.5
352,160,81408,2,0,L|277:97,1,87.5
224,320,81783,2,0,L|300:255,1,87.5
160,192,82196,5,0,0:0:0:0:
288,160,82383,1,0,0:0:0:0:
128,128,82570,1,0,0:0:0:0:
320,224,82758,1,0,0:0:0:0:
192,256,83003,5,0,0:0:0:0:
256,96,83190,1,0,0:0:0:0:
320,256,83378,1,0,0:0:0:0:
256,96,83565,1,0,0:0:0:0:
384,288,83771,6,0,L|463:222,1,87.5
384,96,84184,2,0,L|447:178,1,87.5
288,192,84596,2,0,L|384:192,1,87.5
96,192,85009,2,0,L|199:192,1,87.5
352,96,85421,5,0,0:0:0:0:
160,288,85608,1,0,0:0:0:0:
160,96,85795,1,0,0:0:0:0:
352,288,85983,1,0,0:0:0:0:
384,192,86227,5,0,0:0:0:0:
128,192,86414,1,0,0:0:0:0:
256,320,86602,1,0,0:0:0:0:
256,64,86789,1,0,0:0:0:0:
416,96,86996,6,0,L|320:128,1,87.5
224,192,87409,2,0,L|320:224,1,87.5
320,256,87784,2,0,L|384:192,1,87.5
288,96,88196,2,0,L|256:192,1,87.5
192,256,88609,6,0,L|142:175,1,87.5
96,96,89021,1,0,0:0:0:0:
192,256,89209,1,0,0:0:0:0:
96,96,89414,5,0,0:0:0:0:
192,256,89602,1,0,0:0:0:0:
160,128,89809,6,0,L|256:96,1,87.5
352,128,90221,6,0,L|384:224,1,87.5
256,192,90521,12,0,96784,0:0:0:0:
96,160,97009,6,0,B|160:64|160:64|288:32,1,245
416,96,97796,1,0,0:0:0:0:
384,256,98171,1,0,0:0:0:0:
224,128,98584,6,0,B|192:192|192:192|224:224|277:288|352:224,1,245
96,96,99409,1,0,0:0:0:0:
128,256,99784,1,0,0:0:0:0:
416,288,100196,6,0,B|320:288|384:224|384:224|256:160,1,245
256,256,100984,1,0,0:0:0:0:
256,96,101359,1,0,0:0:0:0:
160,224,101790,6,0,L|199:224,4,35
160,224,102184,2,0,L|161:184,4,35
160,224,102596,5,0,0:0:0:0:
144,227,102690,1,0,0:0:0:0:
118,227,102784,1,0,0:0:0:0:
160,224,102972,5,0,0:0:0:0:
168,256,103065,1,0,0:0:0:0:
168,279,103159,1,0,0:0:0:0:
160,192,103384,6,0,B|120:144|120:144|169:97,1,131.25000500679
352,96,103777,2,0,B|399:140|399:140|352:192,1,131.25000500679
448,256,104171,6,0,B|384:224|384:224|384:160,1,131.25000500679
128,160,104565,2,0,B|128:224|128:224|64:256,1,131.25000500679
96,96,104977,6,0,B|224:160,1,131.25000500679
320,96,105370,2,0,B|448:160,1,131.25000500679
417,285,105764,6,0,B|359:242,2,65.6250025033952
225,144,106158,2,0,B|283:186,2,65.6250025033952
252,297,106590,6,0,B|212:249|212:249|143:276,1,131.25000500679
340,129,106983,2,0,B|387:173|387:173|451:125,1,131.25000500679
256,192,107377,6,0,B|274:125|274:125|192:96,1,131.25000500679
480,128,107771,2,0,B|412:158|412:158|416:224,1,131.25000500679
384,320,108184,6,0,B|310:322,2,65.6250025033952
188,322,108577,1,0,0:0:0:0:
147,324,108671,1,0,0:0:0:0:
111,323,108765,1,0,0:0:0:0:
320,192,108990,6,0,B|392:192,2,65.6250025033952
120,192,109383,1,0,0:0:0:0:
158,192,109477,1,0,0:0:0:0:
198,192,109571,1,0,0:0:0:0:
384,245,109815,6,0,B|431:289|431:289|384:341,1,131.25000500679
383,146,110209,2,0,B|343:98|343:98|384:41,1,131.25000500679
320,256,110602,6,0,B|255:287|255:287|204:249,1,131.25000500679,0|0,0:0|3:0,0:0:0:0:
128,128,110996,2,0,B|186:101|186:101|241:147,1,131.25000500679
96,352,111408,6,0,B|96:210,1,131.25000500679
96,32,111801,2,0,B|94:175,1,131.25000500679
224,128,112195,6,0,B|292:128,2,65.6250025033952
384,224,112589,2,0,B|309:224,2,65.6250025033952
128,256,113003,6,0,B|88:208|88:208|115:137,1,131.25000500679
256,96,113396,2,0,B|313:129|313:129|367:92,1,131.25000500679
224,288,113790,6,0,B|242:221|242:221|160:192,1,131.25000500679
96,128,114184,2,0,B|140:77|140:77|204:89,1,131.25000500679
384,160,114596,6,0,B|354:227,2,65.6250025033952
288,320,114989,1,0,0:0:0:0:
244,276,115083,1,0,0:0:0:0:
198,229,115177,1,0,0:0:0:0:
288,128,115402,6,0,B|317:59,2,65.6250025033952
160,192,115796,1,0,0:0:0:0:
202,242,115890,1,0,0:0:0:0:
251,289,115984,1,0,0:0:0:0:
351,191,116209,6,0,B|392:240|392:240|342:287,1,131.25000500679
160,288,116602,2,0,B|113:244|113:244|160:191,1,131.25000500679
64,128,116996,6,0,B|128:160|128:160|128:223,1,131.25000500679
384,224,117390,2,0,B|383:160|383:160|448:128,1,131.25000500679
416,287,117802,6,0,B|288:223,1,131.25000500679
192,287,118195,2,0,B|64:224,1,131.25000500679
95,99,118589,6,0,B|153:141,2,65.6250025033952
287,240,118983,2,0,B|228:198,2,65.6250025033952
384,128,119415,6,0,B|423:176|423:176|396:246,1,131.25000500679
256,288,119808,2,0,B|199:255|199:255|145:292,1,131.25000500679
288,96,120202,6,0,B|270:163|270:163|351:191,1,131.25000500679
416,256,120596,2,0,B|372:307|372:307|308:295,1,131.25000500679
128,192,121009,6,0,B|54:194,2,65.6250025033952
224,192,121402,1,0,0:0:0:0:
183,194,121496,1,0,0:0:0:0:
147,193,121590,1,0,0:0:0:0:
96,128,121815,6,0,B|154:93,2,65.6250025033952
192,256,122208,1,0,0:0:0:0:
164,270,122302,1,0,0:0:0:0:
132,286,122396,1,0,0:0:0:0:
338,204,122602,6,0,P|254:295|170:200,2,275.62501051426
256,192,123802,1,0,0:0:0:0:
173,183,124196,6,0,P|256:90|341:186,2,275.62501051426
256,192,125434,1,0,0:0:0:0:
352,192,125809,5,0,0:0:0:0:
256,96,126203,1,0,0:0:0:0:
160,192,126596,5,0,0:0:0:0:
256,288,126990,1,0,0:0:0:0:
256,192,127384,6,0,L|203:147,5,52.5000020027161
256,192,127834,2,0,L|303:154,5,52.5000020027161
256,192,128284,6,0,L|256:256,8,52.5000020027161
320,64,129010,5,0,0:0:0:0:
256,128,129198,1,0,0:0:0:0:
320,192,129385,1,0,0:0:0:0:
192,192,129573,1,0,0:0:0:0:
256,128,129794,5,0,0:0:0:0:
192,64,129982,1,0,0:0:0:0:
256,128,130169,1,0,0:0:0:0:
256,224,130357,1,0,0:0:0:0:
320,160,130561,6,0,B|347:134|347:134|384:160,2,78.7500030040742
192,288,130970,2,0,B|169:327|169:327|128:288,2,78.7500030040742
384,288,131379,2,0,B|450:188|450:188|309:182|293:104,1,301.875011515618
300,127,131976,1,0,0:0:0:0:
160,96,132198,5,0,0:0:0:0:
320,192,132385,1,0,0:0:0:0:
160,288,132573,1,0,0:0:0:0:
256,288,132760,1,0,0:0:0:0:
96,192,132982,5,0,0:0:0:0:
256,96,133169,1,0,0:0:0:0:
352,192,133357,1,0,0:0:0:0:
160,288,133544,1,0,0:0:0:0:
256,288,133783,6,0,B|289:319|289:319|240:336,2,78.7500030040742
96,192,134192,2,0,B|60:204|60:204|80:240,2,78.7500030040742
256,96,134601,2,0,B|350:58|350:58|346:103|365:165|365:165|428:149|438:231,1,315.000012016297,0|0,0:3|0:3,0:3:0:0:
192,256,135385,6,0,B|232:304|232:304|324:284,1,157.500006008148
352,160,135777,2,0,B|305:116|305:116|202:140,1,170.625006508827
160,288,136169,6,0,B|123:223|123:223|164:150,1,157.500006008148
348,150,136561,2,0,B|389:223|389:223|352:288,1,157.500006008148
128,288,136970,6,0,B|208:287,2,78.7500030040742
320,192,137362,1,0,0:0:0:0:
320,192,137465,1,0,0:0:0:0:
320,192,137567,1,0,0:0:0:0:
224,96,137771,6,0,B|145:96,2,78.7500030040742
384,224,138163,1,0,0:0:0:0:
416,192,138266,1,0,0:0:0:0:
384,160,138368,1,0,0:0:0:0:
384,320,138590,6,0,B|431:276|431:276|415:182,1,157.500006008148
192,192,138999,2,0,B|275:235|275:235|325:197,1,157.500006008148
288,96,139391,6,0,B|371:79|371:79|417:136,1,157.500006008148,0|0,0:0|3:0,0:0:0:0:
331,244,139783,2,0,B|264:297|264:297|192:288,1,157.500006008148
416,178,140192,6,0,B|450:252|450:252|416:320,1,157.500006008148
320,96,140584,2,0,B|287:166|287:166|318:239,1,157.500006008148
160,96,140976,6,0,B|160:177,2,78.7500030040742
224,288,141368,6,0,B|224:210,2,78.7500030040742
384,224,141794,6,0,B|391:157|391:157|315:110,1,157.500006008148
96,128,142203,2,0,B|144:198|144:198|215:190,1,157.500006008148
416,320,142595,6,0,B|434:253|434:253|343:204,1,170.625006508827
256,96,142987,2,0,B|300:44|300:44|389:56,1,157.500006008148
416,256,143379,6,0,B|449:327,2,78.7500030040742
256,192,143788,1,0,0:0:0:0:
256,192,143891,1,0,0:0:0:0:
256,192,143993,1,0,0:0:0:0:
416,160,144180,6,0,B|447:88,2,78.7500030040742
192,128,144573,1,0,0:0:0:0:
160,192,144675,1,0,0:0:0:0:
192,256,144777,1,0,0:0:0:0:
352,288,145016,5,0,0:0:0:0:
416,256,145203,1,0,0:0:0:0:
416,128,145391,1,0,0:0:0:0:
448,192,145578,1,0,0:0:0:0:
352,96,145800,5,0,0:0:0:0:
224,128,145987,1,0,0:0:0:0:
288,96,146175,1,0,0:0:0:0:
192,192,146362,1,0,0:0:0:0:
320,288,146550,6,0,B|295:311|295:311|252:286,2,78.7500030040742
384,160,146959,2,0,B|417:136|417:136|444:162,2,78.7500030040742
192,287,147368,2,0,B|273:255|273:255|211:223|286:65|383:207,1,328.125012516976
424,272,147982,1,0,0:0:0:0:
403,159,148203,6,0,P|256:96|115:159,2,315.000012016297
192,192,149413,1,0,0:0:0:0:
320,192,149618,1,0,0:0:0:0:
120,231,149822,6,0,P|263:287|403:225,2,315.000012016297
320,192,150998,1,0,0:0:0:0:
192,192,151203,1,0,0:0:0:0:
315,95,151407,6,0,B|381:118|381:118|429:190,1,144.375005507469
422,204,151799,6,0,B|381:266|381:266|315:289,1,144.375005507469
299,290,152226,6,0,L|210:290,2,78.7500030040742
193,277,152601,6,0,L|136:229,2,65.6250025033952
80,192,153010,5,0,0:0:0:0:
93,170,153112,1,0,0:0:0:0:
114,145,153214,1,0,0:0:0:0:
135,128,153316,1,0,0:0:0:0:
163,118,153419,5,0,0:0:0:0:
190,115,153521,1,0,0:0:0:0:
213,120,153623,1,0,0:0:0:0:
237,134,153726,1,0,0:0:0:0:
264,153,153828,6,0,L|293:126,13,39.3750015020371
352,64,154646,5,0,0:0:0:0:
224,96,154834,1,0,0:0:0:0:
320,192,155021,1,0,0:0:0:0:
197,204,155209,1,0,0:0:0:0:
128,96,155430,1,0,0:0:0:0:
64,224,155618,1,0,0:0:0:0:
160,320,155805,1,0,0:0:0:0:
64,224,155993,1,0,0:0:0:0:
176,130,156197,6,0,B|149:104|149:104|112:130,2,78.7500030040742
352,192,156606,2,0,B|375:231|375:231|416:192,2,78.7500030040742
224,320,157015,2,0,B|112:320|112:320|160:208|96:160,1,262.500010013581
64,96,157629,1,0,0:0:0:0:
224,96,157834,5,0,0:0:0:0:
96,192,158021,1,0,0:0:0:0:
224,96,158209,1,0,0:0:0:0:
224,288,158396,1,0,0:0:0:0:
96,192,158618,1,0,0:0:0:0:
224,96,158805,1,0,0:0:0:0:
352,192,158993,1,0,0:0:0:0:
448,192,159180,1,0,0:0:0:0:
320,288,159419,6,0,B|353:319|353:319|304:336,2,78.7500030040742
224,224,159828,2,0,B|188:236|188:236|208:272,2,78.7500030040742
416,192,160237,2,0,B|384:96|384:96|352:128|292:153|292:153|264:94|195:139,1,315.000012016297
96,256,161021,6,0,B|136:304|136:304|230:284,1,157.500006008148
416,192,161413,2,0,B|369:236|369:236|288:188,1,157.500006008148
96,128,161805,6,0,B|142:85|142:85|231:121,1,157.500006008148
352,288,162197,2,0,B|389:223|389:223|348:150,1,157.500006008148
160,96,162606,6,0,B|240:95,2,78.7500030040742
209,241,162998,1,0,0:0:0:0:
256,192,163101,1,0,0:0:0:0:
303,142,163203,1,0,0:0:0:0:
352,320,163407,6,0,B|273:320,2,78.7500030040742
320,128,163799,1,0,0:0:0:0:
256,192,163902,1,0,0:0:0:0:
192,256,164004,1,0,0:0:0:0:
384,64,164226,6,0,B|431:108|431:108|415:202,1,157.500006008148
359,295,164635,2,0,B|309:333|309:333|223:288,1,157.500006008148
115,239,165027,6,0,B|110:166|110:166|160:96,1,157.500006008148,0|0,0:0|3:0,0:0:0:0:
385,126,165419,2,0,B|318:73|318:73|246:82,1,157.500006008148
416,320,165828,6,0,B|450:252|450:252|416:178,1,157.500006008148
96,64,166220,2,0,B|63:134|63:134|94:207,1,157.500006008148
352,96,166612,6,0,B|433:96,2,78.7500030040742
160,288,167004,2,0,B|80:288,2,78.7500030040742
416,288,167430,6,0,B|463:240|463:240|432:156,1,157.500006008148
192,64,167839,2,0,B|133:105|133:105|55:64,1,157.500006008148
288,352,168231,6,0,B|270:285|270:285|361:236,1,170.625006508827
480,96,168623,2,0,B|436:45|436:45|343:57,1,157.500006008148
128,128,169015,6,0,B|94:55,2,78.7500030040742
192,256,169424,1,0,0:0:0:0:
256,320,169527,1,0,0:0:0:0:
320,256,169629,1,0,0:0:0:0:
416,128,169816,6,0,B|447:56,2,78.7500030040742
256,192,170209,1,0,0:0:0:0:
160,256,170311,1,0,0:0:0:0:
256,192,170413,1,0,0:0:0:0:
384,288,170652,5,0,0:0:0:0:
384,128,170839,1,0,0:0:0:0:
224,128,171027,1,0,0:0:0:0:
384,128,171214,1,0,0:0:0:0:
224,128,171436,1,0,0:0:0:0:
224,288,171623,1,0,0:0:0:0:
224,128,171811,1,0,0:0:0:0:
224,288,171998,5,0,0:0:0:0:
96,160,172186,2,0,B|123:134|123:134|160:160,2,78.7500030040742
96,288,172595,2,0,B|73:327|73:327|32:288,2,78.7500030040742
192,128,173004,2,0,B|304:128|304:128|256:240|334:306,1,301.875011515618
448,256,173618,1,0,0:0:0:0:
384,64,173839,5,0,0:0:0:0:
352,288,174027,1,0,0:0:0:0:
288,96,174214,1,0,0:0:0:0:
256,320,174402,1,0,0:0:0:0:
192,128,174623,1,0,0:0:0:0:
160,352,174811,1,0,0:0:0:0:
352,288,174998,1,0,0:0:0:0:
160,224,175186,1,0,0:0:0:0:
352,160,175407,6,0,B|385:129|385:129|336:112,2,78.7500030040742
160,96,175816,2,0,B|124:84|124:84|144:48,2,78.7500030040742
320,256,176243,2,0,B|418:298|418:298|483:202|378:102,1,315.000012016297
128,96,177027,5,0,0:0:0:0:
384,96,177214,1,0,0:0:0:0:
96,192,177402,1,0,0:0:0:0:
416,192,177589,1,0,0:0:0:0:
128,288,177811,1,0,0:0:0:0:
384,288,177998,1,0,0:0:0:0:
160,192,178186,1,0,0:0:0:0:
352,192,178373,1,0,0:0:0:0:
256,288,178561,6,0,B|229:314|229:314|192:288,2,78.7500030040742
256,96,178970,2,0,B|279:57|279:57|320:96,2,78.7500030040742
160,256,179379,2,0,B|84:232|84:232|152:186|96:148,2,183.750007009506
352,192,180214,6,0,L|371:154,2,39.3750015020371
288,256,180606,2,0,L|269:294,2,39.3750015020371
224,160,180998,2,0,L|205:122,2,39.3750015020371
160,288,181390,5,0,0:0:0:0:
160,288,181493,1,0,0:0:0:0:
160,288,181595,1,0,0:0:0:0:
321,152,181782,6,0,B|331:195|331:195|320:230,1,78.7500030040742
191,232,182174,6,0,B|181:189|181:189|192:154,1,78.7500030040742
256,160,182583,5,0,0:0:0:0:
256,192,182686,1,0,0:0:0:0:
256,224,182788,1,0,0:0:0:0:
256,160,182993,5,0,0:0:0:0:
256,192,183095,1,0,0:0:0:0:
256,224,183197,1,0,0:0:0:0:
160,192,183402,6,0,L|141:154,2,39.3750015020371
224,256,183794,2,0,L|243:294,2,39.3750015020371
288,160,184186,2,0,L|307:122,2,39.3750015020371
352,288,184578,5,0,0:0:0:0:
352,288,184681,1,0,0:0:0:0:
352,288,184783,1,0,0:0:0:0:
292,127,184970,6,0,B|259:117|259:117|216:127,1,78.7500030040742
219,256,185362,6,0,B|253:267|253:267|296:257,1,78.7500030040742
224,160,185771,5,0,0:0:0:0:
256,128,185874,1,0,0:0:0:0:
288,160,185976,1,0,0:0:0:0:
288,224,186181,5,0,0:0:0:0:
256,256,186283,1,0,0:0:0:0:
224,224,186385,1,0,0:0:0:0:
256,192,186606,12,0,192180,0:0:0:0:
