osu file format v14

[General]
AudioFilename: audio.mp3
AudioLeadIn: 0
PreviewTime: 154578
Countdown: 1
SampleSet: None
StackLeniency: 0.7
Mode: 0
LetterboxInBreaks: 0
WidescreenStoryboard: 0

[Editor]
Bookmarks: 96409
DistanceSpacing: 1
BeatDivisor: 8
GridSize: 16
TimelineZoom: 4.199998

[Metadata]
Title:Eurodancer
TitleUnicode:Eurodancer
Artist:DJ Mangoo
ArtistUnicode:DJ Mangoo
Creator:Nokamu
Version:Extra
Source:DJMango
Tags:djmango eurodancer electro
BeatmapID:1320853
BeatmapSetID:626727

[Difficulty]
HPDrainRate:6
CircleSize:4
OverallDifficulty:5
ApproachRate:9.4
SliderMultiplier:1.7
SliderTickRate:1

[Events]
//Background and Video events
0,0,"Hyperspace 06.jpg",0,0
//Break Periods
2,51586,54671
//Storyboard Layer 0 (Background)
//Storyboard Layer 1 (Fail)
//Storyboard Layer 2 (Pass)
//Storyboard Layer 3 (Foreground)
//Storyboard Sound Samples

[TimingPoints]
0,400,4,3,0,100,1,0
0,-100,4,3,0,100,0,0
19386,400,4,3,0,100,1,0
25677,-66.6666666666667,4,3,0,100,0,1
51484,400,4,3,0,100,1,0
51484,-100,4,3,0,100,0,0
103290,-66.6666666666667,4,3,0,100,0,0
128959,-66.6666666666667,4,3,0,100,0,1
129015,400,4,3,0,100,1,0
144896,-66.6666666666667,4,3,0,100,0,0
154578,-66.6666666666667,4,3,0,100,0,1
180129,-133.333333333333,4,3,0,100,0,0

[HitObjects]
256,192,12750,12,0,19200,0:0:0:0:
112,160,19386,6,0,L|113:106,2,42.5
208,128,19786,6,0,L|208:180,2,42.5
304,160,20186,6,0,L|304:107,2,42.5
400,128,20586,5,0,0:0:0:0:
400,144,20686,1,0,0:0:0:0:
400,160,20786,1,0,0:0:0:0:
96,236,20986,6,0,L|96:288,2,42.5
208,295,21386,6,0,L|208:240,2,42.5
304,235,21786,6,0,L|304:288,2,42.5
400,288,22186,5,0,0:0:0:0:
400,272,22286,1,0,0:0:0:0:
400,256,22386,1,0,0:0:0:0:
112,192,22586,5,0,0:0:0:0:
112,192,22686,1,0,0:0:0:0:
112,192,22786,1,0,0:0:0:0:
256,192,22986,5,0,0:0:0:0:
256,192,23086,1,0,0:0:0:0:
256,192,23186,1,0,0:0:0:0:
416,192,23386,5,0,0:0:0:0:
416,192,23486,1,0,0:0:0:0:
416,192,23586,1,0,0:0:0:0:
128,192,23786,6,0,L|73:192,2,42.5
320,160,24186,5,0,0:0:0:0:
352,192,24286,1,0,0:0:0:0:
320,224,24386,1,0,0:0:0:0:
128,192,24586,6,0,L|73:192,2,42.5
352,144,24986,5,0,0:0:0:0:
384,192,25086,1,0,0:0:0:0:
352,240,25186,1,0,0:0:0:0:
160,240,25386,5,0,0:0:0:0:
128,192,25486,1,0,0:0:0:0:
160,144,25586,1,0,0:0:0:0:
320,64,25786,5,0,0:0:0:0:
256,64,25886,1,0,0:0:0:0:
192,64,25986,1,0,0:0:0:0:
96,128,26186,5,0,0:0:0:0:
96,192,26286,1,0,0:0:0:0:
96,256,26386,1,0,0:0:0:0:
416,256,26586,5,0,0:0:0:0:
416,192,26686,1,0,0:0:0:0:
416,128,26786,1,0,0:0:0:0:
224,320,26986,6,4,L|295:320,2,63.7500024318696
256,128,27386,5,0,0:0:0:0:
256,128,27486,1,0,0:0:0:0:
256,128,27586,1,0,0:0:0:0:
256,288,27786,5,0,0:0:0:0:
256,256,27886,1,0,0:0:0:0:
256,224,27986,1,0,0:0:0:0:
128,64,28186,6,8,P|96:64|96:96,2,63.7500024318696
384,64,28586,6,8,P|416:64|416:96,2,63.7500024318696
160,288,28986,5,0,0:0:0:0:
160,288,29086,1,0,0:0:0:0:
160,288,29186,1,0,0:0:0:0:
354,288,29386,6,0,L|413:347,2,63.7500024318696
128,192,29786,5,0,0:0:0:0:
128,192,29886,1,0,0:0:0:0:
128,192,29986,1,0,0:0:0:0:
393,191,30186,6,8,L|475:192,2,63.7500024318696
96,96,30586,5,0,0:0:0:0:
96,96,30686,1,0,0:0:0:0:
96,96,30786,1,0,0:0:0:0:
416,96,30986,5,0,0:0:0:0:
432,80,31086,1,0,0:0:0:0:
448,64,31186,1,0,0:0:0:0:
224,128,31386,5,4,0:0:0:0:
256,128,31486,1,4,0:0:0:0:
288,128,31586,1,4,0:0:0:0:
192,256,31786,5,4,0:0:0:0:
256,256,31886,1,4,0:0:0:0:
320,256,31986,1,4,0:0:0:0:
160,80,32186,5,0,0:0:0:0:
96,80,32286,1,0,0:0:0:0:
128,135,32386,1,0,0:0:0:0:
352,80,32586,5,0,0:0:0:0:
416,80,32686,1,0,0:0:0:0:
383,136,32786,1,0,0:0:0:0:
160,304,32986,5,0,0:0:0:0:
96,304,33086,1,0,0:0:0:0:
128,252,33186,1,0,0:0:0:0:
352,304,33386,5,4,0:0:0:0:
416,304,33486,1,4,0:0:0:0:
383,251,33586,1,4,0:0:0:0:
112,224,33786,6,0,L|113:148,2,63.7500024318696
256,144,34186,6,0,L|256:219,2,63.7500024318696
401,224,34586,5,8,0:0:0:0:
401,192,34686,1,8,0:0:0:0:
401,160,34786,1,8,0:0:0:0:
416,260,34986,5,8,0:0:0:0:
416,192,35086,1,8,0:0:0:0:
416,123,35186,1,8,0:0:0:0:
320,288,35386,6,0,L|395:288,2,63.7500024318696
192,96,35786,6,0,L|106:96,2,63.7500024318696
224,288,36186,5,0,0:0:0:0:
192,256,36286,1,0,0:0:0:0:
160,224,36386,1,0,0:0:0:0:
256,192,36586,5,8,0:0:0:0:
256,192,36686,1,8,0:0:0:0:
256,192,36786,1,8,0:0:0:0:
288,96,36986,5,0,0:0:0:0:
320,128,37086,1,0,0:0:0:0:
352,160,37186,1,0,0:0:0:0:
288,64,37386,5,0,0:0:0:0:
352,96,37486,1,0,0:0:0:0:
384,160,37586,1,0,0:0:0:0:
64,256,37786,5,4,0:0:0:0:
64,192,37886,1,4,0:0:0:0:
64,128,37986,1,4,0:0:0:0:
128,320,38186,5,4,0:0:0:0:
192,320,38286,1,4,0:0:0:0:
256,320,38386,1,4,0:0:0:0:
256,192,38586,12,0,39586,0:0:0:0:
225,207,39786,5,4,0:0:0:0:
257,169,39886,1,4,0:0:0:0:
289,207,39986,1,4,0:0:0:0:
256,192,40186,12,0,40786,0:0:0:0:
225,207,40986,5,8,0:0:0:0:
257,169,41086,1,8,0:0:0:0:
289,207,41186,1,8,0:0:0:0:
192,222,41386,5,8,0:0:0:0:
257,158,41486,1,8,0:0:0:0:
320,222,41586,1,8,0:0:0:0:
128,160,41786,6,0,L|96:160,1,26.2500010013581
128,160,41886,2,0,L|128:128,1,26.2500010013581
128,160,41986,2,0,L|128:192,1,26.2500010013581
256,160,42186,6,0,L|224:160,1,26.2500010013581
256,160,42286,2,0,L|256:128,1,26.2500010013581
256,160,42386,2,0,L|288:160,1,26.2500010013581
384,160,42586,6,0,L|384:128,1,26.2500010013581
384,160,42686,2,0,L|416:160,1,26.2500010013581
384,160,42786,2,0,L|384:192,1,26.2500010013581
192,256,42986,5,8,0:0:0:0:
256,288,43086,1,8,0:0:0:0:
320,256,43186,1,8,0:0:0:0:
128,160,43386,5,0,0:0:0:0:
128,192,43486,1,0,0:0:0:0:
128,224,43586,1,0,0:0:0:0:
256,128,43786,5,0,0:0:0:0:
256,192,43886,1,0,0:0:0:0:
256,256,43986,1,0,0:0:0:0:
416,160,44186,5,4,0:0:0:0:
448,192,44286,1,4,0:0:0:0:
416,224,44386,1,4,0:0:0:0:
426,128,44586,5,4,0:0:0:0:
458,192,44686,1,4,0:0:0:0:
426,256,44786,1,4,0:0:0:0:
83,151,44986,6,0,L|192:73,1,127.500004863739
186,76,45386,2,0,L|317:76,1,127.500004863739
317,76,45786,2,0,L|420:150,1,127.500004863739
427,252,46186,6,0,L|318:330,1,127.500004863739
323,326,46586,2,0,L|191:325,1,127.500004863739
192,326,46986,2,0,L|88:251,1,127.500004863739
64,64,47386,6,8,L|63:138,2,63.7500024318696
192,160,47785,2,8,L|192:82,2,63.7500024318696
320,64,48186,6,0,L|321:139,2,63.7500024318696
448,160,48586,2,0,L|447:82,2,63.7500024318696
448,224,48986,2,0,L|449:293,2,63.7500024318696
320,288,49386,6,8,L|320:199,2,63.7500024318696
192,231,49786,6,4,L|192:287,7,31.8750012159348
96,288,50186,6,4,L|96:232,7,31.8750012159348
96,224,50586,5,4,0:0:0:0:
112,184,50686,1,4,0:0:0:0:
144,144,50786,1,4,0:0:0:0:
184,120,50886,1,4,0:0:0:0:
232,112,50986,1,4,0:0:0:0:
280,120,51086,1,4,0:0:0:0:
320,144,51186,1,4,0:0:0:0:
352,184,51286,1,4,0:0:0:0:
368,224,51386,1,4,0:0:0:0:
256,192,55271,12,0,59834,0:0:0:0:
160,128,60084,5,0,0:0:0:0:
128,96,60284,2,0,L|68:96,3,42.5
352,256,60884,5,0,0:0:0:0:
384,288,61084,2,0,L|444:290,3,42.5
64,256,61684,5,0,0:0:0:0:
96,288,61884,2,0,L|157:288,3,42.5
448,128,62484,5,0,0:0:0:0:
416,96,62684,2,0,L|356:96,3,42.5
189,80,63284,6,0,L|333:80,1,127.5
336,112,63684,1,4,0:0:0:0:
320,128,63784,1,4,0:0:0:0:
304,144,63884,1,4,0:0:0:0:
288,160,63984,1,4,0:0:0:0:
268,180,64084,1,0,0:0:0:0:
250,200,64284,6,0,L|212:237,3,42.5
112,304,64734,1,0,0:0:0:0:
80,144,64884,2,0,L|128:128,1,42.5
308,82,65084,1,0,0:0:0:0:
354,92,65184,1,0,0:0:0:0:
401,103,65284,1,0,0:0:0:0:
448,114,65384,1,0,0:0:0:0:
391,280,65534,6,0,L|394:305,5,21.25
257,121,65884,1,0,0:0:0:0:
211,111,65984,1,0,0:0:0:0:
164,100,66084,1,0,0:0:0:0:
117,89,66184,1,0,0:0:0:0:
77,206,66334,1,0,0:0:0:0:
192,304,66484,6,0,L|245:325,3,42.5
48,112,66884,2,0,L|66:156,1,42.5
96,224,67084,1,0,0:0:0:0:
127,296,67184,2,0,L|144:336,1,42.5
330,330,67384,2,0,L|354:310,4,21.25
433,248,67684,2,0,L|432:195,1,42.5
400,64,67884,1,0,0:0:0:0:
336,64,67984,1,0,0:0:0:0:
272,64,68084,2,0,L|224:64,3,42.5
141,76,68584,2,0,B|96:96|96:96|74:123,1,85
176,320,68884,1,0,0:0:0:0:
208,288,68984,1,0,0:0:0:0:
256,288,69084,1,0,0:0:0:0:
288,320,69184,1,0,0:0:0:0:
391,104,69334,6,0,L|394:79,5,21.25
288,128,69684,1,0,0:0:0:0:
256,96,69784,1,0,0:0:0:0:
208,96,69884,1,0,0:0:0:0:
176,64,69984,1,0,0:0:0:0:
128,64,70084,1,0,0:0:0:0:
96,32,70184,2,0,P|55:61|48:112,1,85
64,240,70484,2,0,L|104:238,4,21.25
160,304,70784,1,0,0:0:0:0:
224,240,70884,1,0,0:0:0:0:
288,176,70984,2,0,L|320:208,1,42.5
400,288,71184,6,0,L|418:312,4,21.25
480,176,71484,2,0,L|481:229,1,42.5
480,320,71684,1,0,0:0:0:0:
368,320,71784,1,0,0:0:0:0:
256,320,71884,1,0,0:0:0:0:
144,320,71984,1,0,0:0:0:0:
32,320,72084,2,0,L|32:272,3,42.5
32,144,72584,1,0,0:0:0:0:
192,80,72784,2,0,L|240:64,4,42.5
32,144,73384,1,0,0:0:0:0:
119,302,73534,6,0,L|90:316,3,21.25
273,227,73784,1,0,0:0:0:0:
278,224,73884,1,0,0:0:0:0:
283,220,73984,1,0,0:0:0:0:
288,216,74084,1,0,0:0:0:0:
295,212,74184,1,0,0:0:0:0:
407,107,74384,6,0,L|460:128,3,42.5
273,69,74784,2,0,L|237:102,1,42.5
150,180,74984,1,0,0:0:0:0:
150,180,75084,2,0,L|112:208,1,42.5
84,311,75284,2,0,L|108:291,4,21.25
258,310,75584,2,0,L|257:257,1,42.5
217,120,75784,1,0,0:0:0:0:
298,123,75884,1,0,0:0:0:0:
258,61,75984,1,0,0:0:0:0:
0,384,76184,6,0,L|10:384,1,8.75
512,192,76584,6,0,L|500:191,1,8.75
0,0,76984,6,0,L|8:0,1,8.75
256,192,77384,5,8,0:0:0:0:
224,320,77684,5,0,0:0:0:0:
160,288,77884,1,0,0:0:0:0:
128,224,77984,1,0,0:0:0:0:
256,192,78184,1,8,0:0:0:0:
288,64,78484,5,0,0:0:0:0:
352,96,78684,1,0,0:0:0:0:
384,160,78784,1,0,0:0:0:0:
256,192,78984,1,8,0:0:0:0:
96,192,79284,5,0,0:0:0:0:
128,64,79484,1,0,0:0:0:0:
256,32,79584,1,0,0:0:0:0:
256,192,79784,1,8,0:0:0:0:
416,192,80084,5,0,0:0:0:0:
384,320,80284,1,0,0:0:0:0:
256,352,80384,1,0,0:0:0:0:
256,192,80584,1,8,0:0:0:0:
256,192,80884,5,0,0:0:0:0:
256,192,81084,1,0,0:0:0:0:
256,192,81184,1,0,0:0:0:0:
256,192,81384,1,0,0:0:0:0:
96,96,81684,5,0,0:0:0:0:
32,192,81884,1,0,0:0:0:0:
192,192,81984,1,0,0:0:0:0:
192,32,82184,1,0,0:0:0:0:
256,192,82484,5,0,0:0:0:0:
256,112,82684,1,0,0:0:0:0:
256,272,82784,1,0,0:0:0:0:
256,192,82984,1,8,0:0:0:0:
52,305,83284,6,0,P|63:262|70:330,1,233.75
256,192,84084,5,0,0:0:0:0:
320,256,84284,1,0,0:0:0:0:
192,128,84384,1,0,0:0:0:0:
256,192,84584,1,8,0:0:0:0:
384,32,84884,5,0,0:0:0:0:
352,160,85084,1,0,0:0:0:0:
480,128,85184,1,0,0:0:0:0:
480,256,85384,1,0,0:0:0:0:
256,192,85684,5,0,0:0:0:0:
320,128,85884,1,0,0:0:0:0:
192,256,85984,1,0,0:0:0:0:
256,192,86184,1,8,0:0:0:0:
460,305,86484,6,0,P|448:262|441:330,1,233.75
256,192,87284,5,0,0:0:0:0:
176,192,87484,1,0,0:0:0:0:
336,192,87584,1,0,0:0:0:0:
256,192,87784,1,8,0:0:0:0:
160,96,88084,5,0,0:0:0:0:
128,160,88284,1,0,0:0:0:0:
224,64,88384,1,0,0:0:0:0:
256,192,88584,1,8,0:0:0:0:
352,96,88884,5,0,0:0:0:0:
384,160,89084,1,0,0:0:0:0:
288,64,89184,1,0,0:0:0:0:
256,192,89384,1,8,0:0:0:0:
128,320,89684,5,0,0:0:0:0:
96,192,89884,1,0,0:0:0:0:
256,352,89984,1,0,0:0:0:0:
256,192,90184,1,8,0:0:0:0:
384,320,90484,5,0,0:0:0:0:
416,192,90684,1,0,0:0:0:0:
256,352,90784,1,0,0:0:0:0:
256,192,90984,1,8,0:0:0:0:
256,192,91334,12,0,96434,0:0:0:0:
160,208,96984,6,0,L|159:149,2,42.5
352,176,97384,6,0,L|353:236,2,42.5
256,192,97784,5,0,0:0:0:0:
256,192,97884,1,0,0:0:0:0:
256,192,97984,1,0,0:0:0:0:
224,160,98184,5,4,0:0:0:0:
256,192,98284,1,4,0:0:0:0:
288,224,98384,1,4,0:0:0:0:
32,32,98584,5,0,0:0:0:0:
32,32,98684,1,0,0:0:0:0:
32,32,98784,1,0,0:0:0:0:
480,32,98984,5,0,0:0:0:0:
480,32,99084,1,0,0:0:0:0:
480,32,99184,1,0,0:0:0:0:
32,352,99384,5,8,0:0:0:0:
32,352,99484,1,8,0:0:0:0:
32,352,99584,1,8,0:0:0:0:
480,352,99784,5,8,0:0:0:0:
480,352,99884,1,8,0:0:0:0:
480,352,99984,1,8,0:0:0:0:
96,160,100184,6,0,P|96:80|160:96,2,170
303,144,101384,5,8,0:0:0:0:
256,192,101484,1,8,0:0:0:0:
209,241,101584,1,8,0:0:0:0:
416,224,101784,6,0,P|430:302|352:288,2,170
416,224,102684,1,4,0:0:0:0:
416,224,102784,1,4,0:0:0:0:
256,192,102984,5,4,0:0:0:0:
256,192,103084,1,4,0:0:0:0:
256,192,103184,1,4,0:0:0:0:
192,224,103384,5,0,0:0:0:0:
192,192,103484,1,0,0:0:0:0:
192,160,103584,1,0,0:0:0:0:
320,160,103784,5,0,0:0:0:0:
320,192,103884,1,0,0:0:0:0:
320,224,103984,1,0,0:0:0:0:
192,224,104184,5,0,0:0:0:0:
192,192,104284,1,0,0:0:0:0:
192,160,104384,1,0,0:0:0:0:
352,145,104584,5,4,0:0:0:0:
353,192,104684,1,4,0:0:0:0:
352,240,104784,1,4,0:0:0:0:
160,240,104984,5,0,0:0:0:0:
160,192,105084,1,0,0:0:0:0:
160,144,105184,1,0,0:0:0:0:
352,144,105384,5,0,0:0:0:0:
352,192,105484,1,0,0:0:0:0:
352,240,105584,1,0,0:0:0:0:
160,256,105784,5,8,0:0:0:0:
128,192,105884,1,8,0:0:0:0:
160,128,105984,1,8,0:0:0:0:
160,128,106184,5,8,0:0:0:0:
111,192,106284,1,8,0:0:0:0:
160,256,106384,1,8,0:0:0:0:
352,256,106584,5,0,0:0:0:0:
352,192,106684,1,0,0:0:0:0:
352,128,106784,1,0,0:0:0:0:
160,128,106984,5,0,0:0:0:0:
160,192,107084,1,0,0:0:0:0:
160,256,107184,1,0,0:0:0:0:
384,256,107384,5,0,0:0:0:0:
384,192,107484,1,0,0:0:0:0:
384,128,107584,1,0,0:0:0:0:
128,144,107784,5,8,0:0:0:0:
128,192,107884,1,8,0:0:0:0:
128,240,107984,1,8,0:0:0:0:
416,256,108184,5,0,0:0:0:0:
416,192,108284,1,0,0:0:0:0:
416,128,108384,1,0,0:0:0:0:
384,128,108584,5,0,0:0:0:0:
448,192,108684,1,0,0:0:0:0:
384,256,108784,1,0,0:0:0:0:
192,64,108984,6,4,L|338:64,1,127.500004863739
320,320,109384,6,4,L|176:321,1,127.500004863739
96,160,109784,6,0,L|96:80,2,63.7500024318696
208,224,110184,6,0,L|208:304,2,63.7500024318696
320,160,110584,6,0,L|320:80,2,63.7500024318696
448,224,110984,5,4,0:0:0:0:
448,256,111084,1,4,0:0:0:0:
448,288,111184,1,4,0:0:0:0:
224,256,111384,5,0,0:0:0:0:
192,192,111484,1,0,0:0:0:0:
224,128,111584,1,0,0:0:0:0:
288,256,111784,5,0,0:0:0:0:
320,192,111884,1,0,0:0:0:0:
288,128,111984,1,0,0:0:0:0:
160,256,112184,5,8,0:0:0:0:
128,192,112284,1,8,0:0:0:0:
160,128,112384,1,8,0:0:0:0:
352,256,112584,5,8,0:0:0:0:
384,192,112684,1,8,0:0:0:0:
352,128,112784,1,8,0:0:0:0:
192,192,112984,6,0,L|112:192,2,63.7500024318696
352,192,113384,5,0,0:0:0:0:
352,192,113484,1,0,0:0:0:0:
352,192,113584,1,0,0:0:0:0:
160,128,113784,6,0,L|80:128,2,63.7500024318696
432,288,114184,5,8,0:0:0:0:
384,288,114284,1,8,0:0:0:0:
336,288,114384,1,8,0:0:0:0:
128,112,114584,6,0,L|127:244,2,127.500004863739
131,96,115084,1,0,0:0:0:0:
131,96,115184,1,0,0:0:0:0:
384,258,115384,6,4,L|384:113,2,127.500004863739
384,258,115884,1,4,0:0:0:0:
384,258,115984,1,4,0:0:0:0:
224,96,116184,5,0,0:0:0:0:
256,96,116284,1,0,0:0:0:0:
288,96,116384,1,0,0:0:0:0:
288,288,116584,5,0,0:0:0:0:
256,288,116684,1,0,0:0:0:0:
224,288,116784,1,0,0:0:0:0:
224,96,116984,5,0,0:0:0:0:
256,96,117084,1,0,0:0:0:0:
288,96,117184,1,0,0:0:0:0:
192,288,117384,5,4,0:0:0:0:
256,288,117484,1,4,0:0:0:0:
320,288,117584,1,4,0:0:0:0:
288,80,117784,5,0,0:0:0:0:
256,80,117884,1,0,0:0:0:0:
224,80,117984,1,0,0:0:0:0:
224,304,118184,5,0,0:0:0:0:
256,304,118284,1,0,0:0:0:0:
288,304,118384,1,0,0:0:0:0:
320,80,118584,5,8,0:0:0:0:
256,48,118684,1,8,0:0:0:0:
192,80,118784,1,8,0:0:0:0:
192,304,118984,5,8,0:0:0:0:
256,336,119084,1,8,0:0:0:0:
320,304,119184,1,8,0:0:0:0:
133,128,119384,6,0,B|189:83|333:83|391:139,2,255.000009727478
256,192,120584,5,8,0:0:0:0:
256,192,120684,1,8,0:0:0:0:
256,192,120784,1,8,0:0:0:0:
135,261,120984,6,0,B|191:306|335:306|393:250,2,255.000009727478
135,261,121884,1,4,0:0:0:0:
135,261,121984,1,4,0:0:0:0:
224,192,122184,5,4,0:0:0:0:
224,192,122284,1,4,0:0:0:0:
288,192,122384,1,4,0:0:0:0:
192,288,122584,6,0,P|157:293|160:256,2,63.7500024318696
320,96,122978,6,0,P|354:93|352:128,2,63.7500024318696
224,224,123384,5,0,0:0:0:0:
256,192,123484,1,0,0:0:0:0:
288,160,123584,1,0,0:0:0:0:
331,301,123784,6,4,P|362:299|363:269,2,63.7500024318696
179,85,124178,6,0,P|146:87|147:117,2,63.7500024318696
304,240,124584,5,0,0:0:0:0:
256,192,124684,1,0,0:0:0:0:
208,144,124784,1,0,0:0:0:0:
288,256,124984,5,8,0:0:0:0:
224,256,125084,1,8,0:0:0:0:
288,256,125184,1,8,0:0:0:0:
224,128,125384,5,8,0:0:0:0:
288,128,125484,1,8,0:0:0:0:
224,128,125584,1,8,0:0:0:0:
128,256,125784,6,0,L|128:336,2,63.7500024318696
256,320,126184,6,0,L|255:241,2,63.7500024318696
384,256,126584,6,0,L|384:336,2,63.7500024318696
256,128,126984,6,8,L|256:46,2,63.7500024318696
256,336,127384,6,4,L|255:278,7,31.8750012159348
206,241,127784,6,4,L|144:240,8,31.8750012159348
144,240,128234,5,4,0:0:0:0:
104,224,128334,1,0,0:0:0:0:
77,196,128434,1,4,0:0:0:0:
67,154,128534,1,4,0:0:0:0:
83,117,128634,1,4,0:0:0:0:
112,95,128734,1,4,0:0:0:0:
154,103,128834,1,4,0:0:0:0:
176,134,128934,1,4,0:0:0:0:
224,160,129015,5,0,0:0:0:0:
256,160,129115,1,0,0:0:0:0:
288,160,129215,1,0,0:0:0:0:
192,192,129415,5,0,0:0:0:0:
256,192,129515,1,0,0:0:0:0:
320,192,129615,1,0,0:0:0:0:
160,224,129815,5,0,0:0:0:0:
256,224,129915,1,0,0:0:0:0:
352,224,130015,1,0,0:0:0:0:
96,144,130215,6,4,L|95:204,2,42.5
192,96,130615,5,0,0:0:0:0:
256,96,130715,1,0,0:0:0:0:
320,96,130815,1,0,0:0:0:0:
384,128,131015,5,0,0:0:0:0:
384,192,131115,1,0,0:0:0:0:
384,256,131215,1,0,0:0:0:0:
96,112,131415,5,8,0:0:0:0:
96,192,131515,1,8,0:0:0:0:
96,272,131615,1,8,0:0:0:0:
176,320,131815,5,8,0:0:0:0:
256,320,131915,1,8,0:0:0:0:
336,320,132015,1,8,0:0:0:0:
224,160,132215,5,0,0:0:0:0:
176,112,132315,1,0,0:0:0:0:
128,64,132415,1,0,0:0:0:0:
288,224,132615,5,0,0:0:0:0:
336,272,132715,1,0,0:0:0:0:
384,320,132815,1,0,0:0:0:0:
256,192,133015,5,0,0:0:0:0:
256,192,133115,1,0,0:0:0:0:
256,192,133215,1,0,0:0:0:0:
107,92,133415,6,8,P|113:71|139:78,2,42.5
208,144,133815,5,0,0:0:0:0:
256,192,133915,1,0,0:0:0:0:
304,240,134015,1,0,0:0:0:0:
208,144,134215,5,0,0:0:0:0:
308,236,134315,1,0,0:0:0:0:
208,144,134415,1,0,0:0:0:0:
304,240,134615,5,4,0:0:0:0:
256,192,134715,1,4,0:0:0:0:
208,144,134815,1,4,0:0:0:0:
320,128,135015,5,4,0:0:0:0:
256,192,135115,1,4,0:0:0:0:
192,256,135215,1,4,0:0:0:0:
288,64,135415,5,0,0:0:0:0:
352,96,135515,1,0,0:0:0:0:
384,160,135615,1,0,0:0:0:0:
224,320,135815,5,0,0:0:0:0:
160,288,135915,1,0,0:0:0:0:
128,224,136015,1,0,0:0:0:0:
384,224,136215,5,0,0:0:0:0:
352,288,136315,1,0,0:0:0:0:
288,320,136415,1,0,0:0:0:0:
224,48,136615,5,4,0:0:0:0:
144,80,136715,1,4,0:0:0:0:
112,160,136815,1,4,0:0:0:0:
231,165,137015,5,0,0:0:0:0:
256,192,137115,1,0,0:0:0:0:
280,216,137215,1,0,0:0:0:0:
288,160,137415,5,0,0:0:0:0:
256,192,137515,1,0,0:0:0:0:
224,224,137615,1,0,0:0:0:0:
192,128,137815,5,8,0:0:0:0:
256,192,137915,1,8,0:0:0:0:
320,256,138015,1,8,0:0:0:0:
320,128,138215,5,8,0:0:0:0:
256,192,138315,1,8,0:0:0:0:
192,256,138415,1,8,0:0:0:0:
156,59,138615,6,0,P|141:51|112:64,2,42.5
355,324,139015,6,0,P|375:333|394:326,2,42.5
105,324,139365,6,0,P|125:336|152:315,2,42.5
408,55,139765,6,8,P|390:45|363:60,2,42.5
96,112,140165,5,0,0:0:0:0:
96,192,140265,1,0,0:0:0:0:
96,272,140365,1,0,0:0:0:0:
256,192,140565,5,0,0:0:0:0:
256,192,140665,1,0,0:0:0:0:
256,192,140765,1,0,0:0:0:0:
448,272,140965,5,4,0:0:0:0:
448,192,141065,1,4,0:0:0:0:
448,112,141165,1,4,0:0:0:0:
80,192,141365,5,4,0:0:0:0:
144,192,141465,1,4,0:0:0:0:
256,192,141565,1,4,0:0:0:0:
128,160,141765,5,0,0:0:0:0:
128,192,141865,1,0,0:0:0:0:
128,224,141965,1,0,0:0:0:0:
224,320,142165,5,0,0:0:0:0:
256,320,142265,1,0,0:0:0:0:
288,320,142365,1,0,0:0:0:0:
416,224,142565,5,0,0:0:0:0:
416,192,142665,1,0,0:0:0:0:
416,160,142765,1,0,0:0:0:0:
416,288,142965,5,4,0:0:0:0:
416,192,143065,1,4,0:0:0:0:
416,96,143165,1,4,0:0:0:0:
224,64,143365,5,0,0:0:0:0:
256,64,143465,1,0,0:0:0:0:
288,64,143565,1,0,0:0:0:0:
208,80,143765,5,0,0:0:0:0:
256,112,143865,1,0,0:0:0:0:
304,80,143965,1,0,0:0:0:0:
191,136,144165,5,8,0:0:0:0:
256,80,144265,1,8,0:0:0:0:
318,133,144365,1,8,0:0:0:0:
258,320,144565,6,8,L|257:260,2,42.5
159,197,145015,6,0,P|258:79|352:208,2,350.625013375283
254,163,146365,5,8,0:0:0:0:
322,216,146615,6,0,P|293:334|191:205,1,350.625013375283
256,240,147415,5,4,0:0:0:0:
256,240,147515,1,4,0:0:0:0:
256,240,147615,1,4,0:0:0:0:
256,80,147815,5,4,0:0:0:0:
256,160,147915,1,4,0:0:0:0:
256,80,148015,1,4,0:0:0:0:
64,320,148215,6,0,L|64:238,2,63.7500024318696
448,224,148615,6,0,L|448:308,2,63.7500024318696
192,320,149015,6,0,L|193:236,2,63.7500024318696
320,224,149415,6,4,L|319:306,2,63.7500024318696
256,192,149815,6,0,L|170:192,2,63.7500024318696
256,192,150215,6,0,L|255:106,2,63.7500024318696
256,192,150615,6,8,L|338:191,2,63.7500024318696
256,208,151015,5,8,0:0:0:0:
256,240,151115,1,8,0:0:0:0:
256,272,151215,1,8,0:0:0:0:
240,192,151365,5,0,0:0:0:0:
240,176,151465,1,0,0:0:0:0:
256,176,151565,1,0,0:0:0:0:
272,176,151665,1,0,0:0:0:0:
272,192,151765,1,0,0:0:0:0:
272,208,151865,1,0,0:0:0:0:
256,208,151965,1,0,0:0:0:0:
240,208,152065,1,0,0:0:0:0:
224,208,152165,5,0,0:0:0:0:
208,208,152265,1,0,0:0:0:0:
208,192,152365,1,0,0:0:0:0:
208,176,152465,1,0,0:0:0:0:
208,160,152565,1,8,0:0:0:0:
208,144,152665,1,8,0:0:0:0:
208,128,152765,1,8,0:0:0:0:
224,128,152865,1,0,0:0:0:0:
261,127,152965,2,4,L|261:79,6,39.3750015020371
304,128,153415,5,4,0:0:0:0:
368,128,153515,1,4,0:0:0:0:
368,192,153615,1,4,0:0:0:0:
368,256,153715,1,4,0:0:0:0:
306,319,153815,2,0,L|370:319,2,63.7500024318696
240,320,154115,5,4,0:0:0:0:
176,320,154215,1,4,0:0:0:0:
112,320,154315,1,4,0:0:0:0:
112,256,154415,1,4,0:0:0:0:
112,192,154515,1,0,0:0:0:0:
192,160,154615,5,0,0:0:0:0:
242,113,154715,1,0,0:0:0:0:
288,64,154815,1,0,0:0:0:0:
160,192,155015,5,0,0:0:0:0:
224,128,155115,1,0,0:0:0:0:
288,64,155215,1,0,0:0:0:0:
96,256,155415,5,0,0:0:0:0:
192,160,155515,1,0,0:0:0:0:
288,64,155615,1,0,0:0:0:0:
96,96,155815,5,4,0:0:0:0:
416,288,156015,1,4,0:0:0:0:
160,288,156215,5,0,0:0:0:0:
160,192,156315,1,0,0:0:0:0:
160,96,156415,1,0,0:0:0:0:
352,96,156615,5,0,0:0:0:0:
352,192,156715,1,0,0:0:0:0:
352,288,156815,1,0,0:0:0:0:
128,96,157015,5,8,0:0:0:0:
256,96,157115,1,8,0:0:0:0:
384,96,157215,1,8,0:0:0:0:
128,288,157415,5,8,0:0:0:0:
256,288,157515,1,8,0:0:0:0:
384,288,157615,1,8,0:0:0:0:
128,128,157815,5,0,0:0:0:0:
176,48,157915,1,0,0:0:0:0:
80,48,158015,1,0,0:0:0:0:
304,336,158215,5,0,0:0:0:0:
256,256,158315,1,0,0:0:0:0:
208,336,158415,1,0,0:0:0:0:
432,48,158615,5,0,0:0:0:0:
384,128,158715,1,0,0:0:0:0:
336,48,158815,1,0,0:0:0:0:
16,192,159015,5,8,0:0:0:0:
496,192,159215,1,8,0:0:0:0:
160,256,159415,5,0,0:0:0:0:
256,256,159515,1,0,0:0:0:0:
352,256,159615,1,0,0:0:0:0:
160,128,159815,5,0,0:0:0:0:
256,128,159915,1,0,0:0:0:0:
352,128,160015,1,0,0:0:0:0:
160,256,160215,5,4,0:0:0:0:
352,256,160315,1,4,0:0:0:0:
160,256,160415,1,4,0:0:0:0:
352,128,160615,5,4,0:0:0:0:
160,128,160715,1,4,0:0:0:0:
352,128,160815,1,4,0:0:0:0:
352,192,161015,5,0,0:0:0:0:
256,192,161115,1,0,0:0:0:0:
160,192,161215,1,0,0:0:0:0:
384,224,161415,5,0,0:0:0:0:
256,192,161515,1,0,0:0:0:0:
128,160,161615,1,0,0:0:0:0:
416,160,161815,5,0,0:0:0:0:
256,192,161915,1,0,0:0:0:0:
96,224,162015,1,0,0:0:0:0:
448,256,162215,5,4,0:0:0:0:
96,128,162415,1,4,0:0:0:0:
128,288,162615,5,0,0:0:0:0:
128,192,162715,1,0,0:0:0:0:
128,96,162815,1,0,0:0:0:0:
256,333,163015,5,0,0:0:0:0:
256,192,163115,1,0,0:0:0:0:
257,55,163215,1,0,0:0:0:0:
384,273,163415,5,8,0:0:0:0:
448,192,163515,1,8,0:0:0:0:
384,113,163615,1,8,0:0:0:0:
448,320,163815,5,8,0:0:0:0:
384,192,163915,1,8,0:0:0:0:
448,64,164015,1,8,0:0:0:0:
256,64,164215,5,0,0:0:0:0:
256,192,164315,1,0,0:0:0:0:
256,320,164415,1,0,0:0:0:0:
192,64,164615,5,0,0:0:0:0:
256,192,164715,1,0,0:0:0:0:
320,320,164815,1,0,0:0:0:0:
128,64,165015,5,0,0:0:0:0:
256,192,165115,1,0,0:0:0:0:
384,320,165215,1,0,0:0:0:0:
64,64,165415,5,8,0:0:0:0:
448,320,165615,1,8,0:0:0:0:
512,32,165815,5,0,0:0:0:0:
480,48,165915,1,0,0:0:0:0:
448,64,166015,1,0,0:0:0:0:
0,352,166215,5,0,0:0:0:0:
32,336,166315,1,0,0:0:0:0:
64,320,166415,1,0,0:0:0:0:
320,128,166615,5,4,0:0:0:0:
192,256,166715,1,4,0:0:0:0:
256,192,166815,1,4,0:0:0:0:
256,192,167015,5,4,0:0:0:0:
256,192,167115,1,4,0:0:0:0:
256,192,167215,1,4,0:0:0:0:
200,240,167415,5,0,0:0:0:0:
256,144,167515,1,0,0:0:0:0:
312,240,167615,1,0,0:0:0:0:
256,112,167815,5,0,0:0:0:0:
352,272,167915,1,0,0:0:0:0:
160,272,168015,1,0,0:0:0:0:
384,288,168215,5,0,0:0:0:0:
128,288,168315,1,0,0:0:0:0:
256,64,168415,1,0,0:0:0:0:
256,192,168615,5,4,0:0:0:0:
256,192,168815,1,4,0:0:0:0:
256,32,169015,5,0,0:0:0:0:
256,192,169115,1,0,0:0:0:0:
256,352,169215,1,0,0:0:0:0:
32,192,169415,5,0,0:0:0:0:
256,192,169515,1,0,0:0:0:0:
480,192,169615,1,0,0:0:0:0:
32,352,169815,5,8,0:0:0:0:
256,192,169915,1,8,0:0:0:0:
480,32,170015,1,8,0:0:0:0:
480,352,170215,5,8,0:0:0:0:
256,192,170315,1,8,0:0:0:0:
32,32,170415,1,8,0:0:0:0:
416,64,170615,5,0,0:0:0:0:
256,192,170715,1,0,0:0:0:0:
96,320,170815,1,0,0:0:0:0:
256,49,171015,5,0,0:0:0:0:
256,192,171115,1,0,0:0:0:0:
255,336,171215,1,0,0:0:0:0:
144,192,171415,5,0,0:0:0:0:
256,192,171515,1,0,0:0:0:0:
366,191,171615,1,0,0:0:0:0:
160,96,171815,5,8,0:0:0:0:
352,288,172015,1,8,0:0:0:0:
0,16,172215,5,0,0:0:0:0:
0,16,172315,1,0,0:0:0:0:
0,16,172415,1,0,0:0:0:0:
512,16,172615,5,0,0:0:0:0:
512,16,172715,1,0,0:0:0:0:
512,16,172815,1,0,0:0:0:0:
0,368,173015,5,4,0:0:0:0:
0,368,173115,1,4,0:0:0:0:
0,368,173215,1,4,0:0:0:0:
512,368,173415,5,4,0:0:0:0:
512,368,173515,1,4,0:0:0:0:
512,368,173615,1,4,0:0:0:0:
128,192,173815,6,0,L|192:192,2,63.7500024318696
256,64,174215,6,0,L|256:128,2,63.7500024318696
384,192,174615,6,0,L|304:192,2,63.7500024318696
256,320,175015,6,4,L|256:256,2,63.7500024318696
64,320,175415,6,0,L|112:272,2,63.7500024318696
448,64,175815,6,0,L|400:112,2,63.7500024318696
64,64,176215,6,8,L|112:112,2,63.7500024318696
448,320,176615,6,8,L|400:272,2,63.7500024318696
272,192,177015,1,0,0:0:0:0:
256,176,177115,1,0,0:0:0:0:
272,160,177215,1,0,0:0:0:0:
256,144,177315,1,0,0:0:0:0:
272,128,177415,1,0,0:0:0:0:
256,112,177515,1,0,0:0:0:0:
240,128,177615,1,0,0:0:0:0:
256,144,177715,1,0,0:0:0:0:
240,160,177815,1,0,0:0:0:0:
256,176,177915,1,0,0:0:0:0:
240,192,178015,1,0,0:0:0:0:
256,208,178115,1,0,0:0:0:0:
240,224,178215,1,8,0:0:0:0:
256,240,178315,1,8,0:0:0:0:
240,256,178415,1,8,0:0:0:0:
256,272,178515,1,0,0:0:0:0:
240,288,178615,6,4,L|263:313,13,31.8750012159348
288,336,179365,5,0,0:0:0:0:
336,352,179465,1,4,0:0:0:0:
384,336,179565,1,4,0:0:0:0:
400,288,179665,1,4,0:0:0:0:
384,240,179765,1,0,0:0:0:0:
336,224,179865,5,4,0:0:0:0:
330,229,179915,1,4,0:0:0:0:
323,233,179965,1,4,0:0:0:0:
317,238,180015,1,4,0:0:0:0:
310,243,180065,1,4,0:0:0:0:
304,247,180115,1,4,0:0:0:0:
256,192,180215,5,0,0:0:0:0:
256,192,180315,1,0,0:0:0:0:
256,192,180415,1,0,0:0:0:0:
336,192,180615,5,0,0:0:0:0:
368,192,180715,1,0,0:0:0:0:
400,192,180815,1,0,0:0:0:0:
176,192,181015,5,0,0:0:0:0:
144,192,181115,1,0,0:0:0:0:
112,192,181215,1,0,0:0:0:0:
256,152,181415,6,4,L|255:227,1,63.7500024318696
160,256,181815,6,0,L|201:255,2,31.8750012159348
160,256,182215,6,0,L|125:256,2,31.8750012159348
336,128,182615,5,8,0:0:0:0:
368,128,182715,1,8,0:0:0:0:
400,128,182815,1,8,0:0:0:0:
416,128,183015,5,8,0:0:0:0:
368,128,183115,1,8,0:0:0:0:
320,128,183215,1,8,0:0:0:0:
192,192,183415,6,0,L|329:192,2,127.500004863739
272,192,184565,6,8,L|304:192,2,31.8750012159348
224,160,184965,5,0,0:0:0:0:
256,144,185065,1,0,0:0:0:0:
288,160,185165,1,0,0:0:0:0:
208,160,185365,5,0,0:0:0:0:
256,128,185465,1,0,0:0:0:0:
304,160,185565,1,0,0:0:0:0:
224,224,185765,5,4,0:0:0:0:
256,240,185865,1,4,0:0:0:0:
288,224,185965,1,4,0:0:0:0:
208,224,186165,5,4,0:0:0:0:
256,256,186265,1,4,0:0:0:0:
304,224,186365,1,4,0:0:0:0:
256,192,186565,12,0,190605,0:0:0:0:
