osu file format v14

[General]
AudioFilename: audio.mp3
AudioLeadIn: 0
PreviewTime: 154578
Countdown: 1
SampleSet: None
StackLeniency: 0.7
Mode: 0
LetterboxInBreaks: 0
WidescreenStoryboard: 0

[Editor]
DistanceSpacing: 1
BeatDivisor: 16
GridSize: 32
TimelineZoom: 5.099997

[Metadata]
Title:Eurodancer
TitleUnicode:Eurodancer
Artist:DJ Mangoo
ArtistUnicode:DJ Mangoo
Creator:Nokamu
Version:Easy
Source:
Tags:djmango eurodancer electro
BeatmapID:1320852
BeatmapSetID:626727

[Difficulty]
HPDrainRate:3
CircleSize:3
OverallDifficulty:4
ApproachRate:5
SliderMultiplier:1.1
SliderTickRate:1

[Events]
//Background and Video events
0,0,"Hyperspace 06.jpg",0,0
//Break Periods
2,51587,61346
2,77202,88609
//Storyboard Layer 0 (Background)
//Storyboard Layer 1 (Fail)
//Storyboard Layer 2 (Pass)
//Storyboard Layer 3 (Foreground)
//Storyboard Sound Samples

[TimingPoints]
0,300,4,3,0,100,1,0
0,-100,4,3,0,100,0,0
19200,333.333333333333,4,3,0,100,1,0
25679,-100,4,3,0,100,0,1
51484,300,4,3,0,100,1,0
51484,-133.333333333333,4,3,0,100,0,0
103290,-133.333333333333,4,3,0,100,0,0
128959,272.727272727273,4,3,0,100,1,0
128959,-100,4,3,0,100,0,1
144896,-100,4,3,0,100,0,0
154578,-66.6666666666667,4,3,0,100,0,1
180129,-133.333333333333,4,3,0,100,0,0

[HitObjects]
256,192,13031,12,0,19125,0:0:0:0:
128,192,19366,6,0,P|128:96|224:96,1,213.125
352,96,20554,1,0,0:0:0:0:
352,288,20970,2,0,B|256:224|288:288|256:352|224:288|256:224|160:288,1,226.875
192,160,22179,1,0,0:0:0:0:
256,288,22595,2,0,P|352:288|352:192,1,213.125
256,192,23783,1,0,0:0:0:0:
160,96,24179,2,0,B|256:160|224:96|256:32|288:96|256:160|352:96,1,226.875
352,224,25366,1,0,0:0:0:0:
235,234,25783,6,0,B|277:156|300:187|273:213|236:145,2,130.625
210,138,26970,1,0,0:0:0:0:
325,101,27366,2,0,B|412:173|409:226|483:89|393:73|335:193,1,275
235,289,28575,2,0,L|269:289,2,34.375
147,229,28991,5,0,0:0:0:0:
203,173,29387,1,0,0:0:0:0:
128,142,29783,1,0,0:0:0:0:
194,88,30179,2,0,B|315:112|336:194|257:280,2,268.125
161,180,32200,5,0,0:0:0:0:
198,281,32595,1,0,0:0:0:0:
289,312,32991,1,0,0:0:0:0:
364,264,33387,2,0,B|369:228|369:228|364:198,1,61.875
363,182,33804,2,0,B|356:144|356:144|363:116,1,61.875
362,102,34158,1,0,0:0:0:0:
262,92,34595,2,0,P|183:187|258:288,1,268.125
377,230,35783,6,0,B|340:156|271:196,2,130.625
283,296,36991,1,0,0:0:0:0:
156,249,37387,2,0,B|208:311|273:279,2,130.625
127,157,38595,5,0,0:0:0:0:
181,108,38991,1,0,0:0:0:0:
232,158,39387,1,0,0:0:0:0:
383,122,39783,2,0,B|392:176|392:176|374:231|374:231|383:261,1,144.375
257,273,40574,1,0,0:0:0:0:
129,267,40970,2,0,B|136:219|136:219|118:170|118:170|129:122,1,144.375
205,112,41804,6,0,P|302:152|246:269,2,261.25
98,192,43804,1,0,0:0:0:0:
191,192,44179,2,0,L|327:192,2,130.625
256,192,45241,12,0,46137,0:0:0:0:
256,192,46595,5,0,0:0:0:0:
160,190,46970,2,0,P|182:125|241:117,1,130.625
263,195,47783,2,0,P|252:220|249:194,2,68.75
289,96,48595,1,0,0:0:0:0:
257,189,48970,1,0,0:0:0:0:
160,225,49387,1,0,0:0:0:0:
159,127,49804,2,0,P|252:203|350:128,2,261.25
256,192,62546,12,0,64159,0:0:0:0:
94,159,64890,6,0,B|118:263|118:263|226:289,1,216.562508261204
440,220,66484,2,0,B|396:126|396:126|287:107,1,211.406258064509
320,224,68115,6,0,B|256:288|256:288|192:224,1,180.468756884337
192,160,69671,2,0,B|256:96|256:96|320:160,1,180.468756884337
416,96,71321,5,0,0:0:0:0:
384,224,72127,1,0,0:0:0:0:
320,352,72877,5,0,0:0:0:0:
192,352,73721,1,0,0:0:0:0:
128,224,74490,5,0,0:0:0:0:
96,96,75315,1,0,0:0:0:0:
256,96,76196,2,0,B|239:143|239:143|277:192|277:192|238:240|238:240|256:288,1,221.718758457899
256,192,89809,12,0,96484,0:0:0:0:
160,128,96971,6,0,B|265:132|265:132|320:224,1,211.406258064509
224,256,98190,1,0,0:0:0:0:
384,288,98584,2,0,B|411:185|411:185|375:87,1,211.406258064509
320,192,99765,1,0,0:0:0:0:
128,192,100177,6,0,B|195:157|195:157|253:197|253:197|320:160,2,221.718758457899
192,288,102165,1,0,0:0:0:0:
320,320,102577,1,0,0:0:0:0:
356,191,102971,2,0,B|256:96|148:190|148:190,3,226.875008654595
256,224,105802,2,0,L|256:331,2,103.125003933907
256,64,107190,5,0,0:0:0:0:
224,128,107790,1,0,0:0:0:0:
288,128,108165,1,0,0:0:0:0:
256,256,108990,2,0,B|224:224|224:224|279:193|279:193|224:160|224:160|256:128,2,216.562508261204
320,288,110996,5,0,0:0:0:0:
384,256,111390,2,0,B|324:164|324:164|224:128,2,216.562508261204
256,288,113377,1,0,0:0:0:0:
160,256,113790,1,0,0:0:0:0:
160,160,114202,2,0,L|83:83,2,108.281254130602
256,96,115384,2,0,L|256:128,2,30.937501180172
256,256,116190,6,0,P|352:288|352:160,1,268.125010228157
202,207,117802,2,0,B|239:161|239:161|288:129,1,113.437504327297
192,64,118609,1,0,0:0:0:0:
96,96,119415,2,0,B|96:160|96:160|128:160|128:160|128:224,2,159.843756097555
256,96,120971,1,0,0:0:0:0:
416,96,121384,1,0,0:0:0:0:
416,224,121740,2,0,B|256:320|256:320|224:288,1,232.03125885129
128,192,122996,1,0,0:0:0:0:
224,96,123390,1,0,0:0:0:0:
352,128,123802,2,0,B|373:177|373:177|352:224,1,103.125003933907
256,288,124571,2,0,P|256:178|256:178,1,108.281254130602
160,192,125377,2,0,L|128:192,2,30.937501180172
256,192,125790,2,0,L|416:128,2,170.156256490946
128,192,127777,5,0,0:0:0:0:
224,192,128190,2,0,L|256:192,5,30.937501180172
352,192,128959,6,0,B|344:236|344:236|352:287,1,96.25
352,288,129385,2,0,B|304:272|304:272|256:288,1,96.25
255,288,129794,2,0,B|269:239|269:239|255:192,1,96.25
160,192,130203,2,0,L|256:192,1,96.25
352,192,130629,2,0,B|243:182|243:182|128:192,2,220
384,96,132129,6,0,B|337:87|337:87|288:96,1,96.25
192,96,132555,2,0,B|143:87|143:87|96:96,1,96.25
96,192,132964,2,0,B|145:200|145:200|193:192,1,96.25
288,192,133373,2,0,B|337:200|337:200|384:192,1,96.25
336,287,133799,2,0,L|176:287,4,158.125
320,192,135794,5,0,0:0:0:0:
192,192,136612,1,0,0:0:0:0:
96,192,137396,1,0,0:0:0:0:
416,192,138197,1,0,0:0:0:0:
224,256,138606,6,0,B|217:208|217:208|224:160,1,96.25
288,160,138998,2,0,B|297:207|297:207|288:256,1,96.25
192,256,139407,2,0,B|184:206|184:206|192:160,1,96.25
320,160,139799,2,0,B|329:207|329:207|320:256,1,96.25
192,288,140209,2,0,P|96:192|192:96,2,302.5
320,288,142203,5,0,0:0:0:0:
192,288,142595,1,0,0:0:0:0:
256,224,142987,2,0,L|256:128,1,96.25
256,96,143413,2,0,L|256:270,1,171.875
256,192,144231,1,0,0:0:0:0:
256,192,144606,1,0,0:0:0:0:
352,192,144982,6,0,B|361:240|361:240|352:287,1,96.25
288,192,145408,2,0,B|298:141|298:141|288:96,1,96.25
224,192,145817,2,0,B|215:240|215:240|224:288,1,96.25
160,192,146226,2,0,B|151:143|151:143|160:96,1,96.25
270,84,146652,2,0,B|283:190|283:190|270:308,2,220
385,83,148152,6,0,L|385:179,1,96.25
385,211,148578,2,0,L|385:307,1,96.25
256,306,148987,2,0,L|256:210,1,96.25
256,178,149396,2,0,L|256:82,1,96.25
96,96,149822,1,0,0:0:0:0:
96,160,150214,1,0,0:0:0:0:
96,224,150606,1,0,0:0:0:0:
96,288,150998,1,0,0:0:0:0:
96,224,151390,2,0,B|105:140|105:140|192:128,2,171.875
192,192,152652,2,0,L|192:153,18,34.375
64,128,154629,5,0,0:0:0:0:
192,96,155004,1,0,0:0:0:0:
320,96,155396,1,0,0:0:0:0:
448,128,155788,2,0,B|464:192|464:192|448:256,1,123.750004720688
320,320,156231,1,0,0:0:0:0:
192,320,156606,1,0,0:0:0:0:
64,256,157032,2,0,B|48:192|48:192|64:128,2,123.750004720688
160,192,157782,5,0,0:0:0:0:
256,192,158209,1,0,0:0:0:0:
352,192,158601,1,0,0:0:0:0:
448,192,158976,2,0,B|402:184|402:184|364:201|364:201|328:191,1,123.750004720688
160,192,159419,1,0,0:0:0:0:
160,192,159794,1,0,0:0:0:0:
320,160,160203,2,0,B|384:224|384:224|352:256|352:256|288:192,2,226.875008654595
128,128,161413,5,0,0:0:0:0:
192,192,161805,1,0,0:0:0:0:
256,256,162197,1,0,0:0:0:0:
256,160,162606,1,0,0:0:0:0:
256,64,163015,1,0,0:0:0:0:
352,96,163390,2,0,B|344:140|344:140|352:192,1,92.812503540516
352,192,163782,2,0,B|361:237|361:237|352:288,1,92.812503540516
352,288,164209,5,0,0:0:0:0:
160,288,164601,1,0,0:0:0:0:
160,96,165010,1,0,0:0:0:0:
352,68,165402,2,0,B|390:192|390:192|352:324,2,257.812509834767
256,64,166612,2,0,B|160:64|160:64|192:128|192:128|256:160,1,237.187509047985
384,160,167413,5,0,0:0:0:0:
384,256,167805,1,0,0:0:0:0:
288,256,168214,1,0,0:0:0:0:
384,256,168606,1,0,0:0:0:0:
384,160,169015,1,0,0:0:0:0:
288,160,169424,1,0,0:0:0:0:
384,160,169799,2,0,B|345:150|345:150|306:160,2,72.1875027537347
224,256,170209,2,0,B|261:271|261:271|298:257,2,72.1875027537347
128,256,170635,5,0,0:0:0:0:
128,192,170993,1,0,0:0:0:0:
128,128,171402,1,0,0:0:0:0:
64,192,171828,2,0,B|185:155|185:155|320:224|320:224|448:192,2,402.187515342236
448,256,173839,5,0,0:0:0:0:
320,288,174214,1,0,0:0:0:0:
192,288,174606,1,0,0:0:0:0:
64,256,174998,2,0,B|82:191|82:191|64:128,1,123.750004720688
192,64,175441,1,0,0:0:0:0:
320,64,175816,1,0,0:0:0:0:
448,128,176242,2,0,B|434:191|434:191|448:256,2,123.750004720688
354,164,177027,1,0,0:0:0:0:
268,135,177436,1,0,0:0:0:0:
288,224,177811,1,0,0:0:0:0:
192,288,178220,2,0,B|221:236|221:236|218:185,1,103.125003933907
96,160,178646,6,0,B|82:192|82:192|96:224,7,61.875002360344
160,224,179464,2,0,B|127:239|127:239|96:224,6,61.875002360344
256,192,180691,12,0,185771,0:0:0:0:
