osu file format v14

[General]
AudioFilename: audio.mp3
AudioLeadIn: 0
PreviewTime: 87416
Countdown: 0
SampleSet: Normal
StackLeniency: 0.7
Mode: 1
LetterboxInBreaks: 0
WidescreenStoryboard: 0

[Editor]
DistanceSpacing: 0.1
BeatDivisor: 4
GridSize: 32
TimelineZoom: 2

[Metadata]
Title:Watsupu
TitleUnicode:ゎっ、ζ、°ʚ ♥ɞ
Artist:DJ Majokko Mirakurun
ArtistUnicode:ღDJ魔女っ娘ミラクるんღ
Creator:Nifty
Version:Muzukashii
Source:
Tags:sv rap hip hop bardi female vocal wet ass pussy explicit electronic english nightcore Cardi B WAP feat. Megan Thee Stallion (Saint Punk Remix)
BeatmapID:3368216
BeatmapSetID:1603083

[Difficulty]
HPDrainRate:6
CircleSize:2
OverallDifficulty:4
ApproachRate:10
SliderMultiplier:1.4
SliderTickRate:1

[Events]
//Background and Video events
0,0,"madoswag.jpg",0,120
//Break Periods
2,32945,38038
2,109745,114152
//Storyboard Layer 0 (Background)
//Storyboard Layer 1 (Fail)
//Storyboard Layer 2 (Pass)
//Storyboard Layer 3 (Foreground)
//Storyboard Layer 4 (Overlay)
//Storyboard Sound Samples

[TimingPoints]
88,342.857142857143,4,1,0,100,1,0
88,-125,4,1,0,100,0,0
11059,-125,4,1,0,100,0,0
11402,-124.49778,4,1,0,100,0,0
11745,-123.99958,4,1,0,100,0,0
12430,-123.01648,4,1,0,100,0,0
12431,-123.01505,4,1,0,100,0,0
12773,-122.53003,4,1,0,100,0,0
13116,-122.047424,4,1,0,100,0,0
13802,-121.09354,4,1,0,100,0,0
14145,-120.622154,4,1,0,100,0,0
14488,-120.15442,4,1,0,100,0,0
15173,-119.23111,4,1,0,100,0,0
15174,-119.229774,4,1,0,100,0,0
15516,-118.77409,4,1,0,100,0,0
15859,-118.32057,4,1,0,100,0,0
16545,-117.42382,4,1,0,100,0,0
16888,-116.98052,4,1,0,100,0,0
17230,-116.54185,4,1,0,100,0,0
17916,-115.67177,4,1,0,100,0,0
17917,-115.67051,4,1,0,100,0,0
18259,-115.24157,4,1,0,100,0,0
18602,-114.81457,4,1,0,100,0,0
19288,-113.97,4,1,0,100,0,0
19630,-113.553566,4,1,0,100,0,0
19973,-113.138954,4,1,0,100,0,0
20659,-112.318756,4,1,0,100,0,0
21002,-111.91312,4,1,0,100,0,0
21345,-111.510376,4,1,0,100,0,0
22030,-110.71469,4,1,0,100,0,0
22031,-110.71354,4,1,0,100,0,0
22373,-110.32052,4,1,0,100,0,0
22716,-109.929146,4,1,0,100,0,0
23059,-109.54055,4,1,0,100,0,0
23402,-109.15468,4,1,0,100,0,0
23745,-108.771515,4,1,0,100,0,0
24088,-108.39103,4,1,0,100,0,0
24773,-107.6391,4,1,0,100,0,0
24774,-107.63801,4,1,0,100,0,0
25116,-107.26649,4,1,0,100,0,0
25459,-106.89645,4,1,0,100,0,0
25802,-106.528946,4,1,0,100,0,0
26145,-106.16397,4,1,0,100,0,0
26488,-105.80149,4,1,0,100,0,0
26830,-105.44251,4,1,0,100,0,0
27516,-104.72976,4,1,0,100,0,0
27517,-104.72872,4,1,0,100,0,0
27859,-104.37698,4,1,0,100,0,0
28202,-104.02658,4,1,0,100,0,0
28545,-103.67852,4,1,0,100,0,0
28888,-103.33278,4,1,0,100,0,0
29230,-102.99034,4,1,0,100,0,0
29573,-102.64916,4,1,0,100,0,0
30259,-101.97356,4,1,0,100,0,0
30602,-101.63908,4,1,0,100,0,0
30945,-101.306786,4,1,0,100,0,0
31288,-100.97666,4,1,0,100,0,0
31630,-100.649635,4,1,0,100,0,0
31631,-100.64868,4,1,0,100,0,0
31973,-100.32376,4,1,0,100,0,0
32316,-100,4,1,0,100,0,0
32916,-125,4,1,0,100,0,0
38488,-125,4,1,0,100,0,0
38830,-123.65912,4,1,0,100,0,0
39173,-122.3429,4,1,0,100,0,0
39859,-119.79278,4,1,0,100,0,0
40202,-118.55716,4,1,0,100,0,0
40545,-117.34678,4,1,0,100,0,0
41230,-115.002045,4,1,0,100,0,0
41231,-114.998695,4,1,0,100,0,0
41573,-113.86281,4,1,0,100,0,0
41916,-112.74594,4,1,0,100,0,0
42602,-110.57665,4,1,0,100,0,0
42945,-109.52301,4,1,0,100,0,0
43288,-108.48927,4,1,0,100,0,0
43973,-106.4821,4,1,0,100,0,0
43974,-106.47923,4,1,0,100,0,0
44316,-105.504715,4,1,0,100,0,0
44488,-105.02132,4,1,0,100,0,0
44659,-104.5451,4,1,0,100,0,0
45002,-103.60277,4,1,0,100,0,0
45345,-102.67729,4,1,0,100,0,0
45688,-101.7682,4,1,0,100,0,0
45859,-101.32097,4,1,0,100,0,0
46030,-100.87764,4,1,0,100,0,0
46373,-100,4,1,0,100,0,0
46716,-83.3333333333333,4,1,0,100,0,1
47745,-83.3333333333333,4,1,0,100,0,0
47916,-100,4,1,0,100,0,0
49459,-125,4,1,0,100,0,0
49802,-123.594955,4,1,0,100,0,0
50145,-122.22114,4,1,0,100,0,0
50488,-120.87754,4,1,0,100,0,0
50659,-120.218666,4,1,0,100,0,0
50830,-119.56694,4,1,0,100,0,0
50831,-119.56315,4,1,0,100,0,0
51173,-118.28076,4,1,0,100,0,0
51516,-117.021935,4,1,0,100,0,0
51859,-115.789635,4,1,0,100,0,0
52030,-115.18493,4,1,0,100,0,0
52202,-114.58302,4,1,0,100,0,0
52545,-113.40128,4,1,0,100,0,0
52888,-112.24368,4,1,0,100,0,0
53230,-111.11275,4,1,0,100,0,0
53402,-110.55254,4,1,0,100,0,0
53573,-110.001175,4,1,0,100,0,0
53574,-109.99796,4,1,0,100,0,0
53916,-108.91161,4,1,0,100,0,0
54259,-107.843414,4,1,0,100,0,0
54773,-106.28134,4,1,0,100,0,0
54859,-106.0244,4,1,0,100,0,0
54945,-105.7687,4,1,0,100,0,0
55288,-104.76098,4,1,0,100,0,0
55459,-104.26573,4,1,0,100,0,0
55630,-103.77514,4,1,0,100,0,0
55973,-102.804886,4,1,0,100,0,0
56145,-102.325134,4,1,0,100,0,0
56316,-101.8526,4,1,0,100,0,0
56317,-101.849846,4,1,0,100,0,0
56488,-101.38168,4,1,0,100,0,0
56830,-100.458145,4,1,0,100,0,0
57002,-100,4,1,0,100,0,0
57345,-99.09875,4,1,0,100,0,0
57516,-98.65547,4,1,0,100,0,0
57688,-98.213585,4,1,0,100,0,0
57859,-97.778175,4,1,0,100,0,0
58030,-97.34662,4,1,0,100,0,0
58202,-96.91634,4,1,0,100,0,0
58373,-96.492355,4,1,0,100,0,0
58716,-95.652954,4,1,0,100,0,0
58888,-95.237495,4,1,0,100,0,0
59059,-94.82802,4,1,0,100,0,0
59230,-94.42205,4,1,0,100,0,0
59573,-93.61813,4,1,0,100,0,0
59745,-93.22013,4,1,0,100,0,0
60088,-92.436455,4,1,0,100,0,0
60259,-92.050674,4,1,0,100,0,0
60430,-91.66808,4,1,0,100,0,0
60431,-91.665855,4,1,0,100,0,0
60602,-91.28646,4,1,0,100,0,0
60773,-90.91018,4,1,0,100,0,0
60945,-90.53483,4,1,0,100,0,0
61116,-90.16472,4,1,0,100,0,0
61288,-89.79549,4,1,0,100,0,0
61459,-89.43138,4,1,0,100,0,0
61630,-89.07021,4,1,0,100,0,0
61802,-88.70986,4,1,0,100,0,0
61973,-88.35449,4,1,0,100,0,0
62059,-88.17684,4,1,0,100,0,0
62145,-87.99991,4,1,0,100,0,0
62316,-87.65019,4,1,0,100,0,0
62488,-87.30122,4,1,0,100,0,0
62830,-86.615524,4,1,0,100,0,0
63002,-86.274734,4,1,0,100,0,0
63173,-85.93857,4,1,0,100,0,0
63174,-85.936615,4,1,0,100,0,0
63259,-85.77049,4,1,0,100,0,0
63345,-85.60307,4,1,0,100,0,0
63516,-85.27211,4,1,0,100,0,0
63688,-84.94178,4,1,0,100,0,0
63859,-84.6159,4,1,0,100,0,0
63945,-84.45294,4,1,0,100,0,0
64030,-84.29251,4,1,0,100,0,0
64202,-83.96972,4,1,0,100,0,0
64373,-83.651245,4,1,0,100,0,0
64545,-83.33333,4,1,0,100,0,0
65916,-90.9090909090909,4,1,0,100,0,0
66259,-90.9090909090909,4,1,0,100,0,1
87173,-90.9090909090909,4,1,0,100,0,0
87764,-125,4,1,0,100,0,0
100202,-125,4,1,0,100,0,0
100373,-121.22015,4,1,0,100,0,0
100545,-117.64201,4,1,0,100,0,0
100716,-114.28809,4,1,0,100,0,0
100888,-111.10211,4,1,0,100,0,0
101059,-108.10597,4,1,0,100,0,0
101230,-105.2672,4,1,0,100,0,0
101316,-103.89512,4,1,0,100,0,0
101402,-102.55835,4,1,0,100,0,0
101573,-100,4,1,0,100,0,0
101574,-99.98541,4,1,0,100,0,0
101840,-124.977203956485,4,1,0,100,0,0
114602,-124.977196,4,1,0,100,0,0
114859,-123.43543,4,1,0,100,0,0
115116,-121.93125,4,1,0,100,0,0
115202,-121.43606,4,1,0,100,0,0
115288,-120.94486,4,1,0,100,0,0
115630,-119.03025,4,1,0,100,0,0
115802,-118.09006,4,1,0,100,0,0
115973,-117.16995,4,1,0,100,0,0
116316,-115.36691,4,1,0,100,0,0
116488,-114.483505,4,1,0,100,0,0
116659,-113.618515,4,1,0,100,0,0
116830,-112.766525,4,1,0,100,0,0
117173,-111.0955,4,1,0,100,0,0
117345,-110.276054,4,1,0,100,0,0
117688,-108.67749,4,1,0,100,0,0
117859,-107.897736,4,1,0,100,0,0
118030,-107.12908,4,1,0,100,0,0
118031,-107.12462,4,1,0,100,0,0
118202,-106.366905,4,1,0,100,0,0
118373,-105.619835,4,1,0,100,0,0
118545,-104.87891,4,1,0,100,0,0
118716,-104.15253,4,1,0,100,0,0
119059,-102.72542,4,1,0,100,0,0
119230,-102.02846,4,1,0,100,0,0
119402,-101.3369,4,1,0,100,0,0
119573,-100.65859,4,1,0,100,0,0
119916,-99.32501,4,1,0,100,0,0
120088,-98.6695,4,1,0,100,0,0
120430,-97.391464,4,1,0,100,0,0
120602,-96.76114,4,1,0,100,0,0
120773,-96.14251,4,1,0,100,0,0
120774,-96.138916,4,1,0,100,0,0
120945,-95.528206,4,1,0,100,0,0
121116,-94.92519,4,1,0,100,0,0
121288,-94.326294,4,1,0,100,0,0
121459,-93.73833,4,1,0,100,0,0
121630,-93.15762,4,1,0,100,0,0
121802,-92.58076,4,1,0,100,0,0
121973,-92.014275,4,1,0,100,0,0
122145,-91.45142,4,1,0,100,0,0
122316,-90.89864,4,1,0,100,0,0
122402,-90.62315,4,1,0,100,0,0
122488,-90.34932,4,1,0,100,0,0
122659,-89.809746,4,1,0,100,0,0
122830,-89.276566,4,1,0,100,0,0
123173,-88.22596,4,1,0,100,0,0
123345,-87.708374,4,1,0,100,0,0
123516,-87.19978,4,1,0,100,0,0
123517,-87.19683,4,1,0,100,0,0
123602,-86.94622,4,1,0,100,0,0
123688,-86.69414,4,1,0,100,0,0
123859,-86.197205,4,1,0,100,0,0
124030,-85.70595,4,1,0,100,0,0
124202,-85.21742,4,1,0,100,0,0
124288,-84.97526,4,1,0,100,0,0
124373,-84.73724,4,1,0,100,0,0
124545,-84.259674,4,1,0,100,0,0
124716,-83.790184,4,1,0,100,0,0
124888,-83.323204,4,1,0,100,0,0
126259,-90.897036298495,4,1,0,100,0,0
126602,-90.9090909090909,4,1,0,100,0,1
148202,-90.9090909090909,4,1,0,100,0,0

[HitObjects]
353,120,11059,5,0,0:0:0:0:
353,120,11402,1,0,0:0:0:0:
353,120,11745,1,0,0:0:0:0:
353,120,12430,1,0,0:0:0:0:
353,120,12773,1,0,0:0:0:0:
353,120,13116,1,0,0:0:0:0:
353,120,13802,1,0,0:0:0:0:
353,120,14145,1,0,0:0:0:0:
353,120,14488,1,0,0:0:0:0:
353,120,15173,1,0,0:0:0:0:
353,120,15516,1,0,0:0:0:0:
353,120,15859,1,0,0:0:0:0:
353,120,16545,1,8,0:0:0:0:
353,120,16888,1,8,0:0:0:0:
353,120,17230,1,8,0:0:0:0:
353,120,17916,1,8,0:0:0:0:
353,120,18259,1,8,0:0:0:0:
353,120,18602,1,8,0:0:0:0:
353,120,19288,1,8,0:0:0:0:
353,120,19630,1,8,0:0:0:0:
353,120,19973,1,8,0:0:0:0:
353,120,20659,1,8,0:0:0:0:
363,123,21002,1,8,0:0:0:0:
363,123,21345,1,8,0:0:0:0:
363,123,22030,1,0,0:0:0:0:
363,123,22373,1,0,0:0:0:0:
363,123,22716,1,0,0:0:0:0:
363,123,23059,1,0,0:0:0:0:
363,123,23402,1,0,0:0:0:0:
363,123,23745,1,0,0:0:0:0:
363,123,24088,1,0,0:0:0:0:
363,123,24773,1,0,0:0:0:0:
363,123,25116,1,0,0:0:0:0:
363,123,25459,1,0,0:0:0:0:
363,123,25802,1,0,0:0:0:0:
363,123,26145,1,0,0:0:0:0:
363,123,26488,1,0,0:0:0:0:
363,123,26830,1,0,0:0:0:0:
363,123,27516,1,8,0:0:0:0:
363,123,27859,1,8,0:0:0:0:
363,123,28202,1,8,0:0:0:0:
363,123,28545,1,8,0:0:0:0:
363,123,28888,1,8,0:0:0:0:
363,123,29230,1,8,0:0:0:0:
363,123,29573,1,8,0:0:0:0:
363,123,30259,1,8,0:0:0:0:
363,123,30602,1,8,0:0:0:0:
363,123,30945,1,8,0:0:0:0:
363,123,31288,1,8,0:0:0:0:
363,123,31630,1,8,0:0:0:0:
363,123,31973,1,8,0:0:0:0:
363,123,32316,1,8,0:0:0:0:
377,109,38488,5,8,0:0:0:0:
366,108,38830,1,8,0:0:0:0:
366,108,39173,1,8,0:0:0:0:
366,108,39859,1,8,0:0:0:0:
366,108,40202,1,8,0:0:0:0:
366,108,40545,1,8,0:0:0:0:
366,108,41230,1,8,0:0:0:0:
366,108,41573,1,8,0:0:0:0:
366,108,41916,1,8,0:0:0:0:
365,98,42602,1,8,0:0:0:0:
365,98,42945,1,8,0:0:0:0:
365,98,43288,1,8,0:0:0:0:
372,91,43973,1,0,0:0:0:0:
380,90,44316,1,8,0:0:0:0:
373,98,44488,1,0,0:0:0:0:
380,92,44659,1,8,0:0:0:0:
384,83,45002,1,8,0:0:0:0:
387,74,45345,1,0,0:0:0:0:
355,75,45688,1,8,0:0:0:0:
387,75,45859,1,0,0:0:0:0:
389,77,46030,1,8,0:0:0:0:
386,64,46373,1,8,0:0:0:0:
396,65,46716,1,12,0:0:0:0:
398,67,46973,1,12,0:0:0:0:
399,67,47230,1,12,0:0:0:0:
399,67,47488,1,12,0:0:0:0:
396,65,47745,1,12,0:0:0:0:
400,84,49459,1,8,0:0:0:0:
400,84,49802,1,8,0:0:0:0:
400,84,50145,1,8,0:0:0:0:
400,84,50488,1,8,0:0:0:0:
400,84,50659,1,0,0:0:0:0:
400,84,50830,1,8,0:0:0:0:
400,84,51173,1,8,0:0:0:0:
400,84,51516,1,8,0:0:0:0:
400,84,51859,1,8,0:0:0:0:
400,84,52030,1,0,0:0:0:0:
400,84,52202,1,8,0:0:0:0:
400,84,52545,1,8,0:0:0:0:
400,84,52888,1,8,0:0:0:0:
400,84,53230,1,8,0:0:0:0:
400,84,53402,1,0,0:0:0:0:
405,89,53573,1,8,0:0:0:0:
407,87,53916,1,8,0:0:0:0:
407,85,54259,1,8,0:0:0:0:
407,87,54773,1,8,0:0:0:0:
407,87,54859,1,8,0:0:0:0:
407,85,54945,1,8,0:0:0:0:
413,83,55288,1,8,0:0:0:0:
422,83,55459,1,0,0:0:0:0:
429,85,55630,1,8,0:0:0:0:
424,74,55973,1,0,0:0:0:0:
425,76,56145,1,0,0:0:0:0:
424,74,56316,1,8,0:0:0:0:
424,73,56488,1,0,0:0:0:0:
436,77,56830,1,0,0:0:0:0:
437,76,57002,1,8,0:0:0:0:
434,68,57345,1,8,0:0:0:0:
438,68,57516,1,0,0:0:0:0:
443,69,57688,1,8,0:0:0:0:
445,69,57859,1,0,0:0:0:0:
443,69,58030,1,0,0:0:0:0:
442,63,58202,1,0,0:0:0:0:
443,62,58373,1,8,0:0:0:0:
445,57,58716,1,8,0:0:0:0:
456,61,58888,1,0,0:0:0:0:
450,62,59059,1,8,0:0:0:0:
454,58,59230,1,8,0:0:0:0:
456,58,59573,1,0,0:0:0:0:
456,58,59745,1,8,0:0:0:0:
461,56,60088,1,0,0:0:0:0:
462,57,60259,1,0,0:0:0:0:
463,56,60430,1,8,0:0:0:0:
470,61,60602,1,0,0:0:0:0:
474,62,60773,1,8,0:0:0:0:
474,62,60945,1,0,0:0:0:0:
473,62,61116,1,8,0:0:0:0:
475,49,61288,1,8,0:0:0:0:
481,51,61459,1,0,0:0:0:0:
470,61,61630,1,0,0:0:0:0:
466,60,61802,1,8,0:0:0:0:
466,60,61973,1,0,0:0:0:0:
473,62,62059,1,0,0:0:0:0:
469,57,62145,1,0,0:0:0:0:
465,60,62316,1,8,0:0:0:0:
465,60,62488,1,0,0:0:0:0:
466,60,62830,1,8,0:0:0:0:
472,54,63002,1,0,0:0:0:0:
469,57,63173,1,8,0:0:0:0:
483,59,63259,1,8,0:0:0:0:
483,64,63345,1,8,0:0:0:0:
481,67,63516,1,8,0:0:0:0:
477,68,63688,1,0,0:0:0:0:
477,68,63859,1,8,0:0:0:0:
479,72,63945,1,8,0:0:0:0:
474,71,64030,1,8,0:0:0:0:
472,72,64202,1,0,0:0:0:0:
471,72,64373,1,8,0:0:0:0:
465,74,64545,1,0,0:0:0:0:
431,107,65916,1,12,0:0:0:0:
413,96,66088,1,0,0:0:0:0:
418,98,66259,1,8,0:0:0:0:
446,88,66345,1,8,0:0:0:0:
445,88,66430,1,8,0:0:0:0:
456,88,66602,1,0,0:0:0:0:
456,88,66773,1,0,0:0:0:0:
457,89,66945,1,8,0:0:0:0:
457,90,67030,1,8,0:0:0:0:
457,91,67116,1,8,0:0:0:0:
457,92,67288,1,0,0:0:0:0:
457,92,67459,1,0,0:0:0:0:
458,92,67630,1,8,0:0:0:0:
453,92,67716,1,8,0:0:0:0:
457,89,67802,1,8,0:0:0:0:
457,90,67973,1,0,0:0:0:0:
458,92,68145,1,0,0:0:0:0:
457,92,68316,1,8,0:0:0:0:
462,83,68402,1,8,0:0:0:0:
447,78,68488,1,8,0:0:0:0:
460,83,68659,1,8,0:0:0:0:
457,90,69002,1,0,0:0:0:0:
460,83,69088,1,0,0:0:0:0:
452,85,69173,1,0,0:0:0:0:
462,83,69345,1,8,0:0:0:0:
453,85,69688,1,8,0:0:0:0:
453,85,69773,1,8,0:0:0:0:
457,89,69859,1,8,0:0:0:0:
460,77,70030,1,0,0:0:0:0:
462,75,70373,1,8,0:0:0:0:
363,98,70545,1,0,0:0:0:0:
410,85,70630,1,0,0:0:0:0:
465,75,70716,1,0,0:0:0:0:
476,75,70888,1,8,0:0:0:0:
478,78,71059,1,8,0:0:0:0:
477,75,71402,1,0,0:0:0:0:
480,76,71745,1,8,0:0:0:0:
436,103,71830,1,8,0:0:0:0:
448,105,71916,1,8,0:0:0:0:
449,104,72088,1,0,0:0:0:0:
451,92,72259,1,0,0:0:0:0:
451,92,72430,1,8,0:0:0:0:
464,88,72516,1,8,0:0:0:0:
452,92,72602,1,8,0:0:0:0:
451,92,72773,1,0,0:0:0:0:
452,92,72945,1,0,0:0:0:0:
451,92,73116,1,8,0:0:0:0:
464,88,73202,1,8,0:0:0:0:
452,97,73288,1,8,0:0:0:0:
451,92,73459,1,0,0:0:0:0:
452,92,73630,1,0,0:0:0:0:
451,92,73802,1,8,0:0:0:0:
464,88,73888,1,8,0:0:0:0:
452,92,73973,1,8,0:0:0:0:
472,86,74145,1,8,0:0:0:0:
480,79,74402,1,0,0:0:0:0:
494,79,74659,1,0,0:0:0:0:
489,79,74830,1,8,0:0:0:0:
490,83,75345,1,0,0:0:0:0:
490,83,75516,1,8,0:0:0:0:
493,79,75773,1,0,0:0:0:0:
495,72,76030,1,8,0:0:0:0:
491,75,76202,1,0,0:0:0:0:
491,75,76373,1,0,0:0:0:0:
490,71,76545,1,8,0:0:0:0:
489,79,76888,1,0,0:0:0:0:
491,75,77230,1,0,0:0:0:0:
497,71,77316,1,0,0:0:0:0:
491,75,77402,1,0,0:0:0:0:
490,71,77573,1,8,0:0:0:0:
486,83,77745,1,8,0:0:0:0:
494,74,77916,1,0,0:0:0:0:
446,90,78002,1,0,0:0:0:0:
446,90,78088,1,0,0:0:0:0:
491,75,78259,1,8,0:0:0:0:
491,75,78430,1,8,0:0:0:0:
490,71,78602,1,0,0:0:0:0:
499,76,78688,1,0,0:0:0:0:
494,74,78773,1,0,0:0:0:0:
491,75,78945,1,8,0:0:0:0:
491,75,79116,1,8,0:0:0:0:
490,71,79288,1,0,0:0:0:0:
497,71,79373,1,0,0:0:0:0:
491,75,79459,1,0,0:0:0:0:
502,79,79630,1,0,0:0:0:0:
494,79,79973,1,8,0:0:0:0:
496,81,80059,1,8,0:0:0:0:
496,81,80145,1,8,0:0:0:0:
496,81,80316,1,0,0:0:0:0:
487,80,80659,1,0,0:0:0:0:
503,75,80745,1,0,0:0:0:0:
504,72,80830,1,0,0:0:0:0:
504,72,81002,1,8,0:0:0:0:
496,81,81345,1,8,0:0:0:0:
499,83,81430,1,8,0:0:0:0:
499,83,81516,1,8,0:0:0:0:
499,83,81688,1,8,0:0:0:0:
499,85,81859,1,0,0:0:0:0:
499,85,82030,1,8,0:0:0:0:
496,81,82373,1,0,0:0:0:0:
499,83,82716,1,8,0:0:0:0:
491,81,82802,1,8,0:0:0:0:
492,81,82888,1,8,0:0:0:0:
493,80,83059,1,0,0:0:0:0:
494,68,83230,1,0,0:0:0:0:
496,81,83402,1,8,0:0:0:0:
487,66,83488,1,8,0:0:0:0:
495,68,83573,1,8,0:0:0:0:
499,83,83745,1,0,0:0:0:0:
495,68,83916,1,0,0:0:0:0:
493,80,84088,1,8,0:0:0:0:
492,68,84173,1,8,0:0:0:0:
494,68,84259,1,8,0:0:0:0:
496,81,84430,1,0,0:0:0:0:
505,72,84602,1,0,0:0:0:0:
499,83,84773,1,8,0:0:0:0:
492,68,84859,1,8,0:0:0:0:
495,68,84945,1,8,0:0:0:0:
492,68,85116,1,8,0:0:0:0:
494,69,85373,1,0,0:0:0:0:
497,74,85630,1,0,0:0:0:0:
504,71,85802,1,8,0:0:0:0:
468,78,86316,1,8,0:0:0:0:
479,79,86488,1,0,0:0:0:0:
475,75,86659,1,8,0:0:0:0:
475,76,86830,1,0,0:0:0:0:
436,88,86916,1,0,0:0:0:0:
477,78,87002,1,0,0:0:0:0:
478,79,87173,1,8,0:0:0:0:
417,114,90602,1,4,0:0:0:0:
429,91,91288,1,8,0:0:0:0:
421,104,91630,1,4,0:0:0:0:
430,102,92145,1,0,0:0:0:0:
421,104,92316,1,4,0:0:0:0:
434,102,92659,1,8,0:0:0:0:
435,91,93345,1,4,0:0:0:0:
435,91,94030,1,8,0:0:0:0:
435,91,94373,1,4,0:0:0:0:
435,91,94888,1,0,0:0:0:0:
435,91,95059,1,4,0:0:0:0:
442,94,95402,1,8,0:0:0:0:
452,96,96088,1,4,0:0:0:0:
452,96,96773,1,8,0:0:0:0:
452,96,97116,1,4,0:0:0:0:
452,96,97630,1,0,0:0:0:0:
452,96,97802,1,4,0:0:0:0:
467,100,98145,1,8,0:0:0:0:
474,106,100202,1,8,0:0:0:0:
474,106,100373,1,8,0:0:0:0:
474,106,100545,1,8,0:0:0:0:
474,106,100716,1,8,0:0:0:0:
471,107,100888,1,8,0:0:0:0:
474,106,101059,1,8,0:0:0:0:
474,106,101230,1,8,0:0:0:0:
474,106,101316,1,8,0:0:0:0:
474,106,101402,1,8,0:0:0:0:
481,107,101573,1,4,0:0:0:0:
499,110,101916,1,0,0:0:0:0:
501,109,102088,1,0,0:0:0:0:
482,106,102259,1,8,0:0:0:0:
481,107,102602,1,0,0:0:0:0:
494,119,102773,1,8,0:0:0:0:
494,118,102945,1,0,0:0:0:0:
482,106,103116,1,0,0:0:0:0:
482,107,103459,1,0,0:0:0:0:
468,97,103630,1,8,0:0:0:0:
482,105,103973,1,0,0:0:0:0:
482,107,104145,1,0,0:0:0:0:
481,115,104316,1,8,0:0:0:0:
482,115,104659,1,0,0:0:0:0:
482,113,104830,1,0,0:0:0:0:
492,114,105002,1,8,0:0:0:0:
494,117,105345,1,0,0:0:0:0:
494,117,105516,1,0,0:0:0:0:
494,117,105688,1,8,0:0:0:0:
493,117,105859,1,0,0:0:0:0:
493,115,106202,1,0,0:0:0:0:
445,98,106373,1,8,0:0:0:0:
452,98,106716,1,8,0:0:0:0:
452,98,106888,1,8,0:0:0:0:
453,95,107059,1,4,0:0:0:0:
469,103,108088,1,0,0:0:0:0:
469,103,108602,1,0,0:0:0:0:
469,103,108773,1,0,0:0:0:0:
383,114,114602,5,0,0:0:0:0:
383,114,114859,1,0,0:0:0:0:
407,87,115116,5,8,0:0:0:0:
407,87,115202,1,8,0:0:0:0:
407,85,115288,1,8,0:0:0:0:
413,83,115630,1,8,0:0:0:0:
422,83,115802,1,0,0:0:0:0:
429,85,115973,1,8,0:0:0:0:
424,74,116316,1,0,0:0:0:0:
425,76,116488,1,0,0:0:0:0:
424,74,116659,1,8,0:0:0:0:
424,73,116830,1,0,0:0:0:0:
436,77,117173,1,0,0:0:0:0:
437,76,117345,1,8,0:0:0:0:
434,68,117688,1,8,0:0:0:0:
438,68,117859,1,0,0:0:0:0:
443,69,118030,1,8,0:0:0:0:
445,69,118202,1,0,0:0:0:0:
443,69,118373,1,0,0:0:0:0:
442,63,118545,1,0,0:0:0:0:
443,62,118716,1,8,0:0:0:0:
445,57,119059,1,8,0:0:0:0:
456,61,119230,1,0,0:0:0:0:
450,62,119402,1,8,0:0:0:0:
454,58,119573,1,8,0:0:0:0:
456,58,119916,1,0,0:0:0:0:
456,58,120088,1,8,0:0:0:0:
461,56,120430,1,0,0:0:0:0:
462,57,120602,1,0,0:0:0:0:
463,56,120773,1,8,0:0:0:0:
470,61,120945,1,0,0:0:0:0:
474,62,121116,1,8,0:0:0:0:
474,62,121288,1,0,0:0:0:0:
473,62,121459,1,8,0:0:0:0:
475,49,121630,1,8,0:0:0:0:
481,51,121802,1,0,0:0:0:0:
470,61,121973,1,0,0:0:0:0:
466,60,122145,1,8,0:0:0:0:
466,60,122316,1,0,0:0:0:0:
473,62,122402,1,0,0:0:0:0:
469,57,122488,1,0,0:0:0:0:
465,60,122659,1,8,0:0:0:0:
465,60,122830,1,0,0:0:0:0:
466,60,123173,1,8,0:0:0:0:
472,54,123345,1,0,0:0:0:0:
469,57,123516,1,8,0:0:0:0:
483,59,123602,1,8,0:0:0:0:
483,64,123688,1,8,0:0:0:0:
481,67,123859,1,8,0:0:0:0:
477,68,124030,1,0,0:0:0:0:
477,68,124202,1,8,0:0:0:0:
479,72,124288,1,8,0:0:0:0:
474,71,124373,1,8,0:0:0:0:
472,72,124545,1,0,0:0:0:0:
471,72,124716,1,8,0:0:0:0:
465,74,124888,1,0,0:0:0:0:
431,107,126259,1,12,0:0:0:0:
413,96,126430,1,0,0:0:0:0:
418,98,126602,1,8,0:0:0:0:
446,88,126688,1,8,0:0:0:0:
445,88,126773,1,8,0:0:0:0:
456,88,126945,1,0,0:0:0:0:
456,88,127116,1,0,0:0:0:0:
457,89,127288,1,8,0:0:0:0:
457,90,127373,1,8,0:0:0:0:
457,91,127459,1,8,0:0:0:0:
457,92,127630,1,0,0:0:0:0:
457,92,127802,1,0,0:0:0:0:
458,92,127973,1,8,0:0:0:0:
453,92,128059,1,8,0:0:0:0:
457,89,128145,1,8,0:0:0:0:
457,90,128316,1,0,0:0:0:0:
458,92,128488,1,0,0:0:0:0:
457,92,128659,1,8,0:0:0:0:
462,83,128745,1,8,0:0:0:0:
447,78,128830,1,8,0:0:0:0:
460,83,129002,1,8,0:0:0:0:
457,90,129345,1,0,0:0:0:0:
460,83,129430,1,0,0:0:0:0:
452,85,129516,1,0,0:0:0:0:
462,83,129688,1,8,0:0:0:0:
453,85,130030,1,8,0:0:0:0:
453,85,130116,1,8,0:0:0:0:
457,89,130202,1,8,0:0:0:0:
460,77,130373,1,0,0:0:0:0:
462,75,130716,1,8,0:0:0:0:
363,98,130888,1,0,0:0:0:0:
410,85,130973,1,0,0:0:0:0:
465,75,131059,1,0,0:0:0:0:
476,75,131230,1,8,0:0:0:0:
478,78,131402,1,8,0:0:0:0:
477,75,131745,1,0,0:0:0:0:
480,76,132088,1,8,0:0:0:0:
436,103,132173,1,8,0:0:0:0:
448,105,132259,1,8,0:0:0:0:
449,104,132430,1,0,0:0:0:0:
451,92,132602,1,0,0:0:0:0:
451,92,132773,1,8,0:0:0:0:
464,88,132859,1,8,0:0:0:0:
452,92,132945,1,8,0:0:0:0:
451,92,133116,1,0,0:0:0:0:
452,92,133288,1,0,0:0:0:0:
451,92,133459,1,8,0:0:0:0:
464,88,133545,1,8,0:0:0:0:
452,97,133630,1,8,0:0:0:0:
451,92,133802,1,0,0:0:0:0:
452,92,133973,1,0,0:0:0:0:
451,92,134145,1,8,0:0:0:0:
464,88,134230,1,8,0:0:0:0:
452,92,134316,1,8,0:0:0:0:
472,86,134488,1,8,0:0:0:0:
480,79,134745,1,0,0:0:0:0:
494,79,135002,1,0,0:0:0:0:
489,79,135173,1,8,0:0:0:0:
490,83,135688,1,0,0:0:0:0:
490,83,135859,1,8,0:0:0:0:
493,79,136116,1,0,0:0:0:0:
495,72,136373,1,8,0:0:0:0:
491,75,136545,1,0,0:0:0:0:
491,75,136716,1,0,0:0:0:0:
490,71,136888,1,8,0:0:0:0:
489,79,137230,1,0,0:0:0:0:
491,75,137573,1,0,0:0:0:0:
497,71,137659,1,0,0:0:0:0:
491,75,137745,1,0,0:0:0:0:
490,71,137916,1,8,0:0:0:0:
486,83,138088,1,8,0:0:0:0:
494,74,138259,1,0,0:0:0:0:
446,90,138345,1,0,0:0:0:0:
446,90,138430,1,0,0:0:0:0:
491,75,138602,1,8,0:0:0:0:
491,75,138773,1,8,0:0:0:0:
490,71,138945,1,0,0:0:0:0:
499,76,139030,1,0,0:0:0:0:
494,74,139116,1,0,0:0:0:0:
491,75,139288,1,8,0:0:0:0:
491,75,139459,1,8,0:0:0:0:
490,71,139630,1,0,0:0:0:0:
497,71,139716,1,0,0:0:0:0:
491,75,139802,1,0,0:0:0:0:
502,79,139973,1,0,0:0:0:0:
494,79,140316,1,8,0:0:0:0:
496,81,140402,1,8,0:0:0:0:
496,81,140488,1,8,0:0:0:0:
496,81,140659,1,0,0:0:0:0:
487,80,141002,1,0,0:0:0:0:
503,75,141088,1,0,0:0:0:0:
504,72,141173,1,0,0:0:0:0:
504,72,141345,1,8,0:0:0:0:
496,81,141688,1,8,0:0:0:0:
499,83,141773,1,8,0:0:0:0:
499,83,141859,1,8,0:0:0:0:
499,83,142030,1,8,0:0:0:0:
499,85,142202,1,0,0:0:0:0:
499,85,142373,1,8,0:0:0:0:
496,81,142716,1,0,0:0:0:0:
499,83,143059,1,8,0:0:0:0:
491,81,143145,1,8,0:0:0:0:
492,81,143230,1,8,0:0:0:0:
493,80,143402,1,0,0:0:0:0:
494,68,143573,1,0,0:0:0:0:
496,81,143745,1,8,0:0:0:0:
487,66,143830,1,8,0:0:0:0:
495,68,143916,1,8,0:0:0:0:
499,83,144088,1,0,0:0:0:0:
495,68,144259,1,0,0:0:0:0:
493,80,144430,1,8,0:0:0:0:
492,68,144516,1,8,0:0:0:0:
494,68,144602,1,8,0:0:0:0:
496,81,144773,1,0,0:0:0:0:
505,72,144945,1,0,0:0:0:0:
499,83,145116,1,8,0:0:0:0:
492,68,145202,1,8,0:0:0:0:
495,68,145288,1,8,0:0:0:0:
492,68,145459,1,8,0:0:0:0:
494,69,145716,1,0,0:0:0:0:
497,74,145973,1,0,0:0:0:0:
504,71,146145,1,8,0:0:0:0:
468,78,146659,1,8,0:0:0:0:
479,79,146830,1,0,0:0:0:0:
475,75,147002,1,8,0:0:0:0:
475,76,147173,1,0,0:0:0:0:
436,88,147259,1,0,0:0:0:0:
477,78,147345,1,0,0:0:0:0:
478,79,147516,1,8,0:0:0:0:
436,88,148202,1,4,0:0:0:0:
