osu file format v14

[General]
AudioFilename: audio.mp3
AudioLeadIn: 0
PreviewTime: 87416
Countdown: 0
SampleSet: Normal
StackLeniency: 0.7
Mode: 1
LetterboxInBreaks: 0
WidescreenStoryboard: 0

[Editor]
DistanceSpacing: 0.1
BeatDivisor: 4
GridSize: 32
TimelineZoom: 2

[Metadata]
Title:Watsupu
TitleUnicode:ゎっ、ζ、°ʚ ♥ɞ
Artist:DJ Majokko Mirakurun
ArtistUnicode:ღDJ魔女っ娘ミラクるんღ
Creator:Nifty
Version:Kantan
Source:
Tags:sv rap hip hop bardi female vocal wet ass pussy explicit electronic english nightcore Cardi B WAP feat. Megan Thee Stallion (Saint Punk Remix)
BeatmapID:3368215
BeatmapSetID:1603083

[Difficulty]
HPDrainRate:7.5
CircleSize:2
OverallDifficulty:2.5
ApproachRate:10
SliderMultiplier:1.4
SliderTickRate:1

[Events]
//Background and Video events
0,0,"madoswag.jpg",0,120
//Break Periods
2,32945,38038
2,109745,114838
//Storyboard Layer 0 (Background)
//Storyboard Layer 1 (Fail)
//Storyboard Layer 2 (Pass)
//Storyboard Layer 3 (Foreground)
//Storyboard Layer 4 (Overlay)
//Storyboard Sound Samples

[TimingPoints]
88,342.857142857143,4,1,0,100,1,0
46716,-90.9090909090909,4,1,0,100,0,1
47745,-90.9090909090909,4,1,0,100,0,0
49255,-100,4,1,0,100,0,0
54688,-90.9090909090909,4,1,0,100,0,0
66259,-90.9090909090909,4,1,0,100,0,1
87173,-90.9090909090909,4,1,0,100,0,0
126602,-90.9090909090909,4,1,0,100,0,1
148202,-90.9090909090909,4,1,0,100,0,0

[HitObjects]
353,120,11059,5,0,0:0:0:0:
353,120,11745,1,0,0:0:0:0:
353,120,12430,1,0,0:0:0:0:
353,120,13116,1,0,0:0:0:0:
353,120,13802,1,0,0:0:0:0:
353,120,14488,1,0,0:0:0:0:
353,120,15173,1,0,0:0:0:0:
353,120,15859,1,0,0:0:0:0:
353,120,16545,1,8,0:0:0:0:
353,120,17230,1,8,0:0:0:0:
353,120,17916,1,8,0:0:0:0:
353,120,18602,1,8,0:0:0:0:
353,120,19288,1,8,0:0:0:0:
353,120,19973,1,8,0:0:0:0:
353,120,20659,1,8,0:0:0:0:
363,123,22030,1,0,0:0:0:0:
363,123,22373,1,0,0:0:0:0:
363,123,22716,1,0,0:0:0:0:
363,123,23402,1,0,0:0:0:0:
363,123,23745,1,0,0:0:0:0:
363,123,24088,1,0,0:0:0:0:
363,123,24773,1,0,0:0:0:0:
363,123,25116,1,0,0:0:0:0:
363,123,25459,1,0,0:0:0:0:
363,123,26145,1,0,0:0:0:0:
363,123,26488,1,0,0:0:0:0:
363,123,26830,1,0,0:0:0:0:
363,123,27516,1,8,0:0:0:0:
363,123,27859,1,8,0:0:0:0:
363,123,28202,1,8,0:0:0:0:
363,123,28888,1,8,0:0:0:0:
363,123,29230,1,8,0:0:0:0:
363,123,29573,1,8,0:0:0:0:
363,123,30259,1,8,0:0:0:0:
363,123,30602,1,8,0:0:0:0:
363,123,30945,1,8,0:0:0:0:
363,123,31630,1,8,0:0:0:0:
363,123,31973,1,8,0:0:0:0:
363,123,32316,1,8,0:0:0:0:
377,109,38488,5,8,0:0:0:0:
366,108,39173,1,8,0:0:0:0:
366,108,39859,1,8,0:0:0:0:
366,108,40545,1,8,0:0:0:0:
366,108,41230,1,8,0:0:0:0:
366,108,41916,1,8,0:0:0:0:
365,98,42602,1,8,0:0:0:0:
372,91,43973,1,0,0:0:0:0:
380,90,44316,1,8,0:0:0:0:
380,92,44659,1,8,0:0:0:0:
387,74,45345,1,0,0:0:0:0:
355,75,45688,1,8,0:0:0:0:
389,77,46030,1,0,0:0:0:0:
396,65,46716,1,12,0:0:0:0:
399,67,47230,1,12,0:0:0:0:
396,65,47745,1,12,0:0:0:0:
400,84,49459,1,8,0:0:0:0:
400,84,50145,1,8,0:0:0:0:
400,84,50488,1,0,0:0:0:0:
400,84,50830,1,8,0:0:0:0:
400,84,51516,1,8,0:0:0:0:
400,84,52202,1,8,0:0:0:0:
400,84,52888,1,8,0:0:0:0:
400,84,53230,1,0,0:0:0:0:
405,89,53573,1,8,0:0:0:0:
407,85,54945,1,0,0:0:0:0:
413,83,55288,1,8,0:0:0:0:
429,85,55630,1,8,0:0:0:0:
424,74,56316,1,8,0:0:0:0:
424,73,56830,1,0,0:0:0:0:
391,100,57345,1,0,0:0:0:0:
443,69,57688,1,8,0:0:0:0:
443,69,58030,1,8,0:0:0:0:
443,62,58373,1,0,0:0:0:0:
450,62,59059,1,8,0:0:0:0:
456,58,59573,1,0,0:0:0:0:
478,96,60088,1,0,0:0:0:0:
463,56,60430,1,8,0:0:0:0:
474,62,60773,1,8,0:0:0:0:
473,62,61116,1,8,0:0:0:0:
466,60,61802,1,8,0:0:0:0:
439,83,62316,1,0,0:0:0:0:
440,82,62830,1,8,0:0:0:0:
469,57,63173,1,0,0:0:0:0:
481,67,63516,1,0,0:0:0:0:
477,68,63859,1,8,0:0:0:0:
472,72,64202,1,8,0:0:0:0:
465,74,64545,1,0,0:0:0:0:
431,107,65916,1,12,0:0:0:0:
418,98,66259,1,8,0:0:0:0:
456,88,66602,1,0,0:0:0:0:
457,89,66945,1,8,0:0:0:0:
457,92,67288,1,0,0:0:0:0:
458,92,67630,1,8,0:0:0:0:
457,90,67973,1,0,0:0:0:0:
460,83,68659,1,8,0:0:0:0:
457,92,69002,1,8,0:0:0:0:
457,92,69345,1,0,0:0:0:0:
460,77,70030,1,0,0:0:0:0:
462,75,70373,1,0,0:0:0:0:
465,75,70716,1,8,0:0:0:0:
480,76,71745,1,8,0:0:0:0:
449,104,72088,1,0,0:0:0:0:
451,92,72430,1,8,0:0:0:0:
451,92,72773,1,0,0:0:0:0:
464,88,73116,1,8,0:0:0:0:
451,92,73459,1,0,0:0:0:0:
472,86,74145,1,8,0:0:0:0:
480,79,74488,1,0,0:0:0:0:
489,79,74830,1,8,0:0:0:0:
359,112,75516,1,0,0:0:0:0:
493,79,75859,1,0,0:0:0:0:
491,75,76202,1,8,0:0:0:0:
491,75,77230,1,0,0:0:0:0:
490,71,77573,1,8,0:0:0:0:
494,74,77916,1,0,0:0:0:0:
491,75,78259,1,8,0:0:0:0:
490,71,78602,1,0,0:0:0:0:
491,75,78945,1,8,0:0:0:0:
502,79,79630,1,0,0:0:0:0:
494,79,79973,1,8,0:0:0:0:
496,81,80316,1,0,0:0:0:0:
504,72,81002,1,0,0:0:0:0:
496,81,81345,1,8,0:0:0:0:
499,85,81688,1,8,0:0:0:0:
499,83,82716,1,8,0:0:0:0:
493,80,83059,1,0,0:0:0:0:
496,81,83402,1,8,0:0:0:0:
499,83,83745,1,0,0:0:0:0:
493,80,84088,1,8,0:0:0:0:
496,81,84430,1,0,0:0:0:0:
492,68,85116,1,8,0:0:0:0:
494,69,85459,1,0,0:0:0:0:
504,71,85802,1,8,0:0:0:0:
479,79,86488,1,0,0:0:0:0:
475,76,86830,1,0,0:0:0:0:
478,79,87173,1,8,0:0:0:0:
417,114,90602,1,4,0:0:0:0:
421,104,91630,1,4,0:0:0:0:
421,104,92316,1,4,0:0:0:0:
435,91,93345,1,4,0:0:0:0:
435,91,94373,1,4,0:0:0:0:
435,91,95059,1,4,0:0:0:0:
452,96,96088,1,4,0:0:0:0:
452,96,97116,1,4,0:0:0:0:
452,96,97802,1,4,0:0:0:0:
474,106,101230,1,8,0:0:0:0:
481,107,101573,1,4,0:0:0:0:
482,106,102259,1,8,0:0:0:0:
481,107,102602,1,0,0:0:0:0:
482,106,103288,1,0,0:0:0:0:
468,97,103630,1,8,0:0:0:0:
481,115,104316,1,0,0:0:0:0:
482,115,104659,1,0,0:0:0:0:
492,114,105002,1,8,0:0:0:0:
494,117,105345,1,0,0:0:0:0:
493,117,106030,1,0,0:0:0:0:
445,98,106373,1,8,0:0:0:0:
453,95,107059,1,4,0:0:0:0:
469,103,108088,1,0,0:0:0:0:
469,103,108773,1,0,0:0:0:0:
407,85,115288,5,0,0:0:0:0:
413,83,115630,1,8,0:0:0:0:
429,85,115973,1,8,0:0:0:0:
424,74,116659,1,8,0:0:0:0:
424,73,117173,1,0,0:0:0:0:
437,76,117688,1,0,0:0:0:0:
443,69,118030,1,8,0:0:0:0:
443,69,118373,1,8,0:0:0:0:
443,62,118716,1,0,0:0:0:0:
450,62,119402,1,8,0:0:0:0:
454,58,119916,1,0,0:0:0:0:
456,58,120430,1,0,0:0:0:0:
463,56,120773,1,8,0:0:0:0:
474,62,121116,1,8,0:0:0:0:
473,62,121459,1,8,0:0:0:0:
466,60,122145,1,8,0:0:0:0:
439,83,122659,1,0,0:0:0:0:
440,82,123173,1,8,0:0:0:0:
469,57,123516,1,0,0:0:0:0:
481,67,123859,1,0,0:0:0:0:
477,68,124202,1,8,0:0:0:0:
472,72,124545,1,8,0:0:0:0:
465,74,124888,1,0,0:0:0:0:
431,107,126259,1,12,0:0:0:0:
418,98,126602,1,8,0:0:0:0:
456,88,126945,1,0,0:0:0:0:
457,89,127288,1,8,0:0:0:0:
457,92,127630,1,0,0:0:0:0:
458,92,127973,1,8,0:0:0:0:
457,90,128316,1,0,0:0:0:0:
460,83,129002,1,8,0:0:0:0:
457,92,129345,1,8,0:0:0:0:
457,92,129688,1,0,0:0:0:0:
460,77,130373,1,0,0:0:0:0:
462,75,130716,1,0,0:0:0:0:
465,75,131059,1,8,0:0:0:0:
480,76,132088,1,8,0:0:0:0:
449,104,132430,1,0,0:0:0:0:
451,92,132773,1,8,0:0:0:0:
451,92,133116,1,0,0:0:0:0:
464,88,133459,1,8,0:0:0:0:
451,92,133802,1,0,0:0:0:0:
472,86,134488,1,8,0:0:0:0:
480,79,134830,1,0,0:0:0:0:
489,79,135173,1,8,0:0:0:0:
359,112,135859,1,0,0:0:0:0:
493,79,136202,1,0,0:0:0:0:
491,75,136545,1,8,0:0:0:0:
491,75,137573,1,0,0:0:0:0:
490,71,137916,1,8,0:0:0:0:
494,74,138259,1,0,0:0:0:0:
491,75,138602,1,8,0:0:0:0:
490,71,138945,1,0,0:0:0:0:
491,75,139288,1,8,0:0:0:0:
502,79,139973,1,0,0:0:0:0:
494,79,140316,1,8,0:0:0:0:
496,81,140659,1,0,0:0:0:0:
504,72,141345,1,0,0:0:0:0:
496,81,141688,1,8,0:0:0:0:
499,85,142030,1,8,0:0:0:0:
499,83,143059,1,8,0:0:0:0:
493,80,143402,1,0,0:0:0:0:
496,81,143745,1,8,0:0:0:0:
499,83,144088,1,0,0:0:0:0:
493,80,144430,1,8,0:0:0:0:
496,81,144773,1,0,0:0:0:0:
492,68,145459,1,8,0:0:0:0:
494,69,145802,1,0,0:0:0:0:
504,71,146145,1,8,0:0:0:0:
479,79,146830,1,0,0:0:0:0:
475,76,147173,1,0,0:0:0:0:
478,79,147516,1,8,0:0:0:0:
434,88,148202,1,4,0:0:0:0:
