osu file format v14

[General]
AudioFilename: audio.mp3
AudioLeadIn: 0
PreviewTime: 87416
Countdown: 0
SampleSet: Normal
StackLeniency: 0.7
Mode: 1
LetterboxInBreaks: 0
WidescreenStoryboard: 0

[Editor]
DistanceSpacing: 0.1
BeatDivisor: 4
GridSize: 32
TimelineZoom: 2

[Metadata]
Title:Watsupu
TitleUnicode:ゎっ、ζ、°ʚ ♥ɞ
Artist:DJ Majokko Mirakurun
ArtistUnicode:ღDJ魔女っ娘ミラクるんღ
Creator:Nifty
Version:Futsuu
Source:
Tags:sv rap hip hop bardi female vocal wet ass pussy explicit electronic english nightcore Cardi B WAP feat. Megan Thee Stallion (Saint Punk Remix)
BeatmapID:3368214
BeatmapSetID:1603083

[Difficulty]
HPDrainRate:7
CircleSize:2
OverallDifficulty:3
ApproachRate:10
SliderMultiplier:1.4
SliderTickRate:1

[Events]
//Background and Video events
0,0,"madoswag.jpg",0,120
//Break Periods
2,32945,38038
2,109745,114152
//Storyboard Layer 0 (Background)
//Storyboard Layer 1 (Fail)
//Storyboard Layer 2 (Pass)
//Storyboard Layer 3 (Foreground)
//Storyboard Layer 4 (Overlay)
//Storyboard Sound Samples

[TimingPoints]
88,342.857142857143,4,1,0,100,1,0
46716,-83.3333333333333,4,1,0,100,0,1
47745,-83.3333333333333,4,1,0,100,0,0
66259,-90.9090909090909,4,1,0,100,0,1
87173,-90.9090909090909,4,1,0,100,0,0
126602,-90.9090909090909,4,1,0,100,0,1
148202,-90.9090909090909,4,1,0,100,0,0

[HitObjects]
353,120,11059,5,0,0:0:0:0:
353,120,11402,1,0,0:0:0:0:
353,120,11745,1,0,0:0:0:0:
353,120,12430,1,0,0:0:0:0:
353,120,12773,1,0,0:0:0:0:
353,120,13116,1,0,0:0:0:0:
353,120,13802,1,0,0:0:0:0:
353,120,14145,1,0,0:0:0:0:
353,120,14488,1,0,0:0:0:0:
353,120,15173,1,0,0:0:0:0:
353,120,15516,1,0,0:0:0:0:
353,120,15859,1,0,0:0:0:0:
353,120,16545,1,8,0:0:0:0:
353,120,16888,1,8,0:0:0:0:
353,120,17230,1,8,0:0:0:0:
353,120,17916,1,8,0:0:0:0:
353,120,18259,1,8,0:0:0:0:
353,120,18602,1,8,0:0:0:0:
353,120,19288,1,8,0:0:0:0:
353,120,19630,1,8,0:0:0:0:
353,120,19973,1,8,0:0:0:0:
353,120,20659,1,8,0:0:0:0:
363,123,21002,1,8,0:0:0:0:
363,123,21345,1,8,0:0:0:0:
363,123,22030,1,0,0:0:0:0:
363,123,22373,1,0,0:0:0:0:
363,123,22716,1,0,0:0:0:0:
363,123,23059,1,0,0:0:0:0:
363,123,23402,1,0,0:0:0:0:
363,123,23745,1,0,0:0:0:0:
363,123,24088,1,0,0:0:0:0:
363,123,24773,1,0,0:0:0:0:
363,123,25116,1,0,0:0:0:0:
363,123,25459,1,0,0:0:0:0:
363,123,25802,1,0,0:0:0:0:
363,123,26145,1,0,0:0:0:0:
363,123,26488,1,0,0:0:0:0:
363,123,26830,1,0,0:0:0:0:
363,123,27516,1,8,0:0:0:0:
363,123,27859,1,8,0:0:0:0:
363,123,28202,1,8,0:0:0:0:
363,123,28545,1,8,0:0:0:0:
363,123,28888,1,8,0:0:0:0:
363,123,29230,1,8,0:0:0:0:
363,123,29573,1,8,0:0:0:0:
363,123,30259,1,8,0:0:0:0:
363,123,30602,1,8,0:0:0:0:
363,123,30945,1,8,0:0:0:0:
363,123,31288,1,8,0:0:0:0:
363,123,31630,1,8,0:0:0:0:
363,123,31973,1,8,0:0:0:0:
363,123,32316,1,8,0:0:0:0:
377,109,38488,5,8,0:0:0:0:
366,108,38830,1,8,0:0:0:0:
366,108,39173,1,8,0:0:0:0:
366,108,39859,1,8,0:0:0:0:
366,108,40202,1,8,0:0:0:0:
366,108,40545,1,8,0:0:0:0:
366,108,41230,1,8,0:0:0:0:
366,108,41573,1,8,0:0:0:0:
366,108,41916,1,8,0:0:0:0:
365,98,42602,1,8,0:0:0:0:
365,98,42945,1,8,0:0:0:0:
365,98,43288,1,8,0:0:0:0:
372,91,43973,1,0,0:0:0:0:
380,90,44316,1,8,0:0:0:0:
373,98,44488,1,0,0:0:0:0:
380,92,44659,1,8,0:0:0:0:
384,83,45002,1,8,0:0:0:0:
387,74,45345,1,0,0:0:0:0:
355,75,45688,1,8,0:0:0:0:
387,75,45859,1,0,0:0:0:0:
389,77,46030,1,8,0:0:0:0:
386,64,46373,1,8,0:0:0:0:
396,65,46716,1,12,0:0:0:0:
399,67,47230,1,12,0:0:0:0:
396,65,47745,1,12,0:0:0:0:
400,84,49459,1,8,0:0:0:0:
400,84,49802,1,8,0:0:0:0:
400,84,50145,1,8,0:0:0:0:
400,84,50488,1,8,0:0:0:0:
400,84,50659,1,0,0:0:0:0:
400,84,50830,1,8,0:0:0:0:
400,84,51173,1,8,0:0:0:0:
400,84,51516,1,8,0:0:0:0:
400,84,52202,1,8,0:0:0:0:
400,84,52545,1,8,0:0:0:0:
400,84,52888,1,8,0:0:0:0:
400,84,53230,1,8,0:0:0:0:
400,84,53402,1,0,0:0:0:0:
405,89,53573,1,8,0:0:0:0:
407,87,53916,1,8,0:0:0:0:
407,85,54259,1,8,0:0:0:0:
407,85,54945,1,0,0:0:0:0:
413,83,55288,1,8,0:0:0:0:
422,83,55459,1,0,0:0:0:0:
429,85,55630,1,8,0:0:0:0:
424,74,55973,1,0,0:0:0:0:
425,76,56145,1,0,0:0:0:0:
424,74,56316,1,8,0:0:0:0:
424,73,56488,1,0,0:0:0:0:
436,77,56830,1,0,0:0:0:0:
437,76,57002,1,8,0:0:0:0:
443,69,57688,1,8,0:0:0:0:
445,69,57859,1,0,0:0:0:0:
443,69,58030,1,0,0:0:0:0:
442,63,58202,1,0,0:0:0:0:
443,62,58373,1,8,0:0:0:0:
445,57,58716,1,8,0:0:0:0:
456,61,58888,1,0,0:0:0:0:
450,62,59059,1,8,0:0:0:0:
454,58,59230,1,8,0:0:0:0:
456,58,59573,1,0,0:0:0:0:
456,58,59745,1,8,0:0:0:0:
463,56,60430,1,8,0:0:0:0:
470,61,60602,1,0,0:0:0:0:
474,62,60773,1,8,0:0:0:0:
473,62,61116,1,8,0:0:0:0:
475,49,61288,1,8,0:0:0:0:
481,51,61459,1,0,0:0:0:0:
466,60,61802,1,8,0:0:0:0:
466,60,61973,1,0,0:0:0:0:
469,57,62145,1,0,0:0:0:0:
465,60,62316,1,8,0:0:0:0:
465,60,62488,1,0,0:0:0:0:
466,60,62830,1,8,0:0:0:0:
472,54,63002,1,0,0:0:0:0:
469,57,63173,1,8,0:0:0:0:
483,64,63345,1,8,0:0:0:0:
481,67,63516,1,8,0:0:0:0:
477,68,63688,1,0,0:0:0:0:
477,68,63859,1,8,0:0:0:0:
472,72,64202,1,0,0:0:0:0:
471,72,64373,1,8,0:0:0:0:
465,74,64545,1,0,0:0:0:0:
431,107,65916,1,12,0:0:0:0:
418,98,66259,1,8,0:0:0:0:
445,88,66430,1,8,0:0:0:0:
456,88,66602,1,0,0:0:0:0:
457,89,66945,1,8,0:0:0:0:
457,91,67116,1,8,0:0:0:0:
457,92,67288,1,0,0:0:0:0:
458,92,67630,1,8,0:0:0:0:
457,89,67802,1,8,0:0:0:0:
457,90,67973,1,0,0:0:0:0:
457,92,68316,1,8,0:0:0:0:
460,83,68659,1,8,0:0:0:0:
448,84,68830,1,0,0:0:0:0:
457,92,69002,1,8,0:0:0:0:
457,92,69173,1,8,0:0:0:0:
457,92,69345,1,0,0:0:0:0:
453,85,69688,1,8,0:0:0:0:
460,77,70030,1,0,0:0:0:0:
450,84,70202,1,8,0:0:0:0:
462,75,70373,1,0,0:0:0:0:
363,98,70545,1,0,0:0:0:0:
465,75,70716,1,8,0:0:0:0:
478,78,71059,1,8,0:0:0:0:
477,75,71402,1,0,0:0:0:0:
480,76,71745,1,8,0:0:0:0:
448,105,71916,1,8,0:0:0:0:
449,104,72088,1,0,0:0:0:0:
451,92,72430,1,8,0:0:0:0:
452,92,72602,1,8,0:0:0:0:
451,92,72773,1,0,0:0:0:0:
464,88,73116,1,8,0:0:0:0:
452,97,73288,1,8,0:0:0:0:
451,92,73459,1,0,0:0:0:0:
451,92,73802,1,8,0:0:0:0:
452,92,73973,1,8,0:0:0:0:
472,86,74145,1,8,0:0:0:0:
480,79,74402,1,0,0:0:0:0:
494,79,74659,1,0,0:0:0:0:
489,79,74830,1,8,0:0:0:0:
490,83,75516,1,8,0:0:0:0:
493,79,75773,1,0,0:0:0:0:
495,72,76030,1,8,0:0:0:0:
491,75,76202,1,0,0:0:0:0:
490,71,76545,1,8,0:0:0:0:
489,79,76888,1,0,0:0:0:0:
491,75,77230,1,0,0:0:0:0:
491,75,77402,1,0,0:0:0:0:
490,71,77573,1,8,0:0:0:0:
494,74,77916,1,0,0:0:0:0:
446,90,78088,1,0,0:0:0:0:
491,75,78259,1,8,0:0:0:0:
490,71,78602,1,0,0:0:0:0:
494,74,78773,1,0,0:0:0:0:
491,75,78945,1,8,0:0:0:0:
466,69,79288,1,0,0:0:0:0:
502,79,79630,1,0,0:0:0:0:
481,68,79802,1,0,0:0:0:0:
494,79,79973,1,8,0:0:0:0:
496,81,80145,1,8,0:0:0:0:
496,81,80316,1,0,0:0:0:0:
487,80,80659,1,8,0:0:0:0:
504,72,81002,1,0,0:0:0:0:
451,79,81173,1,8,0:0:0:0:
496,81,81345,1,0,0:0:0:0:
499,83,81516,1,8,0:0:0:0:
499,85,81688,1,0,0:0:0:0:
499,85,82030,1,8,0:0:0:0:
496,81,82373,1,0,0:0:0:0:
499,83,82716,1,8,0:0:0:0:
492,81,82888,1,8,0:0:0:0:
493,80,83059,1,0,0:0:0:0:
496,81,83402,1,8,0:0:0:0:
487,66,83573,1,8,0:0:0:0:
499,83,83745,1,0,0:0:0:0:
493,80,84088,1,8,0:0:0:0:
494,68,84259,1,8,0:0:0:0:
496,81,84430,1,0,0:0:0:0:
499,83,84773,1,8,0:0:0:0:
495,68,84945,1,8,0:0:0:0:
492,68,85116,1,8,0:0:0:0:
494,69,85373,1,0,0:0:0:0:
497,74,85630,1,0,0:0:0:0:
504,71,85802,1,8,0:0:0:0:
479,79,86488,1,0,0:0:0:0:
475,75,86659,1,8,0:0:0:0:
475,76,86830,1,0,0:0:0:0:
477,78,87002,1,0,0:0:0:0:
478,79,87173,1,8,0:0:0:0:
417,114,90602,1,4,0:0:0:0:
429,91,91288,1,8,0:0:0:0:
421,104,91630,1,4,0:0:0:0:
421,104,92316,1,4,0:0:0:0:
434,102,92659,1,8,0:0:0:0:
435,91,93345,1,4,0:0:0:0:
435,91,94030,1,8,0:0:0:0:
435,91,94373,1,4,0:0:0:0:
435,91,95059,1,4,0:0:0:0:
442,94,95402,1,8,0:0:0:0:
452,96,96088,1,4,0:0:0:0:
452,96,96773,1,8,0:0:0:0:
452,96,97116,1,4,0:0:0:0:
452,96,97802,1,4,0:0:0:0:
467,100,98145,1,8,0:0:0:0:
474,106,100202,1,8,0:0:0:0:
474,106,100545,1,8,0:0:0:0:
471,107,100888,1,8,0:0:0:0:
474,106,101230,1,8,0:0:0:0:
474,106,101402,1,8,0:0:0:0:
481,107,101573,1,4,0:0:0:0:
499,110,101916,1,0,0:0:0:0:
501,109,102088,1,0,0:0:0:0:
482,106,102259,1,8,0:0:0:0:
481,107,102602,1,0,0:0:0:0:
494,118,102945,1,8,0:0:0:0:
482,106,103116,1,0,0:0:0:0:
482,107,103459,1,0,0:0:0:0:
468,97,103630,1,8,0:0:0:0:
482,105,103973,1,0,0:0:0:0:
481,115,104316,1,8,0:0:0:0:
482,115,104659,1,0,0:0:0:0:
482,113,104830,1,0,0:0:0:0:
492,114,105002,1,8,0:0:0:0:
494,117,105345,1,0,0:0:0:0:
494,117,105688,1,8,0:0:0:0:
493,117,105859,1,0,0:0:0:0:
493,115,106202,1,0,0:0:0:0:
445,98,106373,1,8,0:0:0:0:
452,98,106716,1,8,0:0:0:0:
453,95,107059,1,4,0:0:0:0:
469,103,108088,1,0,0:0:0:0:
469,103,108602,1,0,0:0:0:0:
469,103,108773,1,0,0:0:0:0:
399,100,114602,5,0,0:0:0:0:
399,100,114859,1,0,0:0:0:0:
397,86,115116,1,8,0:0:0:0:
407,85,115288,5,0,0:0:0:0:
413,83,115630,1,8,0:0:0:0:
422,83,115802,1,0,0:0:0:0:
429,85,115973,1,8,0:0:0:0:
424,74,116316,1,0,0:0:0:0:
425,76,116488,1,0,0:0:0:0:
424,74,116659,1,8,0:0:0:0:
424,73,116830,1,0,0:0:0:0:
436,77,117173,1,0,0:0:0:0:
437,76,117345,1,8,0:0:0:0:
443,69,118030,1,8,0:0:0:0:
445,69,118202,1,0,0:0:0:0:
443,69,118373,1,0,0:0:0:0:
442,63,118545,1,0,0:0:0:0:
443,62,118716,1,8,0:0:0:0:
445,57,119059,1,8,0:0:0:0:
456,61,119230,1,0,0:0:0:0:
450,62,119402,1,8,0:0:0:0:
454,58,119573,1,8,0:0:0:0:
456,58,119916,1,0,0:0:0:0:
456,58,120088,1,8,0:0:0:0:
463,56,120773,1,8,0:0:0:0:
470,61,120945,1,0,0:0:0:0:
474,62,121116,1,8,0:0:0:0:
473,62,121459,1,8,0:0:0:0:
475,49,121630,1,8,0:0:0:0:
481,51,121802,1,0,0:0:0:0:
466,60,122145,1,8,0:0:0:0:
466,60,122316,1,0,0:0:0:0:
469,57,122488,1,0,0:0:0:0:
465,60,122659,1,8,0:0:0:0:
465,60,122830,1,0,0:0:0:0:
466,60,123173,1,8,0:0:0:0:
472,54,123345,1,0,0:0:0:0:
469,57,123516,1,8,0:0:0:0:
483,64,123688,1,8,0:0:0:0:
481,67,123859,1,8,0:0:0:0:
477,68,124030,1,0,0:0:0:0:
477,68,124202,1,8,0:0:0:0:
472,72,124545,1,0,0:0:0:0:
471,72,124716,1,8,0:0:0:0:
465,74,124888,1,0,0:0:0:0:
431,107,126259,1,12,0:0:0:0:
418,98,126602,1,8,0:0:0:0:
445,88,126773,1,8,0:0:0:0:
456,88,126945,1,0,0:0:0:0:
457,89,127288,1,8,0:0:0:0:
457,91,127459,1,8,0:0:0:0:
457,92,127630,1,0,0:0:0:0:
458,92,127973,1,8,0:0:0:0:
457,89,128145,1,8,0:0:0:0:
457,90,128316,1,0,0:0:0:0:
457,92,128659,1,8,0:0:0:0:
460,83,129002,1,8,0:0:0:0:
434,90,129173,1,0,0:0:0:0:
439,90,129345,1,8,0:0:0:0:
452,85,129516,1,0,0:0:0:0:
462,83,129688,1,8,0:0:0:0:
453,85,130030,1,8,0:0:0:0:
460,77,130373,1,0,0:0:0:0:
452,85,130545,1,0,0:0:0:0:
452,86,130716,1,8,0:0:0:0:
363,98,130888,1,0,0:0:0:0:
465,75,131059,1,8,0:0:0:0:
478,78,131402,1,8,0:0:0:0:
477,75,131745,1,0,0:0:0:0:
480,76,132088,1,8,0:0:0:0:
448,105,132259,1,8,0:0:0:0:
449,104,132430,1,0,0:0:0:0:
451,92,132773,1,8,0:0:0:0:
452,92,132945,1,8,0:0:0:0:
451,92,133116,1,0,0:0:0:0:
464,88,133459,1,8,0:0:0:0:
452,97,133630,1,8,0:0:0:0:
451,92,133802,1,0,0:0:0:0:
451,92,134145,1,8,0:0:0:0:
452,92,134316,1,8,0:0:0:0:
472,86,134488,1,8,0:0:0:0:
480,79,134745,1,0,0:0:0:0:
494,79,135002,1,0,0:0:0:0:
489,79,135173,1,8,0:0:0:0:
490,83,135859,1,8,0:0:0:0:
493,79,136116,1,0,0:0:0:0:
495,72,136373,1,8,0:0:0:0:
491,75,136545,1,0,0:0:0:0:
490,71,136888,1,8,0:0:0:0:
489,79,137230,1,0,0:0:0:0:
491,75,137573,1,0,0:0:0:0:
491,75,137745,1,0,0:0:0:0:
490,71,137916,1,8,0:0:0:0:
494,74,138259,1,0,0:0:0:0:
446,90,138430,1,0,0:0:0:0:
491,75,138602,1,8,0:0:0:0:
490,71,138945,1,0,0:0:0:0:
494,74,139116,1,0,0:0:0:0:
491,75,139288,1,8,0:0:0:0:
490,71,139630,1,0,0:0:0:0:
502,79,139973,1,0,0:0:0:0:
471,76,140145,1,0,0:0:0:0:
494,79,140316,1,8,0:0:0:0:
496,81,140488,1,8,0:0:0:0:
496,81,140659,1,0,0:0:0:0:
487,80,141002,1,8,0:0:0:0:
504,72,141345,1,0,0:0:0:0:
485,91,141516,1,0,0:0:0:0:
496,81,141688,1,8,0:0:0:0:
499,83,141859,1,0,0:0:0:0:
499,83,142030,1,8,0:0:0:0:
499,85,142373,1,8,0:0:0:0:
496,81,142716,1,0,0:0:0:0:
499,83,143059,1,8,0:0:0:0:
492,81,143230,1,8,0:0:0:0:
493,80,143402,1,0,0:0:0:0:
496,81,143745,1,8,0:0:0:0:
487,66,143916,1,8,0:0:0:0:
499,83,144088,1,0,0:0:0:0:
493,80,144430,1,8,0:0:0:0:
494,68,144602,1,8,0:0:0:0:
496,81,144773,1,0,0:0:0:0:
499,83,145116,1,8,0:0:0:0:
495,68,145288,1,8,0:0:0:0:
492,68,145459,1,8,0:0:0:0:
494,69,145716,1,0,0:0:0:0:
497,74,145973,1,0,0:0:0:0:
504,71,146145,1,8,0:0:0:0:
479,79,146830,1,0,0:0:0:0:
475,75,147002,1,8,0:0:0:0:
475,76,147173,1,0,0:0:0:0:
477,78,147345,1,0,0:0:0:0:
478,79,147516,1,8,0:0:0:0:
404,90,148202,1,4,0:0:0:0:
