osu file format v14

[General]
AudioFilename: audio.mp3
AudioLeadIn: 0
PreviewTime: 87416
Countdown: 0
SampleSet: Normal
StackLeniency: 0.7
Mode: 1
LetterboxInBreaks: 0
WidescreenStoryboard: 0

[Editor]
DistanceSpacing: 0.1
BeatDivisor: 6
GridSize: 32
TimelineZoom: 2.500005

[Metadata]
Title:Watsupu
TitleUnicode:ゎっ、ζ、°ʚ ♥ɞ
Artist:DJ Majokko Mirakurun
ArtistUnicode:ღDJ魔女っ娘ミラクるんღ
Creator:Nifty
Version:Drip
Source:
Tags:sv rap hip hop bardi female vocal wet ass pussy explicit electronic english nightcore Cardi B WAP feat. Megan Thee Stallion (Saint Punk Remix)
BeatmapID:3273722
BeatmapSetID:1603083

[Difficulty]
HPDrainRate:5
CircleSize:2
OverallDifficulty:6
ApproachRate:10
SliderMultiplier:1.4
SliderTickRate:1

[Events]
//Background and Video events
0,0,"madoswag.jpg",0,120
//Break Periods
2,32945,38038
2,109745,114152
//Storyboard Layer 0 (Background)
//Storyboard Layer 1 (Fail)
//Storyboard Layer 2 (Pass)
//Storyboard Layer 3 (Foreground)
//Storyboard Layer 4 (Overlay)
//Storyboard Sound Samples

[TimingPoints]
88,342.857142857143,4,1,0,100,1,0
88,-1000,4,1,0,100,0,0
1459,-552.941371626366,4,1,0,100,0,0
2830,-382.114007535288,4,1,0,100,0,0
4202,-291.925629026749,4,1,0,100,0,0
5573,-236.181046943345,4,1,0,100,0,0
6945,-198.312361801073,4,1,0,100,0,0
8316,-170.909202776933,4,1,0,100,0,0
9688,-150.159845155168,4,1,0,100,0,0
11059,-133.903046160397,4,1,0,100,0,0
11402,-130.374526903436,4,1,0,100,0,0
11745,-127.027033893353,4,1,0,100,0,0
12088,-123.847137954565,4,1,0,100,0,0
12430,-120.822559988401,4,1,0,100,0,0
12773,-117.942330917874,4,1,0,100,0,0
13116,-115.196092548541,4,1,0,100,0,0
13459,-112.574834120982,4,1,0,100,0,0
13802,-110.070213789376,4,1,0,100,0,0
14145,-107.674731862999,4,1,0,100,0,0
14488,-105.381184821737,4,1,0,100,0,0
14830,-103.183308242592,4,1,0,100,0,0
15173,-101.07523838595,4,1,0,100,0,0
15516,-99.0516792231179,4,1,0,100,0,0
15859,-97.1074600864062,4,1,0,100,0,0
16202,-95.2380952380952,4,1,0,100,0,0
16545,-93.4393433830462,4,1,0,100,0,0
16888,-91.7072777061442,4,1,0,100,0,0
17230,-90.0383383244586,4,1,0,100,0,0
17573,-88.4289795914758,4,1,0,100,0,0
17916,-86.8761424212728,4,1,0,100,0,0
18259,-85.3769005965284,4,1,0,100,0,0
18602,-83.9285969068955,4,1,0,100,0,0
18945,-82.5285424964224,4,1,0,100,0,0
19288,-81.1744316775102,4,1,0,100,0,0
19630,-79.8640394592246,4,1,0,100,0,0
19973,-78.5953440118207,4,1,0,100,0,0
20316,-77.3662666057021,4,1,0,100,0,0
20659,-76.1750380494315,4,1,0,100,0,0
21002,-75.0199365481377,4,1,0,100,0,0
21345,-73.8993977938074,4,1,0,100,0,0
21688,-72.8117873546313,4,1,0,100,0,0
22030,-71.755726286347,4,1,0,100,0,0
22373,-70.7298614402014,4,1,0,100,0,0
22716,-69.732915958587,4,1,0,100,0,0
23059,-68.7637312575855,4,1,0,100,0,0
23402,-67.821071735704,4,1,0,100,0,0
23745,-66.9039079241658,4,1,0,100,0,0
24088,-66.0112192668266,4,1,0,100,0,0
24430,-65.1420813937279,4,1,0,100,0,0
24773,-64.295491793002,4,1,0,100,0,0
25116,-63.4706245255571,4,1,0,100,0,0
25459,-62.6666541333358,4,1,0,100,0,0
25802,-61.8828347536475,4,1,0,100,0,0
26145,-61.1183434484192,4,1,0,100,0,0
26488,-60.3725104640654,4,1,0,100,0,0
26830,-59.6446609678181,4,1,0,100,0,0
27173,-58.9341522823134,4,1,0,100,0,0
27516,-58.2404059123331,4,1,0,100,0,0
27859,-57.562769321807,4,1,0,100,0,0
28202,-56.9007201924155,4,1,0,100,0,0
28545,-56.2537268094011,4,1,0,100,0,0
28888,-55.621312306994,4,1,0,100,0,0
29230,-55.0029289059642,4,1,0,100,0,0
29573,-54.3981443704992,4,1,0,100,0,0
29916,-53.8065150004493,4,1,0,100,0,0
30259,-53.2276445223697,4,1,0,100,0,0
30602,-52.6610691460902,4,1,0,100,0,0
30945,-52.1064284221809,4,1,0,100,0,0
31288,-51.5633491839069,4,1,0,100,0,0
31630,-51.031499703507,4,1,0,100,0,0
31973,-50.5104842086548,4,1,0,100,0,0
32316,-50,4,1,0,100,0,0
33002,-100,4,1,0,100,0,0
34288,-111.111111111111,4,1,0,100,0,0
35676,-125,4,1,0,100,0,0
37088,-142.857142857143,4,1,0,100,0,0
38488,-166.666666666667,4,1,0,100,0,0
38830,-157.718009661805,4,1,0,100,0,0
39173,-149.681552497062,4,1,0,100,0,0
39516,-142.424173370098,4,1,0,100,0,0
39859,-135.83818954861,4,1,0,100,0,0
40202,-129.834214691261,4,1,0,100,0,0
40545,-124.338673679368,4,1,0,100,0,0
40888,-119.289321935636,4,1,0,100,0,0
41230,-114.634202260586,4,1,0,100,0,0
41573,-110.328635907778,4,1,0,100,0,0
41916,-106.334788702141,4,1,0,100,0,0
42259,-102.620096298698,4,1,0,100,0,0
42602,-99.1560825811518,4,1,0,100,0,0
42945,-95.9183849646013,4,1,0,100,0,0
43288,-92.8853534659241,4,1,0,100,0,0
43630,-90.0383383244586,4,1,0,100,0,0
43973,-87.3605834289204,4,1,0,100,0,0
44202,-85.6622030948041,4,1,0,100,0,0
44316,-84.8375742222728,4,1,0,100,0,0
44488,-83.6298709172942,4,1,0,100,0,0
44659,-82.4561374576794,4,1,0,100,0,0
45002,-80.2047466773179,4,1,0,100,0,0
45173,-79.1245658039451,4,1,0,100,0,0
45345,-78.0730935916824,4,1,0,100,0,0
45602,-76.5472300236607,4,1,0,100,0,0
45688,-76.0517577842777,4,1,0,100,0,0
45859,-75.0798662076784,4,1,0,100,0,0
46030,-74.1325014678235,4,1,0,100,0,0
46259,-72.9059054512474,4,1,0,100,0,0
46373,-72.3076778461567,4,1,0,100,0,0
46488,-71.7192392596853,4,1,0,100,0,0
46545,-71.4285714285714,4,1,0,100,0,0
46716,-33.3333333333333,4,1,0,100,0,1
47745,-33.3333333333333,4,1,0,100,0,0
48002,-125,4,1,0,100,0,0
49459,-111.111111111111,4,1,0,100,0,0
49802,-107.58113500249,4,1,0,100,0,0
50145,-104.268437005702,4,1,0,100,0,0
50488,-101.153759784097,4,1,0,100,0,0
50659,-99.6651251793972,4,1,0,100,0,0
50830,-98.219670256923,4,1,0,100,0,0
51173,-95.4510875219657,4,1,0,100,0,0
51516,-92.8342194359578,4,1,0,100,0,0
51859,-90.3570912245193,4,1,0,100,0,0
52030,-89.1674082422786,4,1,0,100,0,0
52202,-88.00864596938,4,1,0,100,0,0
52545,-85.7792573746572,4,1,0,100,0,0
52888,-83.6599557438834,4,1,0,100,0,0
53230,-81.6429167421864,4,1,0,100,0,0
53402,-80.6704033197484,4,1,0,100,0,0
53573,-79.7207859193959,4,1,0,100,0,0
53916,-77.8871399764314,4,1,0,100,0,0
54259,-76.1358903825905,4,1,0,100,0,0
54602,-74.4617162532056,4,1,0,100,0,0
54773,-73.6519122245971,4,1,0,100,0,0
54859,-73.2535797193069,4,1,0,100,0,0
54945,-72.8595326498138,4,1,0,100,0,0
55202,-71.7024748826231,4,1,0,100,0,0
55288,-71.3248955981841,4,1,0,100,0,0
55459,-70.5815425031462,4,1,0,100,0,0
55630,-69.8535729404023,4,1,0,100,0,0
55716,-69.4951662637105,4,1,0,100,0,0
55973,-68.4416787922508,4,1,0,100,0,0
56145,-67.7569206918795,4,1,0,100,0,0
56316,-67.0857738578815,4,1,0,100,0,0
56573,-66.1035525371205,4,1,0,100,0,0
56659,-65.7825059319375,4,1,0,100,0,0
56830,-65.1496781280152,4,1,0,100,0,0
57002,-64.5289515594066,4,1,0,100,0,0
57088,-64.2229821941782,4,1,0,100,0,0
57345,-63.322239277012,4,1,0,100,0,0
57430,-63.0275802388367,4,1,0,100,0,0
57516,-62.7356507882735,4,1,0,100,0,0
57688,-62.1598689669962,4,1,0,100,0,0
57859,-61.5945220295888,4,1,0,100,0,0
57945,-61.3156874960145,4,1,0,100,0,0
58030,-61.0393661183907,4,1,0,100,0,0
58202,-60.4941281374523,4,1,0,100,0,0
58373,-59.9585806125129,4,1,0,100,0,0
58459,-59.6943292178073,4,1,0,100,0,0
58716,-58.915368073762,4,1,0,100,0,0
58888,-58.4072915662791,4,1,0,100,0,0
59059,-57.9078697374052,4,1,0,100,0,0
59316,-57.174548178133,4,1,0,100,0,0
59402,-56.9342176356016,4,1,0,100,0,0
59573,-56.4595992045972,4,1,0,100,0,0
59745,-55.9927970865828,4,1,0,100,0,0
59830,-55.7622787143672,4,1,0,100,0,0
59916,-55.5336506155905,4,1,0,100,0,0
60088,-55.081972992207,4,1,0,100,0,0
60259,-54.6376132979209,4,1,0,100,0,0
60430,-54.2003363672875,4,1,0,100,0,0
60602,-53.7700031132832,4,1,0,100,0,0
60688,-53.5573888844853,4,1,0,100,0,0
60773,-53.3464494470374,4,1,0,100,0,0
60945,-52.9295444248252,4,1,0,100,0,0
61116,-52.5190775549218,4,1,0,100,0,0
61288,-52.1149280084384,4,1,0,100,0,0
61373,-51.9151768308796,4,1,0,100,0,0
61459,-51.7169510581805,4,1,0,100,0,0
61630,-51.3250327068771,4,1,0,100,0,0
61802,-50.9389837570862,4,1,0,100,0,0
61973,-50.558698902219,4,1,0,100,0,0
62059,-50.3706778180631,4,1,0,100,0,0
62145,-50.1840751877888,4,1,0,100,0,0
62316,-49.8149375071609,4,1,0,100,0,0
62488,-49.4511906857693,4,1,0,100,0,0
62659,-49.0927174881024,4,1,0,100,0,0
62745,-48.915422788228,4,1,0,100,0,0
62830,-48.7394278088654,4,1,0,100,0,0
63002,-48.391163192907,4,1,0,100,0,0
63173,-48.0478402736036,4,1,0,100,0,0
63259,-47.8779991975647,4,1,0,100,0,0
63345,-47.7093546117055,4,1,0,100,0,0
63430,-47.5419165192471,4,1,0,100,0,0
63516,-47.3756271348642,4,1,0,100,0,0
63602,-47.2104969707385,4,1,0,100,0,0
63688,-47.0465139474095,4,1,0,100,0,0
63773,-46.8836661526654,4,1,0,100,0,0
63859,-46.7219418386579,4,1,0,100,0,0
63945,-46.5613294190776,4,1,0,100,0,0
64030,-46.4018174663865,4,1,0,100,0,0
64116,-46.2434160936337,4,1,0,100,0,0
64202,-46.0860712684223,4,1,0,100,0,0
64288,-45.9297935547639,4,1,0,100,0,0
64373,-45.7745721336306,4,1,0,100,0,0
64459,-45.6203963317552,4,1,0,100,0,0
64545,-45.4672556191845,4,1,0,100,0,0
65916,-50,4,1,0,100,0,0
66002,-125,4,1,0,100,0,0
66259,-55.5555555555556,4,1,0,100,0,1
66345,-56.6037629049504,4,1,0,100,0,1
66430,-57.6923187869844,4,1,0,100,0,1
66516,-58.8235294117647,4,1,0,100,0,1
66602,-57.1428571428571,4,1,0,100,0,1
66688,-58.2524158733173,4,1,0,100,0,1
66773,-59.4059523576143,4,1,0,100,0,1
66859,-60.6060606060606,4,1,0,100,0,1
66945,-58.8235294117647,4,1,0,100,0,1
67030,-59.9999880000024,4,1,0,100,0,1
67116,-61.2245022907148,4,1,0,100,0,1
67202,-62.5,4,1,0,100,0,1
67288,-60.6060606060606,4,1,0,100,0,1
67373,-61.855657349349,4,1,0,100,0,1
67459,-63.1579080332438,4,1,0,100,0,1
67545,-64.5161290322581,4,1,0,100,0,1
67630,-62.5,4,1,0,100,0,1
67716,-63.7930858501832,4,1,0,100,0,1
67802,-65.1408508046524,4,1,0,100,0,1
67888,-66.5467494242043,4,1,0,100,0,1
67973,-64.5161290322581,4,1,0,100,0,1
68059,-65.9340514430656,4,1,0,100,0,1
68145,-67.4157454866844,4,1,0,100,0,1
68230,-68.9655172413793,4,1,0,100,0,1
68316,-66.6666666666667,4,1,0,100,0,1
68402,-68.1818026859539,4,1,0,100,0,1
68488,-69.7674580854554,4,1,0,100,0,1
68573,-71.4285714285714,4,1,0,100,0,1
68659,-72.992700729927,4,1,0,100,0,1
68745,-71.856270214067,4,1,0,100,0,1
68830,-70.7547336685693,4,1,0,100,0,1
68916,-69.6864111498258,4,1,0,100,0,1
69002,-68.6498698741717,4,1,0,100,0,1
69088,-67.6437582060334,4,1,0,100,0,1
69173,-66.6666666666667,4,1,0,100,0,1
69259,-71.4285714285714,4,1,0,100,0,1
69345,-70.8029264265551,4,1,0,100,0,1
69430,-70.1881463450927,4,1,0,100,0,1
69516,-69.5839506009618,4,1,0,100,0,1
69602,-68.9900205935212,4,1,0,100,0,1
69688,-68.4061904866143,4,1,0,100,0,1
69773,-67.8321588195034,4,1,0,100,0,1
69859,-67.2676809736055,4,1,0,100,0,1
69945,-66.7125204056922,4,1,0,100,0,1
70030,-71.4285714285714,4,1,0,100,0,1
70116,-73.1225065225276,4,1,0,100,0,1
70202,-74.8987930059507,4,1,0,100,0,1
70288,-76.7634679585447,4,1,0,100,0,1
70373,-71.4285714285714,4,1,0,100,0,1
70459,-73.1707138608015,4,1,0,100,0,1
70545,-75.0000187500047,4,1,0,100,0,1
70630,-76.9230769230769,4,1,0,100,0,1
70716,-78.740157480315,4,1,0,100,0,1
70802,-77.6184787864816,4,1,0,100,0,1
70888,-76.5283085866293,4,1,0,100,0,1
70973,-75.4683376362864,4,1,0,100,0,1
71059,-74.4373282358651,4,1,0,100,0,1
71145,-73.4341094094796,4,1,0,100,0,1
71230,-72.4575724684411,4,1,0,100,0,1
71316,-71.5066669240907,4,1,0,100,0,1
71402,-76.9230769230769,4,1,0,100,0,1
71488,-78.9473476454348,4,1,0,100,0,1
71659,-83.3333333333333,4,1,0,100,0,1
71723,-55.5555555555556,4,1,0,100,0,1
71809,-56.6037629049504,4,1,0,100,0,1
71894,-57.6923187869844,4,1,0,100,0,1
71980,-58.8235294117647,4,1,0,100,0,1
72066,-57.1428571428571,4,1,0,100,0,1
72152,-58.2524158733173,4,1,0,100,0,1
72237,-59.4059523576143,4,1,0,100,0,1
72323,-60.6060606060606,4,1,0,100,0,1
72409,-58.8235294117647,4,1,0,100,0,1
72494,-59.9999880000024,4,1,0,100,0,1
72580,-61.2245022907148,4,1,0,100,0,1
72666,-62.5,4,1,0,100,0,1
72752,-60.6060606060606,4,1,0,100,0,1
72837,-61.855657349349,4,1,0,100,0,1
72923,-63.1579080332438,4,1,0,100,0,1
73009,-64.5161290322581,4,1,0,100,0,1
73094,-62.5,4,1,0,100,0,1
73180,-63.7930858501832,4,1,0,100,0,1
73266,-65.1408508046524,4,1,0,100,0,1
73352,-66.5467494242043,4,1,0,100,0,1
73437,-64.5161290322581,4,1,0,100,0,1
73523,-65.9340514430656,4,1,0,100,0,1
73609,-67.4157454866844,4,1,0,100,0,1
73694,-68.9655172413793,4,1,0,100,0,1
73780,-66.6666666666667,4,1,0,100,0,1
73866,-68.1818026859539,4,1,0,100,0,1
73952,-69.7674580854554,4,1,0,100,0,1
74037,-71.4285714285714,4,1,0,100,0,1
74123,-72.992700729927,4,1,0,100,0,1
74402,-83.3333333333333,4,1,0,100,0,1
74488,-79.3650793650794,4,1,0,100,0,1
74573,-75.7575757575758,4,1,0,100,0,1
74659,-72.463768115942,4,1,0,100,0,1
74745,-69.4444444444444,4,1,0,100,0,1
74830,-66.6666666666667,4,1,0,100,0,1
75088,-80,4,1,0,100,0,1
75173,-75.187969924812,4,1,0,100,0,1
75259,-70.9219858156028,4,1,0,100,0,1
75345,-67.1140939597315,4,1,0,100,0,1
75430,-63.6942675159236,4,1,0,100,0,1
75516,-60.6060606060606,4,1,0,100,0,1
75773,-83.3333333333333,4,1,0,100,0,1
75859,-78.2050991288734,4,1,0,100,0,1
75945,-73.6715002537983,4,1,0,100,0,1
76030,-69.6346825285189,4,1,0,100,0,1
76116,-66.017320304155,4,1,0,100,0,1
76202,-62.7571867961389,4,1,0,100,0,1
76373,-66.6666666666667,4,1,0,100,0,1
76459,-68.0272108843538,4,1,0,100,0,1
76545,-69.4444444444444,4,1,0,100,0,1
76630,-70.9219858156028,4,1,0,100,0,1
76716,-72.463768115942,4,1,0,100,0,1
76802,-74.0740740740741,4,1,0,100,0,1
76845,-75.7575757575758,4,1,0,100,0,1
76973,-77.5193798449612,4,1,0,100,0,1
77145,-85.4700854700855,4,1,0,100,0,1
77230,-83.3333333333333,4,1,0,100,0,1
77316,-81.1403793475015,4,1,0,100,0,1
77402,-79.059820613267,4,1,0,100,0,1
77488,-77.0833509982679,4,1,0,100,0,1
77573,-80,4,1,0,100,0,1
77659,-77.9220981615839,4,1,0,100,0,1
77745,-75.9493478609246,4,1,0,100,0,1
77830,-74.0740740740741,4,1,0,100,0,1
77916,-76.9230769230769,4,1,0,100,0,1
78002,-75.0000187500047,4,1,0,100,0,1
78088,-73.1707138608015,4,1,0,100,0,1
78173,-71.4285714285714,4,1,0,100,0,1
78259,-74.0740740740741,4,1,0,100,0,1
78345,-72.2891740455841,4,1,0,100,0,1
78430,-70.588218685125,4,1,0,100,0,1
78516,-68.9655172413793,4,1,0,100,0,1
78602,-71.4285714285714,4,1,0,100,0,1
78688,-69.7674580854554,4,1,0,100,0,1
78773,-68.1818026859539,4,1,0,100,0,1
78859,-66.6666666666667,4,1,0,100,0,1
78945,-68.9655172413793,4,1,0,100,0,1
79030,-67.4157454866844,4,1,0,100,0,1
79116,-65.9340514430656,4,1,0,100,0,1
79202,-64.5161290322581,4,1,0,100,0,1
79288,-66.6666666666667,4,1,0,100,0,1
79373,-65.2174054820447,4,1,0,100,0,1
79459,-63.8297736532396,4,1,0,100,0,1
79545,-62.5,4,1,0,100,0,1
79630,-64.5161290322581,4,1,0,100,0,1
79716,-66.0194123480068,4,1,0,100,0,1
79802,-67.5944226489984,4,1,0,100,0,1
79888,-69.2464189214455,4,1,0,100,0,1
79973,-70.9811871461588,4,1,0,100,0,1
80059,-72.8051610122538,4,1,0,100,0,1
80145,-74.7252911484156,4,1,0,100,0,1
80230,-76.7494460608731,4,1,0,100,0,1
80316,-66.6666666666667,4,1,0,100,0,1
80402,-68.2730868856958,4,1,0,100,0,1
80488,-69.9588362207677,4,1,0,100,0,1
80573,-71.7299396464288,4,1,0,100,0,1
80659,-73.5930481063037,4,1,0,100,0,1
80745,-75.5555790617357,4,1,0,100,0,1
80830,-77.6255884989928,4,1,0,100,0,1
80916,-79.8122178139274,4,1,0,100,0,1
81002,-71.4285714285714,4,1,0,100,0,1
81088,-73.1707138608015,4,1,0,100,0,1
81173,-75.0000187500047,4,1,0,100,0,1
81259,-76.9230769230769,4,1,0,100,0,1
81345,-68.9655172413793,4,1,0,100,0,1
81430,-70.588218685125,4,1,0,100,0,1
81516,-72.2891740455841,4,1,0,100,0,1
81602,-74.0740740740741,4,1,0,100,0,1
81688,-66.6666666666667,4,1,0,100,0,1
81773,-67.9012471422063,4,1,0,100,0,1
81859,-69.1823681816452,4,1,0,100,0,1
81945,-70.5128114727165,4,1,0,100,0,1
82030,-71.895429535649,4,1,0,100,0,1
82116,-73.3333528888941,4,1,0,100,0,1
82202,-74.8299116109084,4,1,0,100,0,1
82288,-76.3888835841053,4,1,0,100,0,1
82373,-78.0141954630065,4,1,0,100,0,1
82459,-79.710173808034,4,1,0,100,0,1
82630,-83.3333333333333,4,1,0,100,0,1
82695,-55.5555555555556,4,1,0,100,0,1
82781,-56.6037629049504,4,1,0,100,0,1
82866,-57.6923187869844,4,1,0,100,0,1
82952,-58.8235294117647,4,1,0,100,0,1
83038,-57.1428571428571,4,1,0,100,0,1
83124,-58.2524158733173,4,1,0,100,0,1
83209,-59.4059523576143,4,1,0,100,0,1
83295,-60.6060606060606,4,1,0,100,0,1
83381,-58.8235294117647,4,1,0,100,0,1
83466,-59.9999880000024,4,1,0,100,0,1
83552,-61.2245022907148,4,1,0,100,0,1
83638,-62.5,4,1,0,100,0,1
83724,-60.6060606060606,4,1,0,100,0,1
83809,-61.855657349349,4,1,0,100,0,1
83895,-63.1579080332438,4,1,0,100,0,1
83981,-64.5161290322581,4,1,0,100,0,1
84066,-62.5,4,1,0,100,0,1
84152,-63.7930858501832,4,1,0,100,0,1
84238,-65.1408508046524,4,1,0,100,0,1
84324,-66.5467494242043,4,1,0,100,0,1
84409,-64.5161290322581,4,1,0,100,0,1
84495,-65.9340514430656,4,1,0,100,0,1
84581,-67.4157454866844,4,1,0,100,0,1
84666,-68.9655172413793,4,1,0,100,0,1
84752,-66.6666666666667,4,1,0,100,0,1
84838,-68.1818026859539,4,1,0,100,0,1
84924,-69.7674580854554,4,1,0,100,0,1
85009,-71.4285714285714,4,1,0,100,0,1
85095,-72.992700729927,4,1,0,100,0,1
85373,-76.9230769230769,4,1,0,100,0,1
85459,-74.6634173147451,4,1,0,100,0,1
85545,-72.5326741563906,4,1,0,100,0,1
85630,-70.5202206154582,4,1,0,100,0,1
85716,-68.6164252626465,4,1,0,100,0,1
85802,-66.8127192709931,4,1,0,100,0,1
86059,-80,4,1,0,100,0,1
86145,-78.3132577297143,4,1,0,100,0,1
86230,-76.6961742414365,4,1,0,100,0,1
86316,-75.1445217013621,4,1,0,100,0,1
86482,-72.2222422839562,4,1,0,100,0,1
86659,-69.5186942720767,4,1,0,100,0,1
86830,-67.0102954617948,4,1,0,100,0,1
86916,-65.8227748117304,4,1,0,100,0,1
87002,-64.6766104799393,4,1,0,100,0,1
87088,-63.5696790430475,4,1,0,100,0,1
87173,-62.5,4,1,0,100,0,0
87516,-62.5,4,1,0,100,0,0
87810,-100,4,1,0,100,0,0
89155,-153.846153846153,4,1,0,100,0,0
90602,-250,4,1,0,100,0,1
90603,-200,4,1,0,100,0,1
91288,-250.000000000001,4,1,0,100,0,0
91630,-200,4,1,0,100,0,1
91973,-250.000000000001,4,1,0,100,0,0
92316,-200,4,1,0,100,0,1
92659,-250.000000000001,4,1,0,100,0,0
93345,-250,4,1,0,100,0,1
93346,-200,4,1,0,100,0,1
94030,-250.000000000001,4,1,0,100,0,0
94373,-200,4,1,0,100,0,1
94716,-250.000000000001,4,1,0,100,0,0
95059,-200,4,1,0,100,0,1
95402,-250.000000000001,4,1,0,100,0,0
96088,-200,4,1,0,100,0,1
96773,-250.000000000001,4,1,0,100,0,0
97116,-200,4,1,0,100,0,1
97459,-250.000000000001,4,1,0,100,0,0
97802,-200,4,1,0,100,0,1
98145,-250.000000000001,4,1,0,100,0,0
98621,-200.000000000001,4,1,0,100,0,0
100202,-166.666666666667,4,1,0,100,0,0
100373,-160,4,1,0,100,0,0
100545,-153.846153846154,4,1,0,100,0,0
100716,-148.148148148148,4,1,0,100,0,0
100888,-142.857142857143,4,1,0,100,0,0
101059,-137.931034482759,4,1,0,100,0,0
101230,-133.333333333333,4,1,0,100,0,0
101316,-131.147540983607,4,1,0,100,0,0
101402,-129.032258064516,4,1,0,100,0,0
101488,-126.984126984127,4,1,0,100,0,0
101573,-125,4,1,0,100,0,0
101745,-166.666666666667,4,1,0,100,0,0
109680,-200,4,1,0,100,0,0
114602,-166.666666666667,4,1,0,100,0,0
114859,-148.317999724129,4,1,0,100,0,0
115116,-133.608745494045,4,1,0,100,0,0
115202,-129.333312640003,4,1,0,100,0,0
115245,-125,4,1,0,100,0,0
115545,-120.175119183674,4,1,0,100,0,0
115630,-118.648592531071,4,1,0,100,0,0
115802,-115.708867233332,4,1,0,100,0,0
115973,-112.911293500487,4,1,0,100,0,0
116059,-111.56269209701,4,1,0,100,0,0
116316,-107.70337628544,4,1,0,100,0,0
116488,-105.275569330279,4,1,0,100,0,0
116659,-102.954696844747,4,1,0,100,0,0
116916,-99.6591656534652,4,1,0,100,0,0
117002,-98.6070764382335,4,1,0,100,0,0
117173,-96.5680674508638,4,1,0,100,0,0
117345,-94.6116758376918,4,1,0,100,0,0
117430,-93.6629519939906,4,1,0,100,0,0
117688,-90.927524398128,4,1,0,100,0,0
117773,-90.0509057770358,4,1,0,100,0,0
117859,-89.1909489025054,4,1,0,100,0,0
118030,-87.5195387370231,4,1,0,100,0,0
118202,-85.9095458391859,4,1,0,100,0,0
118288,-85.1265960172671,4,1,0,100,0,0
118373,-84.3577172126861,4,1,0,100,0,0
118545,-82.8610254880515,4,1,0,100,0,0
118716,-81.4164508452249,4,1,0,100,0,0
118802,-80.7129210893984,4,1,0,100,0,0
119059,-78.6733780303018,4,1,0,100,0,0
119230,-77.3699778180274,4,1,0,100,0,0
119402,-76.1091191663312,4,1,0,100,0,0
119659,-74.2929907534944,4,1,0,100,0,0
119745,-73.7066871866084,4,1,0,100,0,0
119916,-72.5615158390905,4,1,0,100,0,0
120088,-71.4513337820477,4,1,0,100,0,0
120173,-70.9089104136826,4,1,0,100,0,0
120259,-70.3746110923054,4,1,0,100,0,0
120430,-69.3299056627974,4,1,0,100,0,0
120602,-68.3157169871129,4,1,0,100,0,0
120773,-67.3308178539783,4,1,0,100,0,0
120945,-66.373869404102,4,1,0,100,0,0
121030,-65.9055454903142,4,1,0,100,0,0
121116,-65.4437412878019,4,1,0,100,0,0
121288,-64.5393632030111,4,1,0,100,0,0
121459,-63.659599390141,4,1,0,100,0,0
121630,-62.8034979036192,4,1,0,100,0,0
121716,-62.3840436588491,4,1,0,100,0,0
121802,-61.9701551732686,4,1,0,100,0,0
121973,-61.1586007646048,4,1,0,100,0,0
122145,-60.3680276437272,4,1,0,100,0,0
122316,-59.5976680624441,4,1,0,100,0,0
122402,-59.2197794063217,4,1,0,100,0,0
122488,-58.8466873140077,4,1,0,100,0,0
122659,-58.1144308011132,4,1,0,100,0,0
122830,-57.4001409747462,4,1,0,100,0,0
123002,-56.7031967561235,4,1,0,100,0,0
123088,-56.3610488791196,4,1,0,100,0,0
123173,-56.023005286891,4,1,0,100,0,0
123345,-55.3589084109004,4,1,0,100,0,0
123516,-54.7103714998356,4,1,0,100,0,0
123602,-54.39178292457,4,1,0,100,0,0
123688,-54.0768832680175,4,1,0,100,0,0
123773,-53.7655799209216,4,1,0,100,0,0
123859,-53.4578687844536,4,1,0,100,0,0
123945,-53.1536597889374,4,1,0,100,0,0
124030,-52.852865550238,4,1,0,100,0,0
124116,-52.5554841384921,4,1,0,100,0,0
124202,-52.2614304894231,4,1,0,100,0,0
124288,-51.9706220467694,4,1,0,100,0,0
124373,-51.6830588101526,4,1,0,100,0,0
124459,-51.3986603453168,4,1,0,100,0,0
124545,-51.1173485635769,4,1,0,100,0,0
124630,-50.8391251806695,4,1,0,100,0,0
124716,-50.5639140514589,4,1,0,100,0,0
124802,-50.2916665199826,4,1,0,100,0,0
124888,-50.0223099502378,4,1,0,100,0,0
126238,-33.3333333333333,4,1,0,100,0,0
126324,-125,4,1,0,100,0,0
126602,-55.5555555555556,4,1,0,100,0,1
126688,-57.6923187869844,4,1,0,100,0,1
126773,-59.9999880000024,4,1,0,100,0,1
126859,-62.5,4,1,0,100,0,1
126945,-57.1428571428571,4,1,0,100,0,1
127030,-59.4059523576143,4,1,0,100,0,1
127116,-61.855657349349,4,1,0,100,0,1
127202,-64.5161290322581,4,1,0,100,0,1
127288,-58.8235294117647,4,1,0,100,0,1
127373,-61.2245022907148,4,1,0,100,0,1
127459,-63.8297736532396,4,1,0,100,0,1
127545,-66.6666666666667,4,1,0,100,0,1
127630,-60.6060606060606,4,1,0,100,0,1
127716,-63.0861093850051,4,1,0,100,0,1
127802,-65.777789471607,4,1,0,100,0,1
127888,-68.7093970406863,4,1,0,100,0,1
127973,-62.5,4,1,0,100,0,1
128059,-65.2174054820447,4,1,0,100,0,1
128145,-68.1818026859539,4,1,0,100,0,1
128230,-71.4285714285714,4,1,0,100,0,1
128316,-64.5161290322581,4,1,0,100,0,1
128402,-67.4157454866844,4,1,0,100,0,1
128488,-70.588218685125,4,1,0,100,0,1
128573,-74.0740740740741,4,1,0,100,0,1
128659,-66.6666666666667,4,1,0,100,0,1
128745,-69.7674580854554,4,1,0,100,0,1
128830,-73.1707138608015,4,1,0,100,0,1
128916,-76.9230769230769,4,1,0,100,0,1
129002,-71.4285714285714,4,1,0,100,0,1
129088,-73.1707138608015,4,1,0,100,0,1
129173,-75.0000187500047,4,1,0,100,0,1
129259,-76.9230769230769,4,1,0,100,0,1
129345,-66.6666666666667,4,1,0,100,0,1
129430,-68.9655172413793,4,1,0,100,0,1
129516,-71.4285714285714,4,1,0,100,0,1
129602,-74.0740740740741,4,1,0,100,0,1
129688,-71.4285714285714,4,1,0,100,0,1
129773,-73.1707138608015,4,1,0,100,0,1
129859,-75.0000187500047,4,1,0,100,0,1
129945,-76.9230769230769,4,1,0,100,0,1
130030,-68.9655172413793,4,1,0,100,0,1
130116,-70.5433531230953,4,1,0,100,0,1
130202,-72.1951289946467,4,1,0,100,0,1
130288,-73.9260576785887,4,1,0,100,0,1
130373,-66.6666666666667,4,1,0,100,0,1
130459,-68.1818026859539,4,1,0,100,0,1
130545,-69.7674580854554,4,1,0,100,0,1
130630,-71.4285714285714,4,1,0,100,0,1
130716,-66.6666666666667,4,1,0,100,0,1
130802,-68.1818026859539,4,1,0,100,0,1
130888,-69.7674580854554,4,1,0,100,0,1
130973,-71.4285714285714,4,1,0,100,0,1
131059,-62.5,4,1,0,100,0,1
131145,-63.9422984698608,4,1,0,100,0,1
131230,-65.4527365789164,4,1,0,100,0,1
131316,-67.0363048516185,4,1,0,100,0,1
131402,-68.6983517204472,4,1,0,100,0,1
131488,-70.4449089112105,4,1,0,100,0,1
131573,-72.2825902321645,4,1,0,100,0,1
131659,-74.2187731933666,4,1,0,100,0,1
131745,-76.2614792591655,4,1,0,100,0,1
131830,-78.4198094712309,4,1,0,100,0,1
132002,-83.1249667500133,4,1,0,100,0,1
132066,-55.5555555555556,4,1,0,100,0,1
132152,-57.6923187869844,4,1,0,100,0,1
132237,-59.9999880000024,4,1,0,100,0,1
132323,-62.5,4,1,0,100,0,1
132409,-57.1428571428571,4,1,0,100,0,1
132494,-59.4059523576143,4,1,0,100,0,1
132580,-61.855657349349,4,1,0,100,0,1
132666,-64.5161290322581,4,1,0,100,0,1
132752,-58.8235294117647,4,1,0,100,0,1
132837,-61.2245022907148,4,1,0,100,0,1
132923,-63.8297736532396,4,1,0,100,0,1
133009,-66.6666666666667,4,1,0,100,0,1
133094,-60.6060606060606,4,1,0,100,0,1
133180,-63.0861093850051,4,1,0,100,0,1
133266,-65.777789471607,4,1,0,100,0,1
133352,-68.7093970406863,4,1,0,100,0,1
133437,-62.5,4,1,0,100,0,1
133523,-65.2174054820447,4,1,0,100,0,1
133609,-68.1818026859539,4,1,0,100,0,1
133694,-71.4285714285714,4,1,0,100,0,1
133780,-64.5161290322581,4,1,0,100,0,1
133866,-67.4157454866844,4,1,0,100,0,1
133952,-70.588218685125,4,1,0,100,0,1
134037,-74.0740740740741,4,1,0,100,0,1
134123,-66.6666666666667,4,1,0,100,0,1
134209,-69.7674580854554,4,1,0,100,0,1
134294,-73.1707138608015,4,1,0,100,0,1
134380,-76.9230769230769,4,1,0,100,0,1
134445,-66.6666666666667,4,1,0,100,0,1
134724,-83.3333333333333,4,1,0,100,0,1
134810,-79.3650793650794,4,1,0,100,0,1
134895,-75.7575757575758,4,1,0,100,0,1
134981,-72.463768115942,4,1,0,100,0,1
135067,-69.4444444444444,4,1,0,100,0,1
135152,-66.6666666666667,4,1,0,100,0,1
135410,-80,4,1,0,100,0,1
135495,-75.187969924812,4,1,0,100,0,1
135581,-70.9219858156028,4,1,0,100,0,1
135667,-67.1140939597315,4,1,0,100,0,1
135752,-63.6942675159236,4,1,0,100,0,1
135838,-60.6060606060606,4,1,0,100,0,1
136095,-83.3333333333333,4,1,0,100,0,1
136181,-78.2050991288734,4,1,0,100,0,1
136267,-73.6715002537983,4,1,0,100,0,1
136352,-69.6346825285189,4,1,0,100,0,1
136438,-66.017320304155,4,1,0,100,0,1
136524,-62.7571867961389,4,1,0,100,0,1
136695,-66.6666666666667,4,1,0,100,0,1
136781,-68.0272108843538,4,1,0,100,0,1
136867,-69.4444444444444,4,1,0,100,0,1
136952,-70.9219858156028,4,1,0,100,0,1
137038,-72.463768115942,4,1,0,100,0,1
137124,-74.0740740740741,4,1,0,100,0,1
137210,-75.7575757575758,4,1,0,100,0,1
137295,-77.5193798449612,4,1,0,100,0,1
137467,-85.4700854700855,4,1,0,100,0,1
137552,-83.3333333333333,4,1,0,100,0,1
137638,-81.1403793475015,4,1,0,100,0,1
137724,-79.059820613267,4,1,0,100,0,1
137810,-77.0833509982679,4,1,0,100,0,1
137895,-80,4,1,0,100,0,1
137981,-77.9220981615839,4,1,0,100,0,1
138067,-75.9493478609246,4,1,0,100,0,1
138152,-74.0740740740741,4,1,0,100,0,1
138238,-76.9230769230769,4,1,0,100,0,1
138324,-75.0000187500047,4,1,0,100,0,1
138410,-73.1707138608015,4,1,0,100,0,1
138495,-71.4285714285714,4,1,0,100,0,1
138581,-74.0740740740741,4,1,0,100,0,1
138667,-72.2891740455841,4,1,0,100,0,1
138752,-70.588218685125,4,1,0,100,0,1
138838,-68.9655172413793,4,1,0,100,0,1
138924,-71.4285714285714,4,1,0,100,0,1
139010,-69.7674580854554,4,1,0,100,0,1
139095,-68.1818026859539,4,1,0,100,0,1
139181,-66.6666666666667,4,1,0,100,0,1
139267,-68.9655172413793,4,1,0,100,0,1
139352,-67.4157454866844,4,1,0,100,0,1
139438,-65.9340514430656,4,1,0,100,0,1
139524,-64.5161290322581,4,1,0,100,0,1
139610,-66.6666666666667,4,1,0,100,0,1
139695,-65.2174054820447,4,1,0,100,0,1
139781,-63.8297736532396,4,1,0,100,0,1
139867,-62.5,4,1,0,100,0,1
139952,-64.5161290322581,4,1,0,100,0,1
140038,-66.0194123480068,4,1,0,100,0,1
140124,-67.5944226489984,4,1,0,100,0,1
140210,-69.2464189214455,4,1,0,100,0,1
140295,-70.9811871461588,4,1,0,100,0,1
140381,-72.8051610122538,4,1,0,100,0,1
140467,-74.7252911484156,4,1,0,100,0,1
140552,-76.7494460608731,4,1,0,100,0,1
140638,-66.6666666666667,4,1,0,100,0,1
140724,-68.2730868856958,4,1,0,100,0,1
140810,-69.9588362207677,4,1,0,100,0,1
140895,-71.7299396464288,4,1,0,100,0,1
140981,-73.5930481063037,4,1,0,100,0,1
141067,-75.5555790617357,4,1,0,100,0,1
141152,-77.6255884989928,4,1,0,100,0,1
141238,-79.8122178139274,4,1,0,100,0,1
141324,-71.4285714285714,4,1,0,100,0,1
141410,-73.1707138608015,4,1,0,100,0,1
141495,-75.0000187500047,4,1,0,100,0,1
141581,-76.9230769230769,4,1,0,100,0,1
141667,-68.9655172413793,4,1,0,100,0,1
141752,-70.588218685125,4,1,0,100,0,1
141838,-72.2891740455841,4,1,0,100,0,1
141924,-74.0740740740741,4,1,0,100,0,1
142010,-66.6666666666667,4,1,0,100,0,1
142095,-67.9012471422063,4,1,0,100,0,1
142181,-69.1823681816452,4,1,0,100,0,1
142267,-70.5128114727165,4,1,0,100,0,1
142352,-71.895429535649,4,1,0,100,0,1
142438,-73.3333528888941,4,1,0,100,0,1
142524,-74.8299116109084,4,1,0,100,0,1
142610,-76.3888835841053,4,1,0,100,0,1
142695,-78.0141954630065,4,1,0,100,0,1
142781,-79.710173808034,4,1,0,100,0,1
142952,-83.3333333333333,4,1,0,100,0,1
143038,-55.5555555555556,4,1,0,100,0,1
143124,-57.6923187869844,4,1,0,100,0,1
143209,-59.9999880000024,4,1,0,100,0,1
143295,-62.5,4,1,0,100,0,1
143381,-57.1428571428571,4,1,0,100,0,1
143466,-59.4059523576143,4,1,0,100,0,1
143552,-61.855657349349,4,1,0,100,0,1
143638,-64.5161290322581,4,1,0,100,0,1
143724,-58.8235294117647,4,1,0,100,0,1
143809,-61.2245022907148,4,1,0,100,0,1
143895,-63.8297736532396,4,1,0,100,0,1
143981,-66.6666666666667,4,1,0,100,0,1
144066,-60.6060606060606,4,1,0,100,0,1
144152,-63.0861093850051,4,1,0,100,0,1
144238,-65.777789471607,4,1,0,100,0,1
144324,-68.7093970406863,4,1,0,100,0,1
144409,-62.5,4,1,0,100,0,1
144495,-65.2174054820447,4,1,0,100,0,1
144581,-68.1818026859539,4,1,0,100,0,1
144666,-71.4285714285714,4,1,0,100,0,1
144752,-64.5161290322581,4,1,0,100,0,1
144838,-67.4157454866844,4,1,0,100,0,1
144924,-70.588218685125,4,1,0,100,0,1
145009,-74.0740740740741,4,1,0,100,0,1
145095,-66.6666666666667,4,1,0,100,0,1
145181,-69.7674580854554,4,1,0,100,0,1
145266,-73.1707138608015,4,1,0,100,0,1
145352,-76.9230769230769,4,1,0,100,0,1
145417,-72.992700729927,4,1,0,100,0,1
145695,-76.9230769230769,4,1,0,100,0,1
145781,-74.6634173147451,4,1,0,100,0,1
145867,-72.5326741563906,4,1,0,100,0,1
145952,-70.5202206154582,4,1,0,100,0,1
146038,-68.6164252626465,4,1,0,100,0,1
146124,-66.8127192709931,4,1,0,100,0,1
146381,-80,4,1,0,100,0,1
146467,-78.3132577297143,4,1,0,100,0,1
146552,-76.6961742414365,4,1,0,100,0,1
146638,-75.1445217013621,4,1,0,100,0,1
146804,-72.2222422839562,4,1,0,100,0,1
146981,-69.5186942720767,4,1,0,100,0,1
147152,-67.0102954617948,4,1,0,100,0,1
147238,-65.8227748117304,4,1,0,100,0,1
147324,-64.6766104799393,4,1,0,100,0,1
147410,-63.5696790430475,4,1,0,100,0,1
147495,-62.5,4,1,0,100,0,1
147773,-76.9230769230769,4,1,0,100,0,1
147859,-72.5326741563906,4,1,0,100,0,1
148030,-65.1013693422027,4,1,0,100,0,1
148116,-61.9289377824734,4,1,0,100,0,1
148202,-59.0512937252686,4,1,0,100,0,0

[HitObjects]
353,120,11059,5,0,0:0:0:0:
353,120,11402,1,0,0:0:0:0:
353,120,11745,1,0,0:0:0:0:
353,120,12088,1,0,0:0:0:0:
353,120,12430,1,0,0:0:0:0:
353,120,12773,1,0,0:0:0:0:
353,120,13116,1,0,0:0:0:0:
353,120,13459,1,0,0:0:0:0:
353,120,13802,1,0,0:0:0:0:
353,120,14145,1,0,0:0:0:0:
353,120,14488,1,0,0:0:0:0:
353,120,14830,1,0,0:0:0:0:
353,120,15173,1,0,0:0:0:0:
353,120,15516,1,0,0:0:0:0:
353,120,15859,1,0,0:0:0:0:
353,120,16202,1,0,0:0:0:0:
353,120,16545,1,8,0:0:0:0:
353,120,16888,1,8,0:0:0:0:
353,120,17230,1,8,0:0:0:0:
353,120,17573,1,8,0:0:0:0:
353,120,17916,1,8,0:0:0:0:
353,120,18259,1,8,0:0:0:0:
353,120,18602,1,8,0:0:0:0:
353,120,18945,1,8,0:0:0:0:
353,120,19288,1,8,0:0:0:0:
353,120,19630,1,8,0:0:0:0:
353,120,19973,1,8,0:0:0:0:
353,120,20316,1,8,0:0:0:0:
353,120,20659,1,8,0:0:0:0:
363,123,21002,1,8,0:0:0:0:
363,123,21345,1,8,0:0:0:0:
363,123,21688,1,8,0:0:0:0:
363,123,22030,1,0,0:0:0:0:
363,123,22373,1,0,0:0:0:0:
363,123,22716,1,0,0:0:0:0:
363,123,23059,1,0,0:0:0:0:
363,123,23402,1,0,0:0:0:0:
363,123,23745,1,0,0:0:0:0:
363,123,24088,1,0,0:0:0:0:
363,123,24430,1,0,0:0:0:0:
363,123,24773,1,0,0:0:0:0:
363,123,25116,1,0,0:0:0:0:
363,123,25459,1,0,0:0:0:0:
363,123,25802,1,0,0:0:0:0:
363,123,26145,1,0,0:0:0:0:
363,123,26488,1,0,0:0:0:0:
363,123,26830,1,0,0:0:0:0:
363,123,27173,1,0,0:0:0:0:
363,123,27516,1,8,0:0:0:0:
363,123,27859,1,8,0:0:0:0:
363,123,28202,1,8,0:0:0:0:
363,123,28545,1,8,0:0:0:0:
363,123,28888,1,8,0:0:0:0:
363,123,29230,1,8,0:0:0:0:
363,123,29573,1,8,0:0:0:0:
363,123,29916,1,8,0:0:0:0:
363,123,30259,1,8,0:0:0:0:
363,123,30602,1,8,0:0:0:0:
363,123,30945,1,8,0:0:0:0:
363,123,31288,1,8,0:0:0:0:
363,123,31630,1,8,0:0:0:0:
363,123,31973,1,8,0:0:0:0:
363,123,32316,1,8,0:0:0:0:
377,109,38488,5,8,0:0:0:0:
366,108,38830,1,8,0:0:0:0:
366,108,39173,1,8,0:0:0:0:
366,108,39516,1,8,0:0:0:0:
366,108,39859,1,8,0:0:0:0:
366,108,40202,1,8,0:0:0:0:
366,108,40545,1,8,0:0:0:0:
366,108,40888,1,8,0:0:0:0:
366,108,41230,1,8,0:0:0:0:
366,108,41573,1,8,0:0:0:0:
366,108,41916,1,8,0:0:0:0:
366,108,42259,1,8,0:0:0:0:
365,98,42602,1,8,0:0:0:0:
365,98,42945,1,8,0:0:0:0:
365,98,43288,1,8,0:0:0:0:
365,98,43630,1,8,0:0:0:0:
372,91,43973,1,0,0:0:0:0:
375,91,44202,1,0,0:0:0:0:
380,90,44316,1,8,0:0:0:0:
373,98,44488,1,0,0:0:0:0:
380,92,44659,1,8,0:0:0:0:
384,83,45002,1,8,0:0:0:0:
385,83,45173,1,0,0:0:0:0:
387,74,45345,1,8,0:0:0:0:
355,75,45602,1,0,0:0:0:0:
355,75,45688,1,8,0:0:0:0:
387,75,45859,1,0,0:0:0:0:
389,77,46030,1,8,0:0:0:0:
403,78,46259,1,0,0:0:0:0:
386,64,46373,1,8,0:0:0:0:
386,64,46488,1,8,0:0:0:0:
397,62,46545,1,0,0:0:0:0:
396,65,46716,1,12,0:0:0:0:
398,67,46973,1,12,0:0:0:0:
399,67,47230,1,12,0:0:0:0:
399,67,47488,1,12,0:0:0:0:
396,65,47745,1,12,0:0:0:0:
400,84,49459,1,8,0:0:0:0:
400,84,49802,1,8,0:0:0:0:
400,84,50145,1,8,0:0:0:0:
400,84,50488,1,8,0:0:0:0:
400,84,50659,1,0,0:0:0:0:
400,84,50830,1,8,0:0:0:0:
400,84,51173,1,8,0:0:0:0:
400,84,51516,1,8,0:0:0:0:
400,84,51859,1,8,0:0:0:0:
400,84,52030,1,0,0:0:0:0:
400,84,52202,1,8,0:0:0:0:
400,84,52545,1,8,0:0:0:0:
400,84,52888,1,8,0:0:0:0:
400,84,53230,1,8,0:0:0:0:
400,84,53402,1,0,0:0:0:0:
405,89,53573,1,8,0:0:0:0:
407,87,53916,1,8,0:0:0:0:
407,85,54259,1,8,0:0:0:0:
405,89,54602,1,8,0:0:0:0:
407,87,54773,1,0,0:0:0:0:
407,87,54859,1,0,0:0:0:0:
407,85,54945,1,8,0:0:0:0:
414,83,55202,1,0,0:0:0:0:
413,83,55288,1,8,0:0:0:0:
422,83,55459,1,0,0:0:0:0:
429,85,55630,1,8,0:0:0:0:
425,76,55716,1,8,0:0:0:0:
425,76,55973,1,8,0:0:0:0:
424,74,56145,1,0,0:0:0:0:
424,74,56316,1,8,0:0:0:0:
424,73,56573,1,0,0:0:0:0:
424,73,56659,1,8,0:0:0:0:
436,77,56830,1,0,0:0:0:0:
437,76,57002,1,8,0:0:0:0:
434,68,57088,1,0,0:0:0:0:
434,68,57345,1,8,0:0:0:0:
443,69,57430,1,0,0:0:0:0:
438,68,57516,1,0,0:0:0:0:
443,69,57688,1,8,0:0:0:0:
445,69,57859,1,0,0:0:0:0:
442,63,57945,1,8,0:0:0:0:
443,69,58030,1,8,0:0:0:0:
442,63,58202,1,0,0:0:0:0:
443,62,58373,1,8,0:0:0:0:
443,69,58459,1,8,0:0:0:0:
445,57,58716,1,8,0:0:0:0:
456,61,58888,1,0,0:0:0:0:
450,62,59059,1,8,0:0:0:0:
454,58,59316,1,0,0:0:0:0:
456,58,59402,1,8,0:0:0:0:
456,58,59573,1,0,0:0:0:0:
456,58,59745,1,8,0:0:0:0:
456,61,59830,1,0,0:0:0:0:
456,61,59916,1,0,0:0:0:0:
461,56,60088,1,8,0:0:0:0:
462,57,60259,1,0,0:0:0:0:
463,56,60430,1,8,0:0:0:0:
470,61,60602,1,0,0:0:0:0:
470,61,60688,1,0,0:0:0:0:
474,62,60773,1,8,0:0:0:0:
474,62,60945,1,0,0:0:0:0:
473,62,61116,1,8,0:0:0:0:
475,49,61288,1,0,0:0:0:0:
467,61,61373,1,8,0:0:0:0:
481,51,61459,1,8,0:0:0:0:
470,61,61630,1,0,0:0:0:0:
466,60,61802,1,8,0:0:0:0:
466,60,61973,1,0,0:0:0:0:
473,62,62059,1,0,0:0:0:0:
469,57,62145,1,8,0:0:0:0:
465,60,62316,1,0,0:0:0:0:
465,60,62488,1,8,0:0:0:0:
459,60,62659,1,0,0:0:0:0:
456,65,62745,1,8,0:0:0:0:
466,60,62830,1,8,0:0:0:0:
472,54,63002,1,0,0:0:0:0:
469,57,63173,1,8,0:0:0:0:
483,59,63259,1,8,0:0:0:0:
483,64,63345,1,0,0:0:0:0:
481,67,63430,1,0,0:0:0:0:
481,67,63516,1,8,0:0:0:0:
477,68,63602,1,8,0:0:0:0:
477,68,63688,1,0,0:0:0:0:
477,68,63773,1,0,0:0:0:0:
477,68,63859,1,8,0:0:0:0:
479,72,63945,1,8,0:0:0:0:
474,71,64030,1,8,0:0:0:0:
472,72,64116,1,8,0:0:0:0:
472,72,64202,1,0,0:0:0:0:
471,72,64288,1,0,0:0:0:0:
471,72,64373,1,8,0:0:0:0:
468,74,64459,1,8,0:0:0:0:
465,74,64545,1,0,0:0:0:0:
431,107,65916,1,12,0:0:0:0:
413,96,66088,1,0,0:0:0:0:
418,98,66259,1,8,0:0:0:0:
446,88,66345,1,8,0:0:0:0:
445,88,66430,1,0,0:0:0:0:
442,89,66516,1,0,0:0:0:0:
456,88,66602,1,8,0:0:0:0:
445,92,66688,1,8,0:0:0:0:
456,88,66773,1,0,0:0:0:0:
457,89,66859,1,0,0:0:0:0:
457,89,66945,1,8,0:0:0:0:
457,90,67030,1,8,0:0:0:0:
457,91,67116,1,0,0:0:0:0:
458,92,67202,1,0,0:0:0:0:
457,92,67288,1,8,0:0:0:0:
457,92,67373,1,8,0:0:0:0:
457,92,67459,1,0,0:0:0:0:
458,92,67545,1,0,0:0:0:0:
458,92,67630,1,8,0:0:0:0:
453,92,67716,1,8,0:0:0:0:
457,89,67802,1,0,0:0:0:0:
457,89,67888,1,0,0:0:0:0:
457,90,67973,1,8,0:0:0:0:
457,90,68059,1,8,0:0:0:0:
458,92,68145,1,0,0:0:0:0:
458,92,68230,1,0,0:0:0:0:
457,92,68316,1,8,0:0:0:0:
462,83,68402,1,8,0:0:0:0:
447,78,68488,1,0,0:0:0:0:
458,92,68573,1,0,0:0:0:0:
460,83,68659,1,8,0:0:0:0:
460,83,68745,1,0,0:0:0:0:
457,89,68830,1,8,0:0:0:0:
457,90,68916,1,0,0:0:0:0:
457,90,69002,1,8,0:0:0:0:
445,91,69088,1,8,0:0:0:0:
452,85,69173,1,8,0:0:0:0:
454,81,69259,1,0,0:0:0:0:
462,83,69345,1,8,0:0:0:0:
462,83,69430,1,0,0:0:0:0:
460,81,69516,1,8,0:0:0:0:
456,80,69602,1,0,0:0:0:0:
453,85,69688,1,8,0:0:0:0:
453,85,69773,1,8,0:0:0:0:
457,89,69859,1,0,0:0:0:0:
458,77,69945,1,0,0:0:0:0:
460,77,70030,1,8,0:0:0:0:
465,81,70116,1,0,0:0:0:0:
461,80,70202,1,0,0:0:0:0:
462,83,70288,1,0,0:0:0:0:
462,75,70373,1,8,0:0:0:0:
465,75,70459,1,0,0:0:0:0:
460,81,70545,1,8,0:0:0:0:
465,75,70630,1,8,0:0:0:0:
465,75,70716,1,0,0:0:0:0:
476,75,70802,1,0,0:0:0:0:
476,75,70888,1,8,0:0:0:0:
478,78,70973,1,0,0:0:0:0:
478,78,71059,1,8,0:0:0:0:
478,77,71145,1,0,0:0:0:0:
480,77,71230,1,8,0:0:0:0:
477,75,71316,1,8,0:0:0:0:
477,75,71402,1,0,0:0:0:0:
475,77,71488,1,8,0:0:0:0:
473,72,71659,1,0,0:0:0:0:
480,76,71745,1,8,0:0:0:0:
436,103,71830,1,8,0:0:0:0:
448,105,71916,1,0,0:0:0:0:
449,104,72002,1,0,0:0:0:0:
449,104,72088,1,8,0:0:0:0:
452,96,72173,1,8,0:0:0:0:
451,92,72259,1,0,0:0:0:0:
452,97,72345,1,0,0:0:0:0:
451,92,72430,1,8,0:0:0:0:
464,88,72516,1,8,0:0:0:0:
452,92,72602,1,0,0:0:0:0:
470,86,72688,1,0,0:0:0:0:
451,92,72773,1,8,0:0:0:0:
464,88,72859,1,8,0:0:0:0:
452,92,72945,1,0,0:0:0:0:
471,86,73030,1,0,0:0:0:0:
451,92,73116,1,8,0:0:0:0:
464,88,73202,1,8,0:0:0:0:
452,97,73288,1,0,0:0:0:0:
471,86,73373,1,0,0:0:0:0:
451,92,73459,1,8,0:0:0:0:
464,88,73545,1,8,0:0:0:0:
452,92,73630,1,0,0:0:0:0:
471,86,73716,1,0,0:0:0:0:
451,92,73802,1,8,0:0:0:0:
464,88,73888,1,8,0:0:0:0:
452,92,73973,1,0,0:0:0:0:
471,86,74059,1,0,0:0:0:0:
472,86,74145,1,8,0:0:0:0:
471,86,74402,1,0,0:0:0:0:
480,79,74488,1,8,0:0:0:0:
496,74,74573,1,0,0:0:0:0:
494,79,74659,1,8,0:0:0:0:
493,79,74745,1,8,0:0:0:0:
489,79,74830,1,0,0:0:0:0:
488,82,75088,1,8,0:0:0:0:
489,83,75173,1,0,0:0:0:0:
489,83,75259,1,0,0:0:0:0:
490,83,75345,1,8,0:0:0:0:
491,83,75430,1,0,0:0:0:0:
490,83,75516,1,8,0:0:0:0:
493,79,75773,1,0,0:0:0:0:
489,79,75859,1,8,0:0:0:0:
495,72,75945,1,0,0:0:0:0:
495,72,76030,1,8,0:0:0:0:
491,75,76116,1,8,0:0:0:0:
491,75,76202,1,0,0:0:0:0:
491,75,76373,1,8,0:0:0:0:
491,75,76459,1,0,0:0:0:0:
490,71,76545,1,8,0:0:0:0:
492,71,76630,1,8,0:0:0:0:
492,71,76716,1,0,0:0:0:0:
493,79,76802,1,0,0:0:0:0:
489,79,76888,1,0,0:0:0:0:
495,72,76973,1,8,0:0:0:0:
491,75,77145,1,8,0:0:0:0:
491,75,77230,1,0,0:0:0:0:
497,71,77316,1,0,0:0:0:0:
491,75,77402,1,8,0:0:0:0:
491,75,77488,1,8,0:0:0:0:
490,71,77573,1,0,0:0:0:0:
499,76,77659,1,0,0:0:0:0:
486,83,77745,1,8,0:0:0:0:
493,79,77830,1,8,0:0:0:0:
494,74,77916,1,0,0:0:0:0:
495,72,78002,1,0,0:0:0:0:
491,75,78088,1,8,0:0:0:0:
491,75,78173,1,8,0:0:0:0:
491,75,78259,1,0,0:0:0:0:
497,71,78345,1,0,0:0:0:0:
491,75,78430,1,8,0:0:0:0:
491,75,78516,1,8,0:0:0:0:
490,71,78602,1,0,0:0:0:0:
499,76,78688,1,0,0:0:0:0:
494,74,78773,1,8,0:0:0:0:
494,74,78859,1,8,0:0:0:0:
491,75,78945,1,0,0:0:0:0:
495,72,79030,1,0,0:0:0:0:
491,75,79116,1,8,0:0:0:0:
491,75,79202,1,8,0:0:0:0:
490,71,79288,1,0,0:0:0:0:
497,71,79373,1,0,0:0:0:0:
491,75,79459,1,8,0:0:0:0:
491,75,79545,1,8,0:0:0:0:
502,79,79630,1,0,0:0:0:0:
499,76,79716,1,8,0:0:0:0:
494,74,79802,1,0,0:0:0:0:
494,74,79888,1,0,0:0:0:0:
494,79,79973,1,8,0:0:0:0:
496,81,80059,1,0,0:0:0:0:
496,81,80145,1,8,0:0:0:0:
496,81,80230,1,8,0:0:0:0:
496,81,80316,1,0,0:0:0:0:
487,84,80402,1,0,0:0:0:0:
487,84,80488,1,8,0:0:0:0:
490,85,80573,1,8,0:0:0:0:
487,80,80659,1,0,0:0:0:0:
503,75,80745,1,8,0:0:0:0:
504,72,80830,1,0,0:0:0:0:
503,75,80916,1,0,0:0:0:0:
504,72,81002,1,8,0:0:0:0:
504,73,81088,1,0,0:0:0:0:
504,73,81173,1,8,0:0:0:0:
496,81,81259,1,0,0:0:0:0:
496,81,81345,1,8,0:0:0:0:
499,83,81430,1,8,0:0:0:0:
499,83,81516,1,0,0:0:0:0:
499,83,81602,1,0,0:0:0:0:
499,83,81688,1,8,0:0:0:0:
511,83,81773,1,0,0:0:0:0:
499,85,81859,1,8,0:0:0:0:
510,83,81945,1,8,0:0:0:0:
499,85,82030,1,8,0:0:0:0:
508,84,82116,1,0,0:0:0:0:
496,81,82202,1,8,0:0:0:0:
496,81,82288,1,0,0:0:0:0:
496,81,82373,1,0,0:0:0:0:
499,83,82459,1,8,0:0:0:0:
499,83,82630,1,0,0:0:0:0:
499,83,82716,1,8,0:0:0:0:
491,81,82802,1,8,0:0:0:0:
492,81,82888,1,0,0:0:0:0:
491,80,82973,1,0,0:0:0:0:
493,80,83059,1,8,0:0:0:0:
496,81,83145,1,8,0:0:0:0:
494,68,83230,1,0,0:0:0:0:
505,72,83316,1,0,0:0:0:0:
496,81,83402,1,8,0:0:0:0:
487,66,83488,1,8,0:0:0:0:
495,68,83573,1,0,0:0:0:0:
505,72,83659,1,0,0:0:0:0:
499,83,83745,1,8,0:0:0:0:
492,68,83830,1,8,0:0:0:0:
495,68,83916,1,0,0:0:0:0:
505,72,84002,1,0,0:0:0:0:
493,80,84088,1,8,0:0:0:0:
492,68,84173,1,8,0:0:0:0:
494,68,84259,1,0,0:0:0:0:
505,72,84345,1,0,0:0:0:0:
496,81,84430,1,8,0:0:0:0:
487,66,84516,1,8,0:0:0:0:
495,68,84602,1,0,0:0:0:0:
505,72,84688,1,0,0:0:0:0:
499,83,84773,1,8,0:0:0:0:
492,68,84859,1,8,0:0:0:0:
495,68,84945,1,0,0:0:0:0:
505,72,85030,1,0,0:0:0:0:
492,68,85116,1,8,0:0:0:0:
494,69,85373,1,0,0:0:0:0:
494,69,85459,1,8,0:0:0:0:
498,74,85545,1,0,0:0:0:0:
497,74,85630,1,8,0:0:0:0:
497,74,85716,1,8,0:0:0:0:
504,71,85802,1,0,0:0:0:0:
505,72,86059,1,8,0:0:0:0:
510,65,86145,1,0,0:0:0:0:
508,66,86230,1,0,0:0:0:0:
468,78,86316,1,8,0:0:0:0:
479,79,86488,1,0,0:0:0:0:
475,75,86659,1,8,0:0:0:0:
475,76,86830,1,0,0:0:0:0:
477,78,86916,1,8,0:0:0:0:
477,78,87002,1,0,0:0:0:0:
478,79,87088,1,0,0:0:0:0:
478,79,87173,1,8,0:0:0:0:
417,114,90603,1,4,0:0:0:0:
429,91,91288,1,8,0:0:0:0:
421,104,91630,1,4,0:0:0:0:
430,102,92145,1,0,0:0:0:0:
421,104,92316,1,4,0:0:0:0:
434,102,92659,1,8,0:0:0:0:
435,91,93346,1,4,0:0:0:0:
435,91,94030,1,8,0:0:0:0:
435,91,94373,1,4,0:0:0:0:
435,91,94888,1,0,0:0:0:0:
435,91,95059,1,4,0:0:0:0:
442,94,95402,1,8,0:0:0:0:
452,96,96088,1,4,0:0:0:0:
452,96,96773,1,8,0:0:0:0:
452,96,97116,1,4,0:0:0:0:
452,96,97630,1,0,0:0:0:0:
452,96,97802,1,4,0:0:0:0:
467,100,98145,1,8,0:0:0:0:
474,106,100202,1,8,0:0:0:0:
474,106,100373,1,8,0:0:0:0:
474,106,100545,1,8,0:0:0:0:
474,106,100716,1,8,0:0:0:0:
471,107,100888,1,8,0:0:0:0:
474,106,101059,1,8,0:0:0:0:
474,106,101230,1,8,0:0:0:0:
474,106,101316,1,8,0:0:0:0:
474,106,101402,1,8,0:0:0:0:
474,106,101488,1,8,0:0:0:0:
481,107,101573,1,4,0:0:0:0:
499,110,101916,1,0,0:0:0:0:
501,109,102088,1,0,0:0:0:0:
482,106,102259,1,8,0:0:0:0:
496,111,102430,1,8,0:0:0:0:
481,107,102602,1,0,0:0:0:0:
494,119,102773,1,8,0:0:0:0:
494,118,102945,1,0,0:0:0:0:
482,106,103116,1,0,0:0:0:0:
482,107,103459,1,0,0:0:0:0:
468,97,103630,1,8,0:0:0:0:
482,105,103802,1,8,0:0:0:0:
482,105,103973,1,0,0:0:0:0:
482,107,104145,1,0,0:0:0:0:
481,115,104316,1,8,0:0:0:0:
481,115,104488,1,0,0:0:0:0:
482,115,104659,1,0,0:0:0:0:
482,113,104830,1,0,0:0:0:0:
492,114,105002,1,8,0:0:0:0:
493,115,105173,1,8,0:0:0:0:
494,117,105345,1,0,0:0:0:0:
494,117,105516,1,0,0:0:0:0:
494,117,105688,1,8,0:0:0:0:
493,117,105859,1,0,0:0:0:0:
493,115,106202,1,0,0:0:0:0:
462,118,106259,1,0,0:0:0:0:
459,120,106316,1,0,0:0:0:0:
459,119,106373,1,8,0:0:0:0:
452,100,106545,1,0,0:0:0:0:
452,98,106716,1,8,0:0:0:0:
452,98,106888,1,8,0:0:0:0:
453,95,107059,1,4,0:0:0:0:
469,103,108088,1,0,0:0:0:0:
469,103,108602,1,0,0:0:0:0:
469,103,108773,1,0,0:0:0:0:
417,83,114602,5,0,0:0:0:0:
417,83,114859,1,0,0:0:0:0:
417,83,115116,1,8,0:0:0:0:
417,83,115202,1,8,0:0:0:0:
417,83,115288,1,0,0:0:0:0:
414,83,115545,1,8,0:0:0:0:
413,83,115630,1,0,0:0:0:0:
422,83,115802,1,8,0:0:0:0:
429,85,115973,1,0,0:0:0:0:
425,76,116059,1,8,0:0:0:0:
425,76,116316,1,0,0:0:0:0:
424,74,116488,1,0,0:0:0:0:
424,74,116659,1,8,0:0:0:0:
424,73,116916,1,8,0:0:0:0:
424,73,117002,1,0,0:0:0:0:
436,77,117173,1,8,0:0:0:0:
437,76,117345,1,0,0:0:0:0:
434,68,117430,1,8,0:0:0:0:
434,68,117688,1,8,0:0:0:0:
443,69,117773,1,0,0:0:0:0:
438,68,117859,1,0,0:0:0:0:
443,69,118030,1,8,0:0:0:0:
445,69,118202,1,0,0:0:0:0:
442,63,118288,1,8,0:0:0:0:
443,69,118373,1,8,0:0:0:0:
442,63,118545,1,0,0:0:0:0:
443,62,118716,1,8,0:0:0:0:
443,69,118802,1,8,0:0:0:0:
445,57,119059,1,8,0:0:0:0:
456,61,119230,1,0,0:0:0:0:
450,62,119402,1,8,0:0:0:0:
454,58,119659,1,8,0:0:0:0:
456,58,119745,1,0,0:0:0:0:
456,58,119916,1,8,0:0:0:0:
456,58,120088,1,0,0:0:0:0:
456,61,120173,1,8,0:0:0:0:
456,61,120259,1,0,0:0:0:0:
461,56,120430,1,8,0:0:0:0:
462,57,120602,1,0,0:0:0:0:
463,56,120773,1,8,0:0:0:0:
470,61,120945,1,0,0:0:0:0:
470,61,121030,1,0,0:0:0:0:
474,62,121116,1,8,0:0:0:0:
474,62,121288,1,0,0:0:0:0:
473,62,121459,1,8,0:0:0:0:
475,49,121630,1,0,0:0:0:0:
467,61,121716,1,8,0:0:0:0:
481,51,121802,1,8,0:0:0:0:
470,61,121973,1,0,0:0:0:0:
466,60,122145,1,8,0:0:0:0:
466,60,122316,1,0,0:0:0:0:
473,62,122402,1,0,0:0:0:0:
469,57,122488,1,8,0:0:0:0:
465,60,122659,1,0,0:0:0:0:
465,60,122830,1,8,0:0:0:0:
459,60,123002,1,0,0:0:0:0:
456,65,123088,1,8,0:0:0:0:
466,60,123173,1,8,0:0:0:0:
472,54,123345,1,0,0:0:0:0:
469,57,123516,1,8,0:0:0:0:
483,59,123602,1,8,0:0:0:0:
483,64,123688,1,0,0:0:0:0:
481,67,123773,1,0,0:0:0:0:
481,67,123859,1,8,0:0:0:0:
477,68,123945,1,8,0:0:0:0:
477,68,124030,1,0,0:0:0:0:
477,68,124116,1,0,0:0:0:0:
477,68,124202,1,8,0:0:0:0:
479,72,124288,1,8,0:0:0:0:
474,71,124373,1,8,0:0:0:0:
472,72,124459,1,8,0:0:0:0:
472,72,124545,1,0,0:0:0:0:
471,72,124630,1,0,0:0:0:0:
471,72,124716,1,8,0:0:0:0:
468,74,124802,1,8,0:0:0:0:
465,74,124888,1,0,0:0:0:0:
431,107,126259,1,12,0:0:0:0:
413,96,126430,1,0,0:0:0:0:
418,98,126602,1,8,0:0:0:0:
446,88,126688,1,8,0:0:0:0:
445,88,126773,1,0,0:0:0:0:
442,89,126859,1,0,0:0:0:0:
456,88,126945,1,8,0:0:0:0:
445,92,127030,1,8,0:0:0:0:
456,88,127116,1,0,0:0:0:0:
457,89,127202,1,0,0:0:0:0:
457,89,127288,1,8,0:0:0:0:
457,90,127373,1,8,0:0:0:0:
457,91,127459,1,0,0:0:0:0:
458,92,127545,1,0,0:0:0:0:
457,92,127630,1,8,0:0:0:0:
457,92,127716,1,8,0:0:0:0:
457,92,127802,1,0,0:0:0:0:
458,92,127888,1,0,0:0:0:0:
458,92,127973,1,8,0:0:0:0:
453,92,128059,1,8,0:0:0:0:
457,89,128145,1,0,0:0:0:0:
457,89,128230,1,0,0:0:0:0:
457,90,128316,1,8,0:0:0:0:
457,90,128402,1,8,0:0:0:0:
458,92,128488,1,0,0:0:0:0:
458,92,128573,1,0,0:0:0:0:
457,92,128659,1,8,0:0:0:0:
462,83,128745,1,8,0:0:0:0:
447,78,128830,1,0,0:0:0:0:
458,92,128916,1,0,0:0:0:0:
460,83,129002,1,8,0:0:0:0:
460,83,129088,1,0,0:0:0:0:
457,89,129173,1,8,0:0:0:0:
457,90,129259,1,0,0:0:0:0:
457,90,129345,1,8,0:0:0:0:
445,91,129430,1,8,0:0:0:0:
452,85,129516,1,8,0:0:0:0:
454,81,129602,1,0,0:0:0:0:
462,83,129688,1,8,0:0:0:0:
462,83,129773,1,0,0:0:0:0:
460,81,129859,1,8,0:0:0:0:
456,80,129945,1,0,0:0:0:0:
453,85,130030,1,8,0:0:0:0:
453,85,130116,1,8,0:0:0:0:
457,89,130202,1,0,0:0:0:0:
458,77,130288,1,0,0:0:0:0:
460,77,130373,1,8,0:0:0:0:
465,81,130459,1,0,0:0:0:0:
461,80,130545,1,0,0:0:0:0:
462,83,130630,1,0,0:0:0:0:
462,75,130716,1,8,0:0:0:0:
465,75,130802,1,0,0:0:0:0:
460,81,130888,1,8,0:0:0:0:
465,75,130973,1,8,0:0:0:0:
465,75,131059,1,0,0:0:0:0:
476,75,131145,1,0,0:0:0:0:
476,75,131230,1,8,0:0:0:0:
478,78,131316,1,0,0:0:0:0:
478,78,131402,1,8,0:0:0:0:
478,77,131488,1,0,0:0:0:0:
480,77,131573,1,8,0:0:0:0:
477,75,131659,1,8,0:0:0:0:
477,75,131745,1,0,0:0:0:0:
475,77,131830,1,8,0:0:0:0:
473,72,132002,1,0,0:0:0:0:
480,76,132088,1,8,0:0:0:0:
436,103,132173,1,8,0:0:0:0:
448,105,132259,1,0,0:0:0:0:
449,104,132345,1,0,0:0:0:0:
449,104,132430,1,8,0:0:0:0:
452,96,132516,1,8,0:0:0:0:
451,92,132602,1,0,0:0:0:0:
452,97,132688,1,0,0:0:0:0:
451,92,132773,1,8,0:0:0:0:
464,88,132859,1,8,0:0:0:0:
452,92,132945,1,0,0:0:0:0:
470,86,133030,1,0,0:0:0:0:
451,92,133116,1,8,0:0:0:0:
464,88,133202,1,8,0:0:0:0:
452,92,133288,1,0,0:0:0:0:
471,86,133373,1,0,0:0:0:0:
451,92,133459,1,8,0:0:0:0:
464,88,133545,1,8,0:0:0:0:
452,97,133630,1,0,0:0:0:0:
471,86,133716,1,0,0:0:0:0:
451,92,133802,1,8,0:0:0:0:
464,88,133888,1,8,0:0:0:0:
452,92,133973,1,0,0:0:0:0:
471,86,134059,1,0,0:0:0:0:
451,92,134145,1,8,0:0:0:0:
464,88,134230,1,8,0:0:0:0:
452,92,134316,1,0,0:0:0:0:
471,86,134402,1,0,0:0:0:0:
472,86,134488,1,8,0:0:0:0:
471,86,134745,1,0,0:0:0:0:
480,79,134830,1,8,0:0:0:0:
496,74,134916,1,0,0:0:0:0:
494,79,135002,1,8,0:0:0:0:
493,79,135088,1,8,0:0:0:0:
489,79,135173,1,0,0:0:0:0:
488,82,135430,1,8,0:0:0:0:
489,83,135516,1,0,0:0:0:0:
489,83,135602,1,0,0:0:0:0:
490,83,135688,1,8,0:0:0:0:
491,83,135773,1,0,0:0:0:0:
490,83,135859,1,8,0:0:0:0:
493,79,136116,1,0,0:0:0:0:
489,79,136202,1,8,0:0:0:0:
495,72,136288,1,0,0:0:0:0:
495,72,136373,1,8,0:0:0:0:
491,75,136459,1,8,0:0:0:0:
491,75,136545,1,0,0:0:0:0:
491,75,136716,1,8,0:0:0:0:
491,75,136802,1,0,0:0:0:0:
490,71,136888,1,8,0:0:0:0:
492,71,136973,1,8,0:0:0:0:
492,71,137059,1,0,0:0:0:0:
493,79,137145,1,0,0:0:0:0:
489,79,137230,1,0,0:0:0:0:
495,72,137316,1,8,0:0:0:0:
491,75,137488,1,8,0:0:0:0:
491,75,137573,1,0,0:0:0:0:
497,71,137659,1,0,0:0:0:0:
491,75,137745,1,8,0:0:0:0:
491,75,137830,1,8,0:0:0:0:
490,71,137916,1,0,0:0:0:0:
499,76,138002,1,0,0:0:0:0:
486,83,138088,1,8,0:0:0:0:
493,79,138173,1,8,0:0:0:0:
494,74,138259,1,0,0:0:0:0:
495,72,138345,1,0,0:0:0:0:
491,75,138430,1,8,0:0:0:0:
491,75,138516,1,8,0:0:0:0:
491,75,138602,1,0,0:0:0:0:
497,71,138688,1,0,0:0:0:0:
491,75,138773,1,8,0:0:0:0:
491,75,138859,1,8,0:0:0:0:
490,71,138945,1,0,0:0:0:0:
499,76,139030,1,0,0:0:0:0:
494,74,139116,1,8,0:0:0:0:
494,74,139202,1,8,0:0:0:0:
491,75,139288,1,0,0:0:0:0:
495,72,139373,1,0,0:0:0:0:
491,75,139459,1,8,0:0:0:0:
491,75,139545,1,8,0:0:0:0:
490,71,139630,1,0,0:0:0:0:
497,71,139716,1,0,0:0:0:0:
491,75,139802,1,8,0:0:0:0:
491,75,139888,1,8,0:0:0:0:
502,79,139973,1,0,0:0:0:0:
499,76,140059,1,8,0:0:0:0:
494,74,140145,1,0,0:0:0:0:
494,74,140230,1,0,0:0:0:0:
494,79,140316,1,8,0:0:0:0:
496,81,140402,1,0,0:0:0:0:
496,81,140488,1,8,0:0:0:0:
496,81,140573,1,8,0:0:0:0:
496,81,140659,1,0,0:0:0:0:
487,84,140745,1,0,0:0:0:0:
487,84,140830,1,8,0:0:0:0:
490,85,140916,1,8,0:0:0:0:
487,80,141002,1,0,0:0:0:0:
503,75,141088,1,8,0:0:0:0:
504,72,141173,1,0,0:0:0:0:
503,75,141259,1,0,0:0:0:0:
504,72,141345,1,8,0:0:0:0:
504,73,141430,1,0,0:0:0:0:
504,73,141516,1,8,0:0:0:0:
496,81,141602,1,0,0:0:0:0:
496,81,141688,1,8,0:0:0:0:
499,83,141773,1,8,0:0:0:0:
499,83,141859,1,0,0:0:0:0:
499,83,141945,1,0,0:0:0:0:
499,83,142030,1,8,0:0:0:0:
511,83,142116,1,0,0:0:0:0:
499,85,142202,1,8,0:0:0:0:
510,83,142288,1,8,0:0:0:0:
499,85,142373,1,8,0:0:0:0:
508,84,142459,1,0,0:0:0:0:
496,81,142545,1,8,0:0:0:0:
496,81,142630,1,0,0:0:0:0:
496,81,142716,1,0,0:0:0:0:
499,83,142802,1,8,0:0:0:0:
499,83,142973,1,0,0:0:0:0:
499,83,143059,1,8,0:0:0:0:
491,81,143145,1,8,0:0:0:0:
492,81,143230,1,0,0:0:0:0:
491,80,143316,1,0,0:0:0:0:
493,80,143402,1,8,0:0:0:0:
496,81,143488,1,8,0:0:0:0:
494,68,143573,1,0,0:0:0:0:
505,72,143659,1,0,0:0:0:0:
496,81,143745,1,8,0:0:0:0:
487,66,143830,1,8,0:0:0:0:
495,68,143916,1,0,0:0:0:0:
505,72,144002,1,0,0:0:0:0:
499,83,144088,1,8,0:0:0:0:
492,68,144173,1,8,0:0:0:0:
495,68,144259,1,0,0:0:0:0:
505,72,144345,1,0,0:0:0:0:
493,80,144430,1,8,0:0:0:0:
492,68,144516,1,8,0:0:0:0:
494,68,144602,1,0,0:0:0:0:
505,72,144688,1,0,0:0:0:0:
496,81,144773,1,8,0:0:0:0:
487,66,144859,1,8,0:0:0:0:
495,68,144945,1,0,0:0:0:0:
505,72,145030,1,0,0:0:0:0:
499,83,145116,1,8,0:0:0:0:
492,68,145202,1,8,0:0:0:0:
495,68,145288,1,0,0:0:0:0:
505,72,145373,1,0,0:0:0:0:
492,68,145459,1,8,0:0:0:0:
494,69,145716,1,0,0:0:0:0:
494,69,145802,1,8,0:0:0:0:
498,74,145888,1,0,0:0:0:0:
497,74,145973,1,8,0:0:0:0:
497,74,146059,1,8,0:0:0:0:
504,71,146145,1,0,0:0:0:0:
505,72,146402,1,8,0:0:0:0:
510,65,146488,1,0,0:0:0:0:
508,66,146573,1,0,0:0:0:0:
468,78,146659,1,8,0:0:0:0:
479,79,146830,1,0,0:0:0:0:
475,75,147002,1,8,0:0:0:0:
475,76,147173,1,0,0:0:0:0:
477,78,147259,1,8,0:0:0:0:
477,78,147345,1,0,0:0:0:0:
478,79,147430,1,0,0:0:0:0:
478,79,147516,1,8,0:0:0:0:
493,69,147773,1,0,0:0:0:0:
493,81,147859,1,8,0:0:0:0:
494,80,148030,1,0,0:0:0:0:
494,81,148116,1,0,0:0:0:0:
493,85,148202,1,12,0:0:0:0:
