osu file format v14

[General]
AudioFilename: audio.mp3
AudioLeadIn: 0
PreviewTime: 43781
Countdown: 0
SampleSet: Normal
StackLeniency: 0.7
Mode: 1
LetterboxInBreaks: 0
WidescreenStoryboard: 0

[Editor]
DistanceSpacing: 0.5
BeatDivisor: 4
GridSize: 32
TimelineZoom: 2.1

[Metadata]
Title:Mafain
TitleUnicode:ま、ζ、ぁレヽωʚ ♥ɞ
Artist:DJ Majokko Mirakurun
ArtistUnicode:ღDJ魔女っ娘ミラクるんღ
Creator:Nifty
Version:Futsuu
Source:
Tags:electronic english nightcore nghtmre & and zhu man's first inhibition feat. kid keem saint punk remix sped up ver bassline speed garage rave nxc sv miraclen mir4clen
BeatmapID:3235923
BeatmapSetID:1541447

[Difficulty]
HPDrainRate:7
CircleSize:2
OverallDifficulty:4
ApproachRate:10
SliderMultiplier:1.4
SliderTickRate:1

[Events]
//Background and Video events
0,0,"freak2me.jpg",0,20
//Break Periods
//Storyboard Layer 0 (Background)
//Storyboard Layer 1 (Fail)
//Storyboard Layer 2 (Pass)
//Storyboard Layer 3 (Foreground)
//Storyboard Layer 4 (Overlay)
//Storyboard Sound Samples

[TimingPoints]
-13,353.898784947505,4,1,0,80,1,0
13,-100,4,1,0,80,0,0
11486,-100,4,1,0,60,0,0
21096,-100,4,1,0,80,0,0
43870,-100,4,1,0,80,0,0
44047,-100,4,1,0,80,0,0
44224,-100,4,1,0,80,0,0
44401,-100,4,1,0,80,0,0
44578,-100,4,1,0,80,0,0
45905,-100,4,1,0,80,0,0
46082,-100,4,1,0,80,0,0
46613,-100,4,1,0,80,0,0
46790,-100,4,1,0,80,0,0
47320,-100,4,1,0,80,0,0
47497,-100,4,1,0,80,0,0
48736,-100,4,1,0,80,0,0
48913,-100,4,1,0,80,0,0
51567,-100,4,1,0,80,0,0
51744,-100,4,1,0,80,0,0
52275,-100,4,1,0,80,0,0
52452,-100,4,1,0,80,0,0
52983,-100,4,1,0,80,0,0
53160,-100,4,1,0,80,0,0
54398,-100,4,1,0,80,0,0
54575,-100,4,1,0,80,0,0
57230,-100,4,1,0,80,0,0
57407,-100,4,1,0,80,0,0
57937,-100,4,1,0,80,0,0
58114,-100,4,1,0,80,0,0
58645,-100,4,1,0,80,0,0
58822,-100,4,1,0,80,0,0
60061,-100,4,1,0,80,0,0
60238,-100,4,1,0,80,0,0
62892,-100,4,1,0,80,0,0
63246,-100,4,1,0,80,0,0
63600,-100,4,1,0,80,0,0
63954,-100,4,1,0,80,0,0
64308,-100,4,1,0,80,0,0
64662,-100,4,1,0,80,0,0
65723,-100,4,1,0,80,0,0
65900,-100,4,1,0,80,0,0
68643,-100,4,1,0,80,0,1
77844,-100,4,1,0,80,0,0
78021,-100,4,1,0,80,0,0
78110,-100,4,1,0,80,0,0
78375,-100,4,1,0,80,0,0
78641,-100,4,1,0,80,0,0
78729,-100,4,1,0,80,0,0
78906,-100,4,1,0,80,0,0
79083,-100,4,1,0,80,0,0
79260,-100,4,1,0,80,0,0
79700,-100,4,1,0,60,0,0
90583,-100,4,1,0,80,0,0
111819,-100,4,1,0,80,0,0
111995,-100,4,1,0,80,0,0
112172,-100,4,1,0,80,0,0
112349,-100,4,1,0,80,0,0
112526,-100,4,1,0,80,0,0
113853,-100,4,1,0,80,0,0
114030,-100,4,1,0,80,0,0
114561,-100,4,1,0,80,0,0
114738,-100,4,1,0,80,0,0
115269,-100,4,1,0,80,0,0
115446,-100,4,1,0,80,0,0
116685,-100,4,1,0,80,0,0
116862,-100,4,1,0,80,0,0
119516,-100,4,1,0,80,0,0
119693,-100,4,1,0,80,0,0
120224,-100,4,1,0,80,0,0
120401,-100,4,1,0,80,0,0
120931,-100,4,1,0,80,0,0
121108,-100,4,1,0,80,0,0
122347,-100,4,1,0,80,0,0
122524,-100,4,1,0,80,0,0
125178,-100,4,1,0,80,0,0
125355,-100,4,1,0,80,0,0
125886,-100,4,1,0,80,0,0
126063,-100,4,1,0,80,0,0
126594,-100,4,1,0,80,0,0
126771,-100,4,1,0,80,0,0
128009,-100,4,1,0,80,0,0
128186,-100,4,1,0,80,0,0
130841,-100,4,1,0,80,0,0
131195,-100,4,1,0,80,0,0
131549,-100,4,1,0,80,0,0
131903,-100,4,1,0,80,0,0
132257,-100,4,1,0,80,0,0
132611,-100,4,1,0,80,0,0
133672,-100,4,1,0,80,0,0
133849,-100,4,1,0,80,0,0
136591,-100,4,1,0,80,0,1
145793,-100,4,1,0,80,0,0
145969,-100,4,1,0,80,0,0
146058,-100,4,1,0,80,0,0
146323,-100,4,1,0,80,0,0
146589,-100,4,1,0,80,0,0
146677,-100,4,1,0,80,0,0
146854,-100,4,1,0,80,0,0
147031,-100,4,1,0,80,0,0
147208,-100,4,1,0,80,0,0
147629,-100,4,1,0,60,0,0
148072,-100,4,1,0,60,0,0

[HitObjects]
320,118,5649,5,8,0:0:0:0:
320,118,5914,1,0,0:0:0:0:
328,117,6180,1,8,0:0:0:0:
333,106,6534,1,8,0:0:0:0:
329,109,6711,1,8,0:0:0:0:
335,112,7064,1,8,0:0:0:0:
333,106,7330,1,0,0:0:0:0:
336,108,7595,1,8,0:0:0:0:
335,112,7949,1,8,0:0:0:0:
343,113,8126,1,0,0:0:0:0:
341,120,8480,1,8,0:0:0:0:
343,120,8745,1,0,0:0:0:0:
335,112,9011,1,8,0:0:0:0:
327,108,9365,1,8,0:0:0:0:
328,107,9542,1,8,0:0:0:0:
328,108,9896,1,8,0:0:0:0:
329,111,10073,1,0,0:0:0:0:
327,108,10250,1,8,0:0:0:0:
328,107,10603,1,8,0:0:0:0:
328,108,10780,1,0,0:0:0:0:
329,111,10957,1,8,0:0:0:0:
329,111,11134,1,8,0:0:0:0:
328,107,11311,1,4,0:0:0:0:
342,103,11665,1,8,0:0:0:0:
337,104,12019,1,0,0:0:0:0:
330,113,12284,1,0,0:0:0:0:
325,111,13966,1,0,0:0:0:0:
341,107,14142,1,8,0:0:0:0:
345,103,14319,1,0,0:0:0:0:
342,109,14496,1,0,0:0:0:0:
340,105,14850,1,8,0:0:0:0:
353,104,15116,1,0,0:0:0:0:
341,109,17328,1,8,0:0:0:0:
349,108,17681,1,0,0:0:0:0:
349,108,17947,1,0,0:0:0:0:
348,109,19628,1,0,0:0:0:0:
348,109,19805,1,8,0:0:0:0:
348,109,19982,1,0,0:0:0:0:
348,109,20159,1,0,0:0:0:0:
337,112,20513,1,8,0:0:0:0:
340,100,20778,1,0,0:0:0:0:
376,102,21928,1,8,0:0:0:0:
394,97,22105,1,8,0:0:0:0:
383,97,22282,1,8,0:0:0:0:
401,97,22636,1,0,0:0:0:0:
396,95,22990,1,8,0:0:0:0:
391,101,23344,1,8,0:0:0:0:
382,105,23609,1,0,0:0:0:0:
390,105,23875,1,0,0:0:0:0:
388,107,24052,1,8,0:0:0:0:
386,107,24406,1,8,0:0:0:0:
393,105,24582,1,8,0:0:0:0:
366,95,24759,1,8,0:0:0:0:
383,115,25467,1,0,0:0:0:0:
369,126,25821,1,8,0:0:0:0:
382,108,25998,1,0,0:0:0:0:
383,115,26175,1,8,0:0:0:0:
385,121,26529,1,0,0:0:0:0:
374,112,26883,1,0,0:0:0:0:
363,117,27237,1,8,0:0:0:0:
381,116,27414,1,8,0:0:0:0:
385,121,27591,1,8,0:0:0:0:
381,121,27945,1,0,0:0:0:0:
379,109,28121,1,0,0:0:0:0:
377,111,28298,1,0,0:0:0:0:
376,119,28652,1,8,0:0:0:0:
381,121,29006,1,8,0:0:0:0:
377,120,29272,1,0,0:0:0:0:
376,119,29537,1,0,0:0:0:0:
372,123,29714,1,8,0:0:0:0:
381,121,30068,1,8,0:0:0:0:
374,120,30245,1,8,0:0:0:0:
378,119,30422,1,8,0:0:0:0:
381,121,31130,1,0,0:0:0:0:
395,111,31307,1,0,0:0:0:0:
392,109,31483,1,8,0:0:0:0:
391,107,31837,1,8,0:0:0:0:
386,109,32191,1,0,0:0:0:0:
401,117,32545,1,8,0:0:0:0:
378,115,32722,1,8,0:0:0:0:
378,115,32899,1,8,0:0:0:0:
382,94,33253,1,0,0:0:0:0:
402,103,33961,1,8,0:0:0:0:
408,77,34226,1,8,0:0:0:0:
411,95,34492,1,0,0:0:0:0:
424,90,34846,1,0,0:0:0:0:
422,91,35022,1,0,0:0:0:0:
434,84,35376,1,8,0:0:0:0:
432,87,35642,1,0,0:0:0:0:
430,88,35907,1,0,0:0:0:0:
424,80,36438,1,8,0:0:0:0:
430,88,36792,1,8,0:0:0:0:
424,76,37057,1,8,0:0:0:0:
424,80,37323,1,0,0:0:0:0:
424,79,37677,1,0,0:0:0:0:
429,101,37854,1,0,0:0:0:0:
429,100,38208,1,8,0:0:0:0:
429,100,38473,1,0,0:0:0:0:
430,100,38738,1,8,0:0:0:0:
435,95,39269,1,0,0:0:0:0:
443,101,39623,1,8,0:0:0:0:
441,92,39800,1,8,0:0:0:0:
440,95,39977,1,0,0:0:0:0:
437,101,40331,1,8,0:0:0:0:
443,101,40685,1,0,0:0:0:0:
439,102,41039,1,8,0:0:0:0:
440,95,41216,1,8,0:0:0:0:
437,101,41393,1,0,0:0:0:0:
437,101,41747,1,8,0:0:0:0:
437,101,42100,1,0,0:0:0:0:
199,137,42454,2,4,L|288:115,6,70
370,104,43870,1,8,0:0:0:0:
348,112,44047,1,0,0:0:0:0:
372,91,44224,1,8,0:0:0:0:
373,91,44401,1,0,0:0:0:0:
367,90,44578,1,8,0:0:0:0:
380,109,45286,1,0,0:0:0:0:
380,95,45551,1,8,0:0:0:0:
397,103,45816,1,0,0:0:0:0:
395,106,45993,1,12,0:0:0:0:
390,94,46347,1,0,0:0:0:0:
399,93,46524,1,0,0:0:0:0:
391,102,46701,1,12,0:0:0:0:
409,90,47055,1,0,0:0:0:0:
401,95,47232,1,0,0:0:0:0:
391,102,47409,1,12,0:0:0:0:
418,101,47763,1,0,0:0:0:0:
417,99,47940,1,0,0:0:0:0:
409,84,48117,1,8,0:0:0:0:
395,106,48825,1,12,0:0:0:0:
414,89,49178,1,0,0:0:0:0:
416,89,49355,1,0,0:0:0:0:
417,85,49532,1,0,0:0:0:0:
423,92,49886,1,8,0:0:0:0:
423,88,50063,1,8,0:0:0:0:
414,89,50240,1,0,0:0:0:0:
416,89,50417,1,0,0:0:0:0:
417,85,50594,1,8,0:0:0:0:
412,92,50948,1,0,0:0:0:0:
408,120,51213,1,8,0:0:0:0:
417,85,51479,1,0,0:0:0:0:
380,105,51656,1,12,0:0:0:0:
417,89,52010,1,0,0:0:0:0:
414,89,52187,1,0,0:0:0:0:
380,105,52364,1,12,0:0:0:0:
408,85,52717,1,0,0:0:0:0:
408,85,52894,1,0,0:0:0:0:
380,105,53071,1,12,0:0:0:0:
417,85,53425,1,0,0:0:0:0:
416,89,53602,1,0,0:0:0:0:
416,81,53779,1,8,0:0:0:0:
386,105,54487,1,12,0:0:0:0:
416,81,54841,1,0,0:0:0:0:
412,82,55018,1,0,0:0:0:0:
425,86,55195,1,0,0:0:0:0:
426,87,55549,1,8,0:0:0:0:
416,88,55726,1,8,0:0:0:0:
428,86,55903,1,0,0:0:0:0:
425,86,56079,1,0,0:0:0:0:
431,85,56256,1,0,0:0:0:0:
428,85,56610,1,0,0:0:0:0:
428,86,56876,1,8,0:0:0:0:
434,85,57141,1,0,0:0:0:0:
391,104,57318,1,12,0:0:0:0:
433,85,57672,1,0,0:0:0:0:
436,85,57849,1,0,0:0:0:0:
391,104,58026,1,12,0:0:0:0:
430,91,58380,1,0,0:0:0:0:
431,90,58557,1,0,0:0:0:0:
391,104,58734,1,12,0:0:0:0:
430,91,59088,1,0,0:0:0:0:
447,91,59265,1,0,0:0:0:0:
448,93,59441,1,8,0:0:0:0:
395,107,60149,1,12,0:0:0:0:
448,93,60503,1,0,0:0:0:0:
449,88,60680,1,0,0:0:0:0:
449,86,60857,1,0,0:0:0:0:
447,91,61211,1,8,0:0:0:0:
449,88,61388,1,8,0:0:0:0:
449,88,61565,1,0,0:0:0:0:
445,94,61742,1,0,0:0:0:0:
447,96,61919,1,8,0:0:0:0:
443,104,62273,1,0,0:0:0:0:
439,105,62538,1,8,0:0:0:0:
442,97,62804,1,0,0:0:0:0:
391,107,62980,1,12,0:0:0:0:
391,107,63334,1,12,0:0:0:0:
428,100,63688,1,12,0:0:0:0:
391,107,64042,1,12,0:0:0:0:
391,107,64396,1,12,0:0:0:0:
386,97,64750,1,0,0:0:0:0:
381,98,64927,1,8,0:0:0:0:
421,110,65104,1,0,0:0:0:0:
416,100,65281,1,0,0:0:0:0:
407,115,65458,1,8,0:0:0:0:
399,108,65812,1,12,0:0:0:0:
405,102,66166,1,0,0:0:0:0:
410,104,66343,1,0,0:0:0:0:
406,103,66519,1,0,0:0:0:0:
409,114,66785,1,8,0:0:0:0:
405,102,67050,1,0,0:0:0:0:
405,102,67227,1,8,0:0:0:0:
423,91,67935,1,0,0:0:0:0:
408,95,68200,1,8,0:0:0:0:
418,84,68466,1,8,0:0:0:0:
401,78,68643,1,0,0:0:0:0:
413,94,68820,1,0,0:0:0:0:
410,94,69174,1,8,0:0:0:0:
408,82,69351,1,0,0:0:0:0:
408,82,69528,1,0,0:0:0:0:
414,83,69882,1,8,0:0:0:0:
419,92,70058,1,0,0:0:0:0:
412,78,70235,1,0,0:0:0:0:
408,82,70412,1,8,0:0:0:0:
361,86,70589,1,8,0:0:0:0:
400,77,70766,1,0,0:0:0:0:
399,90,71474,1,0,0:0:0:0:
405,85,71651,1,0,0:0:0:0:
406,85,72005,1,8,0:0:0:0:
406,86,72182,1,0,0:0:0:0:
406,87,72359,1,8,0:0:0:0:
403,92,72713,1,0,0:0:0:0:
403,92,72890,1,8,0:0:0:0:
402,92,73067,1,8,0:0:0:0:
402,92,73244,1,0,0:0:0:0:
372,97,73420,1,8,0:0:0:0:
406,78,73597,1,0,0:0:0:0:
406,87,74305,1,0,0:0:0:0:
406,78,74482,1,0,0:0:0:0:
406,78,74836,1,8,0:0:0:0:
424,89,75013,1,0,0:0:0:0:
414,86,75190,1,0,0:0:0:0:
410,85,75544,1,8,0:0:0:0:
406,87,75721,1,0,0:0:0:0:
405,83,75898,1,0,0:0:0:0:
405,87,76075,1,8,0:0:0:0:
414,86,76252,1,8,0:0:0:0:
407,77,76429,1,0,0:0:0:0:
414,86,77136,1,8,0:0:0:0:
419,84,77313,1,8,0:0:0:0:
420,83,77490,1,0,0:0:0:0:
422,88,77667,1,0,0:0:0:0:
422,88,77844,1,8,0:0:0:0:
422,78,78110,1,8,0:0:0:0:
419,84,78375,1,8,0:0:0:0:
424,72,78729,1,0,0:0:0:0:
422,78,78906,1,0,0:0:0:0:
407,80,79260,1,12,0:0:0:0:
436,91,79791,1,8,0:0:0:0:
436,91,80322,1,0,0:0:0:0:
427,91,81383,1,0,0:0:0:0:
420,84,81737,1,0,0:0:0:0:
422,85,81914,1,8,0:0:0:0:
416,78,84214,1,0,0:0:0:0:
417,82,84391,1,8,0:0:0:0:
409,86,84657,1,8,0:0:0:0:
413,85,84922,1,0,0:0:0:0:
414,88,85453,1,8,0:0:0:0:
413,85,85984,1,0,0:0:0:0:
422,89,87046,1,0,0:0:0:0:
422,89,87399,1,0,0:0:0:0:
422,89,87576,1,8,0:0:0:0:
414,91,89877,1,0,0:0:0:0:
414,91,90231,1,0,0:0:0:0:
414,91,90408,1,8,0:0:0:0:
401,97,90585,1,4,0:0:0:0:
396,95,90939,1,8,0:0:0:0:
391,101,91293,1,8,0:0:0:0:
382,105,91558,1,0,0:0:0:0:
390,105,91824,1,0,0:0:0:0:
388,107,92001,1,8,0:0:0:0:
386,107,92355,1,8,0:0:0:0:
393,105,92531,1,8,0:0:0:0:
366,95,92708,1,8,0:0:0:0:
383,115,93416,1,0,0:0:0:0:
369,126,93770,1,8,0:0:0:0:
382,108,93947,1,0,0:0:0:0:
383,115,94124,1,8,0:0:0:0:
385,121,94478,1,0,0:0:0:0:
374,112,94832,1,0,0:0:0:0:
363,117,95186,1,8,0:0:0:0:
381,116,95363,1,8,0:0:0:0:
385,121,95540,1,8,0:0:0:0:
381,121,95894,1,0,0:0:0:0:
379,109,96070,1,0,0:0:0:0:
377,111,96247,1,0,0:0:0:0:
376,119,96601,1,8,0:0:0:0:
381,121,96955,1,8,0:0:0:0:
377,120,97221,1,0,0:0:0:0:
376,119,97486,1,0,0:0:0:0:
372,123,97663,1,8,0:0:0:0:
381,121,98017,1,8,0:0:0:0:
374,120,98194,1,8,0:0:0:0:
378,119,98371,1,8,0:0:0:0:
381,121,99079,1,0,0:0:0:0:
395,111,99256,1,0,0:0:0:0:
392,109,99432,1,8,0:0:0:0:
391,107,99786,1,8,0:0:0:0:
386,109,100140,1,0,0:0:0:0:
401,117,100494,1,8,0:0:0:0:
378,115,100671,1,8,0:0:0:0:
378,115,100848,1,8,0:0:0:0:
382,94,101202,1,0,0:0:0:0:
402,103,101910,1,8,0:0:0:0:
408,77,102175,1,8,0:0:0:0:
411,95,102441,1,0,0:0:0:0:
424,90,102795,1,0,0:0:0:0:
422,91,102971,1,0,0:0:0:0:
434,84,103325,1,8,0:0:0:0:
432,87,103591,1,0,0:0:0:0:
430,88,103856,1,0,0:0:0:0:
424,80,104387,1,8,0:0:0:0:
430,88,104741,1,8,0:0:0:0:
424,76,105006,1,8,0:0:0:0:
424,80,105272,1,0,0:0:0:0:
424,79,105626,1,0,0:0:0:0:
429,101,105803,1,0,0:0:0:0:
429,100,106157,1,8,0:0:0:0:
429,100,106422,1,0,0:0:0:0:
430,100,106687,1,8,0:0:0:0:
435,95,107218,1,0,0:0:0:0:
443,101,107572,1,8,0:0:0:0:
441,92,107749,1,8,0:0:0:0:
440,95,107926,1,0,0:0:0:0:
437,101,108280,1,8,0:0:0:0:
443,101,108634,1,0,0:0:0:0:
439,102,108988,1,8,0:0:0:0:
440,95,109165,1,8,0:0:0:0:
437,101,109342,1,0,0:0:0:0:
437,101,109696,1,8,0:0:0:0:
437,101,110049,1,0,0:0:0:0:
191,171,110403,2,4,L|280:149,6,70
370,104,111819,1,8,0:0:0:0:
348,112,111996,1,0,0:0:0:0:
372,91,112173,1,8,0:0:0:0:
373,91,112350,1,0,0:0:0:0:
367,90,112527,1,8,0:0:0:0:
380,109,113235,1,0,0:0:0:0:
380,95,113500,1,8,0:0:0:0:
397,103,113765,1,0,0:0:0:0:
395,106,113942,1,12,0:0:0:0:
390,94,114207,1,0,0:0:0:0:
399,93,114473,1,0,0:0:0:0:
391,102,114650,1,12,0:0:0:0:
409,90,114915,1,0,0:0:0:0:
401,95,115181,1,0,0:0:0:0:
391,102,115358,1,12,0:0:0:0:
418,101,115711,1,0,0:0:0:0:
417,99,115889,1,0,0:0:0:0:
409,84,116066,1,8,0:0:0:0:
395,106,116774,1,12,0:0:0:0:
414,89,117039,1,0,0:0:0:0:
416,89,117304,1,8,0:0:0:0:
417,85,117481,1,0,0:0:0:0:
423,92,117835,1,8,0:0:0:0:
423,88,118012,1,8,0:0:0:0:
414,89,118189,1,0,0:0:0:0:
416,89,118366,1,0,0:0:0:0:
417,85,118543,1,8,0:0:0:0:
412,92,118897,1,0,0:0:0:0:
408,120,119073,1,0,0:0:0:0:
417,85,119250,1,8,0:0:0:0:
380,105,119605,1,12,0:0:0:0:
417,89,119870,1,0,0:0:0:0:
414,89,120136,1,0,0:0:0:0:
380,105,120313,1,12,0:0:0:0:
408,85,120578,1,0,0:0:0:0:
408,85,120843,1,0,0:0:0:0:
380,105,121020,1,12,0:0:0:0:
417,85,121374,1,0,0:0:0:0:
416,89,121551,1,0,0:0:0:0:
416,81,121728,1,8,0:0:0:0:
386,105,122436,1,12,0:0:0:0:
416,81,122701,1,0,0:0:0:0:
412,82,122967,1,8,0:0:0:0:
425,86,123144,1,0,0:0:0:0:
426,87,123498,1,8,0:0:0:0:
416,88,123675,1,8,0:0:0:0:
428,86,123852,1,0,0:0:0:0:
425,86,124028,1,0,0:0:0:0:
431,85,124205,1,8,0:0:0:0:
428,85,124559,1,0,0:0:0:0:
428,86,124825,1,8,0:0:0:0:
434,85,125090,1,0,0:0:0:0:
391,104,125267,1,12,0:0:0:0:
433,85,125621,1,0,0:0:0:0:
436,85,125798,1,0,0:0:0:0:
391,104,125975,1,12,0:0:0:0:
430,91,126329,1,0,0:0:0:0:
431,90,126506,1,0,0:0:0:0:
391,104,126683,1,12,0:0:0:0:
430,91,127037,1,0,0:0:0:0:
447,91,127214,1,0,0:0:0:0:
448,93,127390,1,8,0:0:0:0:
395,107,128098,1,12,0:0:0:0:
448,93,128452,1,0,0:0:0:0:
449,88,128629,1,0,0:0:0:0:
449,86,128806,1,0,0:0:0:0:
447,91,129160,1,8,0:0:0:0:
449,88,129337,1,8,0:0:0:0:
449,88,129514,1,0,0:0:0:0:
445,94,129691,1,0,0:0:0:0:
447,96,129868,1,8,0:0:0:0:
443,104,130222,1,0,0:0:0:0:
439,105,130487,1,8,0:0:0:0:
442,97,130753,1,0,0:0:0:0:
391,107,130929,1,12,0:0:0:0:
391,107,131283,1,12,0:0:0:0:
428,100,131637,1,12,0:0:0:0:
391,107,131991,1,12,0:0:0:0:
391,107,132345,1,12,0:0:0:0:
386,97,132699,1,0,0:0:0:0:
381,98,132876,1,8,0:0:0:0:
421,110,133053,1,0,0:0:0:0:
416,100,133230,1,0,0:0:0:0:
407,115,133407,1,8,0:0:0:0:
399,108,133761,1,12,0:0:0:0:
405,102,134115,1,0,0:0:0:0:
410,104,134292,1,0,0:0:0:0:
406,103,134468,1,0,0:0:0:0:
409,114,134734,1,8,0:0:0:0:
405,102,134999,1,0,0:0:0:0:
405,102,135176,1,8,0:0:0:0:
423,91,135884,1,0,0:0:0:0:
408,95,136149,1,8,0:0:0:0:
418,84,136415,1,8,0:0:0:0:
401,78,136592,1,0,0:0:0:0:
413,94,136769,1,0,0:0:0:0:
410,94,137123,1,8,0:0:0:0:
408,82,137300,1,0,0:0:0:0:
408,82,137477,1,0,0:0:0:0:
414,83,137831,1,8,0:0:0:0:
419,92,138007,1,0,0:0:0:0:
412,78,138184,1,0,0:0:0:0:
408,82,138361,1,8,0:0:0:0:
397,81,138538,1,8,0:0:0:0:
400,77,138715,1,0,0:0:0:0:
399,90,139423,1,0,0:0:0:0:
405,85,139600,1,0,0:0:0:0:
406,85,139954,1,8,0:0:0:0:
406,86,140131,1,0,0:0:0:0:
406,87,140308,1,8,0:0:0:0:
403,92,140662,1,0,0:0:0:0:
403,92,140839,1,8,0:0:0:0:
402,92,141016,1,8,0:0:0:0:
402,92,141193,1,0,0:0:0:0:
404,83,141369,1,8,0:0:0:0:
406,78,141546,1,0,0:0:0:0:
406,87,142254,1,0,0:0:0:0:
406,78,142431,1,0,0:0:0:0:
406,78,142785,1,8,0:0:0:0:
424,89,142962,1,0,0:0:0:0:
414,86,143139,1,0,0:0:0:0:
410,85,143493,1,8,0:0:0:0:
406,87,143670,1,0,0:0:0:0:
405,83,143847,1,0,0:0:0:0:
405,87,144024,1,8,0:0:0:0:
402,83,144200,1,8,0:0:0:0:
407,77,144378,1,0,0:0:0:0:
414,86,145085,1,8,0:0:0:0:
419,84,145262,1,8,0:0:0:0:
420,83,145439,1,0,0:0:0:0:
422,88,145616,1,0,0:0:0:0:
422,88,145793,1,8,0:0:0:0:
422,78,146059,1,8,0:0:0:0:
419,84,146324,1,8,0:0:0:0:
424,72,146678,1,0,0:0:0:0:
422,78,146855,1,0,0:0:0:0:
407,80,147209,1,12,0:0:0:0:
436,91,147740,1,8,0:0:0:0:
436,91,148271,1,0,0:0:0:0:
427,91,149332,1,0,0:0:0:0:
420,84,149686,1,0,0:0:0:0:
422,85,149863,1,8,0:0:0:0:
416,78,152163,1,0,0:0:0:0:
417,82,152340,1,8,0:0:0:0:
409,86,152606,1,8,0:0:0:0:
413,85,152871,1,0,0:0:0:0:
414,88,153402,1,8,0:0:0:0:
413,85,153933,1,0,0:0:0:0:
422,89,154995,1,0,0:0:0:0:
422,89,155348,1,0,0:0:0:0:
422,89,155525,1,8,0:0:0:0:
414,91,157826,1,0,0:0:0:0:
414,91,158180,1,0,0:0:0:0:
414,91,158357,1,8,0:0:0:0:
