osu file format v14

[General]
AudioFilename: audio.mp3
AudioLeadIn: 0
PreviewTime: 43781
Countdown: 0
SampleSet: Normal
StackLeniency: 0.7
Mode: 1
LetterboxInBreaks: 0
WidescreenStoryboard: 0

[Editor]
DistanceSpacing: 0.5
BeatDivisor: 4
GridSize: 32
TimelineZoom: 1.6

[Metadata]
Title:Mafain
TitleUnicode:ま、ζ、ぁレヽωʚ ♥ɞ
Artist:DJ Majokko Mirakurun
ArtistUnicode:ღDJ魔女っ娘ミラクるんღ
Creator:Nifty
Version:Discovery
Source:
Tags:electronic english nightcore nghtmre & and zhu man's first inhibition feat. kid keem saint punk remix sped up ver bassline speed garage rave nxc sv miraclen mir4clen
BeatmapID:3150973
BeatmapSetID:1541447

[Difficulty]
HPDrainRate:6
CircleSize:2
OverallDifficulty:7
ApproachRate:10
SliderMultiplier:1.4
SliderTickRate:1

[Events]
//Background and Video events
0,0,"freak2me.jpg",0,20
//Break Periods
//Storyboard Layer 0 (Background)
//Storyboard Layer 1 (Fail)
//Storyboard Layer 2 (Pass)
//Storyboard Layer 3 (Foreground)
//Storyboard Layer 4 (Overlay)
//Storyboard Sound Samples

[TimingPoints]
-13,353.898784947505,4,1,0,80,1,0
13,-125,4,1,0,80,0,0
5824,-121.218439264107,4,1,0,80,0,0
5912,-119.412252891269,4,1,0,80,0,0
6001,-117.659101578632,4,1,0,80,0,0
6089,-115.956548762048,4,1,0,80,0,0
6178,-114.302696400608,4,1,0,80,0,0
6355,-111.132473242079,4,1,0,80,0,0
6443,-109.612465129535,4,1,0,80,0,0
6532,-108.133475636987,4,1,0,80,0,0
6709,-105.291974645693,4,1,0,80,0,0
6886,-102.595986239826,4,1,0,80,0,0
7062,-100.03471204508,4,1,0,80,0,0
7151,-98.8013421174313,4,1,0,80,0,0
7239,-97.5981105005807,4,1,0,80,0,0
7328,-96.4238328859267,4,1,0,80,0,0
7505,-94.1579688242965,4,1,0,80,0,0
7593,-93.0645505028743,4,1,0,80,0,0
7770,-90.952086440863,4,1,0,80,0,0
7859,-89.931454245574,4,1,0,80,0,0
7947,-88.9333951123985,4,1,0,80,0,0
8124,-87.0024438986491,4,1,0,80,0,0
8213,-86.0680006059187,4,1,0,80,0,0
8301,-85.1534891642185,4,1,0,80,0,0
8390,-84.2582075920015,4,1,0,80,0,0
8478,-83.3814861415801,4,1,0,80,0,0
8655,-81.6817954965559,4,1,0,80,0,0
8743,-80.8576081349222,4,1,0,80,0,0
8832,-80.0499511695298,4,1,0,80,0,0
8920,-79.258269411539,4,1,0,80,0,0
9009,-78.4820319311995,4,1,0,80,0,0
9186,-76.9744129353961,4,1,0,80,0,0
9274,-76.2420593895146,4,1,0,80,0,0
9363,-75.5235671291226,4,1,0,80,0,0
9540,-74.1264018229165,4,1,0,80,0,0
9717,-72.7800448761757,4,1,0,80,0,0
9894,-71.4816720992738,4,1,0,80,0,0
10071,-74.0740740740741,4,1,0,80,0,0
10248,-68.9655172413793,4,1,0,80,0,0
10425,-71.4285714285714,4,1,0,80,0,0
10601,-66.6666666666667,4,1,0,80,0,0
10778,-68.9655172413793,4,1,0,80,0,0
10955,-64.5161290322581,4,1,0,80,0,0
11132,-66.6666666666667,4,1,0,80,0,0
11309,-68.9655172413793,4,1,0,80,0,0
11486,-100,4,1,0,60,0,0
12636,-111.111111111111,4,1,0,60,0,0
13914,-105.263157894737,4,1,0,60,0,0
15493,-125,4,1,0,60,0,0
17237,-117.647058823529,4,1,0,60,0,0
18304,-133.333333333333,4,1,0,60,0,0
19449,-125,4,1,0,60,0,0
21096,-142.857142857143,4,1,0,80,0,0
21749,-71.4285714285714,4,1,0,80,0,0
21808,-73.5115203579129,4,1,0,80,0,0
21867,-75.7196585649156,4,1,0,80,0,0
21926,-78.0645000124903,4,1,0,80,0,0
22015,-81.8673617751464,4,1,0,80,0,0
22103,-86.0597788435803,4,1,0,80,0,0
22192,-90.7046755539108,4,1,0,80,0,0
22280,-95.8795752534816,4,1,0,80,0,0
22398,-103.773624065519,4,1,0,80,0,0
22516,-113.084050851636,4,1,0,80,0,0
22634,-125,4,1,0,80,0,0
22988,-120.967693158188,4,1,0,80,0,0
23076,-120.000048000019,4,1,0,80,0,0
23165,-119.047619047619,4,1,0,80,0,0
23253,-118.110189720398,4,1,0,80,0,0
23342,-117.187545776385,4,1,0,80,0,0
23519,-115.384571005934,4,1,0,80,0,0
23607,-114.503860497657,4,1,0,80,0,0
23696,-113.636363636364,4,1,0,80,0,0
23873,-111.940340276246,4,1,0,80,0,0
23961,-111.111111111111,4,1,0,80,0,0
24050,-110.294077097766,4,1,0,80,0,0
24138,-109.489091054413,4,1,0,80,0,0
24227,-108.695652173913,4,1,0,80,0,0
24315,-107.913630246896,4,1,0,80,0,0
24404,-107.142895408177,4,1,0,80,0,0
24492,-106.382978723404,4,1,0,80,0,0
24580,-105.633765621914,4,1,0,80,0,0
24757,-104.166666666667,4,1,0,80,0,0
24934,-102.739761212247,4,1,0,80,0,0
25023,-102.040816326531,4,1,0,80,0,0
25111,-101.351317111042,4,1,0,80,0,0
25288,-100,4,1,0,80,0,0
25465,-83.3333333333333,4,1,0,80,0,0
25554,-84.2059171497981,4,1,0,80,0,0
25642,-85.0969679950303,4,1,0,80,0,0
25731,-86.0071523547898,4,1,0,80,0,0
25819,-86.936942027839,4,1,0,80,0,0
25908,-87.8870545884074,4,1,0,80,0,0
25996,-88.8581637105037,4,1,0,80,0,0
26085,-89.8510539079368,4,1,0,80,0,0
26173,-90.8663011418259,4,1,0,80,0,0
26261,-91.9047535895699,4,1,0,80,0,0
26350,-92.9672160409353,4,1,0,80,0,0
26438,-94.0546193985771,4,1,0,80,0,0
26527,-95.1676711614358,4,1,0,80,0,0
26615,-96.3073823460863,4,1,0,80,0,0
26704,-97.474722367622,4,1,0,80,0,0
26881,-100,4,1,0,80,0,0
26969,-98.7654320987654,4,1,0,80,0,0
27058,-97.5609756097561,4,1,0,80,0,0
27146,-96.3855421686747,4,1,0,80,0,0
27235,-95.2380952380952,4,1,0,80,0,0
27323,-94.1176470588235,4,1,0,80,0,0
27412,-93.0232558139535,4,1,0,80,0,0
27500,-91.9540229885058,4,1,0,80,0,0
27589,-90.9090909090909,4,1,0,80,0,0
27677,-89.8876404494382,4,1,0,80,0,0
27766,-88.8888888888889,4,1,0,80,0,0
27854,-87.9120879120879,4,1,0,80,0,0
27943,-86.9565217391304,4,1,0,80,0,0
28031,-86.0215053763441,4,1,0,80,0,0
28119,-85.1063829787234,4,1,0,80,0,0
28208,-84.2105263157895,4,1,0,80,0,0
28296,-83.3333333333333,4,1,0,80,0,0
28650,-100,4,1,0,80,0,0
28739,-99.2390350790141,4,1,0,80,0,0
28827,-98.4896610478315,4,1,0,80,0,0
28916,-97.751423993869,4,1,0,80,0,0
29004,-97.0241716318787,4,1,0,80,0,0
29181,-95.6017460702902,4,1,0,80,0,0
29270,-94.9060145737676,4,1,0,80,0,0
29358,-94.2203361404712,4,1,0,80,0,0
29535,-92.8783655636742,4,1,0,80,0,0
29624,-92.2215715478008,4,1,0,80,0,0
29712,-91.5740014084082,4,1,0,80,0,0
29800,-90.9354621931269,4,1,0,80,0,0
29889,-90.3058478454831,4,1,0,80,0,0
29977,-89.6848116977694,4,1,0,80,0,0
30066,-89.0722589793744,4,1,0,80,0,0
30154,-88.4680953084484,4,1,0,80,0,0
30243,-87.8719951072873,4,1,0,80,0,0
30420,-86.7035734877813,4,1,0,80,0,0
30597,-85.565890013605,4,1,0,80,0,0
30685,-85.0081352785461,4,1,0,80,0,0
30774,-84.4576048161105,4,1,0,80,0,0
30951,-83.3777319756104,4,1,0,80,0,0
31128,-71.4285714285714,4,1,0,80,0,0
31216,-72.1649633329821,4,1,0,80,0,0
31305,-72.9166438802155,4,1,0,80,0,0
31393,-73.6842027700839,4,1,0,80,0,0
31481,-74.4680930285205,4,1,0,80,0,0
31570,-75.2688414845725,4,1,0,80,0,0
31658,-76.0869399811,4,1,0,80,0,0
31747,-76.9230769230769,4,1,0,80,0,0
31835,-77.7777950617322,4,1,0,80,0,0
31924,-78.6516588814633,4,1,0,80,0,0
32012,-79.5454455061994,4,1,0,80,0,0
32101,-80.459779363193,4,1,0,80,0,0
32189,-81.3953772309455,4,1,0,80,0,0
32278,-82.3529217993125,4,1,0,80,0,0
32366,-83.3333333333333,4,1,0,80,0,0
32543,-71.4285714285714,4,1,0,80,0,0
32632,-73.384046601805,4,1,0,80,0,0
32720,-75.4495472649916,4,1,0,80,0,0
32809,-77.6347486924367,4,1,0,80,0,0
32897,-79.9503028917225,4,1,0,80,0,0
32986,-82.4081643416577,4,1,0,80,0,0
33074,-85.0220121989583,4,1,0,80,0,0
33133,-86.8587112773008,4,1,0,80,0,0
33192,-88.7764387331602,4,1,0,80,0,0
33251,-90.7808423372799,4,1,0,80,0,0
33339,-93.962972950879,4,1,0,80,0,0
33428,-97.3763879786902,4,1,0,80,0,0
33516,-101.047151632366,4,1,0,80,0,0
33605,-105.00539727742,4,1,0,80,0,0
33723,-110.792152813401,4,1,0,80,0,0
33841,-117.253913349358,4,1,0,80,0,0
33959,-125,4,1,0,80,0,0
34136,-121.827460640593,4,1,0,80,0,0
34224,-120.300751879699,4,1,0,80,0,0
34401,-117.359459113725,4,1,0,80,0,0
34490,-115.942028985507,4,1,0,80,0,0
34755,-111.888111888112,4,1,0,80,0,0
34844,-110.599037567175,4,1,0,80,0,0
35020,-108.108108108108,4,1,0,80,0,0
35197,-105.726909507281,4,1,0,80,0,0
35374,-103.448240190262,4,1,0,80,0,0
35551,-101.26582278481,4,1,0,80,0,0
35640,-100.208734794577,4,1,0,80,0,0
35905,-97.1659604320776,4,1,0,80,0,0
36171,-94.3025243842752,4,1,0,80,0,0
36259,-93.3852430771185,4,1,0,80,0,0
36436,-91.6030254647251,4,1,0,80,0,0
36554,-90.4522249438292,4,1,0,80,0,0
36672,-89.3300602799247,4,1,0,80,0,0
36790,-88.2353200692118,4,1,0,80,0,0
36967,-86.6425742548522,4,1,0,80,0,0
37055,-85.867645328843,4,1,0,80,0,0
37321,-83.6237166895378,4,1,0,80,0,0
37586,-81.4940798625684,4,1,0,80,0,0
37675,-80.8080808080808,4,1,0,80,0,0
37852,-79.4702197272105,4,1,0,80,0,0
38029,-78.1758753939087,4,1,0,80,0,0
38206,-76.9230769230769,4,1,0,80,0,0
38383,-75.7097982863844,4,1,0,80,0,0
38471,-75.1173708920188,4,1,0,80,0,0
38736,-73.394495412844,4,1,0,80,0,0
38913,-72.2891740455841,4,1,0,80,0,0
39002,-71.7488789237668,4,1,0,80,0,0
39090,-71.2166003046646,4,1,0,80,0,0
39267,-70.1754385964912,4,1,0,80,0,0
39385,-69.4980641314236,4,1,0,80,0,0
39503,-68.8336414786017,4,1,0,80,0,0
39621,-68.1818026859539,4,1,0,80,0,0
39710,-67.7010025841473,4,1,0,80,0,0
39798,-67.2268907563025,4,1,0,80,0,0
39887,-66.7593731828933,4,1,0,80,0,0
39975,-66.2983571930071,4,1,0,80,0,0
40064,-65.843621399177,4,1,0,80,0,0
40152,-65.3950811127889,4,1,0,80,0,0
40240,-64.9526527637679,4,1,0,80,0,0
40329,-64.5161290322581,4,1,0,80,0,0
40417,-64.0854335732051,4,1,0,80,0,0
40506,-63.6604909624384,4,1,0,80,0,0
40594,-63.2411067193676,4,1,0,80,0,0
40683,-62.8272119733588,4,1,0,80,0,0
40771,-62.418738604679,4,1,0,80,0,0
40860,-62.015503875969,4,1,0,80,0,0
40948,-61.6174456241447,4,1,0,80,0,0
41037,-61.2245022907148,4,1,0,80,0,0
41125,-60.8365019011407,4,1,0,80,0,0
41214,-60.4533883217354,4,1,0,80,0,0
41302,-60.0751058973929,4,1,0,80,0,0
41391,-59.7014925373134,4,1,0,80,0,0
41479,-59.332497536218,4,1,0,80,0,0
41568,-58.9680705588345,4,1,0,80,0,0
41656,-58.6080586080586,4,1,0,80,0,0
41745,-58.2524158733173,4,1,0,80,0,0
41833,-57.9010968204771,4,1,0,80,0,0
41922,-57.5539568345324,4,1,0,80,0,0
42010,-57.2109545247286,4,1,0,80,0,0
42098,-56.872048696123,4,1,0,80,0,0
42187,-56.5371024734982,4,1,0,80,0,0
42275,-56.2060784625614,4,1,0,80,0,0
42364,-55.8789393953787,4,1,0,80,0,0
42452,-55.5555555555556,4,1,0,80,0,0
43868,-62.5,4,1,0,80,0,0
44045,-66.6208759179524,4,1,0,80,0,0
44133,-68.8920640475741,4,1,0,80,0,0
44310,-73.9329442981804,4,1,0,80,0,0
44487,-79.7697525861354,4,1,0,80,0,0
44576,-83.0479252967302,4,1,0,80,0,0
45284,-55.5555555555556,4,1,0,80,0,0
45372,-57.6923187869844,4,1,0,80,0,0
45549,-62.5,4,1,0,80,0,0
45637,-65.2174054820447,4,1,0,80,0,0
45726,-68.1818026859539,4,1,0,80,0,0
45814,-71.4285714285714,4,1,0,80,0,0
45991,-50,4,1,0,80,0,0
46168,-55.5555555555556,4,1,0,80,0,0
46257,-58.7529912616676,4,1,0,80,0,0
46345,-62.3409526445656,4,1,0,80,0,0
46434,-66.3956837493908,4,1,0,80,0,0
46522,-71.0145061331678,4,1,0,80,0,0
46699,-40,4,1,0,80,0,0
46876,-55.5555555555556,4,1,0,80,0,0
46965,-58.7529912616676,4,1,0,80,0,0
47053,-62.3409526445656,4,1,0,80,0,0
47142,-66.3956837493908,4,1,0,80,0,0
47230,-71.0145061331678,4,1,0,80,0,0
47407,-33.3333333333333,4,1,0,80,0,0
47584,-55.5555555555556,4,1,0,80,0,0
47672,-58.7529912616676,4,1,0,80,0,0
47761,-62.3409526445656,4,1,0,80,0,0
47849,-66.3956837493908,4,1,0,80,0,0
47938,-71.0145061331678,4,1,0,80,0,0
47997,-68.3060109289618,4,1,0,80,0,0
48056,-65.4450261780105,4,1,0,80,0,0
48115,-62.8140703517588,4,1,0,80,0,0
48380,-71.4285714285714,4,1,0,80,0,0
48469,-74.8987930059507,4,1,0,80,0,0
48557,-78.7234210049832,4,1,0,80,0,0
48646,-82.9596691568394,4,1,0,80,0,0
48823,-50,4,1,0,80,0,0
48999,-55.5555555555556,4,1,0,80,0,0
49088,-58.7529912616676,4,1,0,80,0,0
49176,-62.3409526445656,4,1,0,80,0,0
49265,-66.3956837493908,4,1,0,80,0,0
49353,-71.0145061331678,4,1,0,80,0,0
49530,-83.3333333333333,4,1,0,80,0,0
49707,-77.0042275320915,4,1,0,80,0,0
49796,-74.1870031789131,4,1,0,80,0,0
49884,-71.5686414840473,4,1,0,80,0,0
49973,-69.1288042445086,4,1,0,80,0,0
50061,-66.8498352151562,4,1,0,80,0,0
50238,-71.4285714285714,4,1,0,80,0,0
50327,-68.9900205935212,4,1,0,80,0,0
50415,-66.7125204056922,4,1,0,80,0,0
50504,-64.5805429157082,4,1,0,80,0,0
50592,-62.5806508137362,4,1,0,80,0,0
50769,-58.9307487092693,4,1,0,80,0,0
50924,-55.5555555555556,4,1,0,80,0,0
51012,-57.6923187869844,4,1,0,80,0,0
51189,-62.5,4,1,0,80,0,0
51277,-65.2174054820447,4,1,0,80,0,0
51366,-68.1818026859539,4,1,0,80,0,0
51454,-71.4285714285714,4,1,0,80,0,0
51631,-50,4,1,0,80,0,0
51808,-55.5555555555556,4,1,0,80,0,0
51897,-58.7529912616676,4,1,0,80,0,0
51985,-62.3409526445656,4,1,0,80,0,0
52074,-66.3956837493908,4,1,0,80,0,0
52162,-71.0145061331678,4,1,0,80,0,0
52339,-40,4,1,0,80,0,0
52516,-55.5555555555556,4,1,0,80,0,0
52605,-58.7529912616676,4,1,0,80,0,0
52693,-62.3409526445656,4,1,0,80,0,0
52782,-66.3956837493908,4,1,0,80,0,0
52870,-71.0145061331678,4,1,0,80,0,0
53047,-33.3333333333333,4,1,0,80,0,0
53224,-55.5555555555556,4,1,0,80,0,0
53312,-58.7529912616676,4,1,0,80,0,0
53401,-62.3409526445656,4,1,0,80,0,0
53489,-66.3956837493908,4,1,0,80,0,0
53578,-71.0145061331678,4,1,0,80,0,0
53637,-68.3060109289618,4,1,0,80,0,0
53696,-65.4450261780105,4,1,0,80,0,0
53755,-62.8140703517588,4,1,0,80,0,0
54020,-71.4285714285714,4,1,0,80,0,0
54109,-74.8987930059507,4,1,0,80,0,0
54197,-78.7234210049832,4,1,0,80,0,0
54286,-82.9596691568394,4,1,0,80,0,0
54463,-50,4,1,0,80,0,0
54639,-55.5555555555556,4,1,0,80,0,0
54728,-58.7529912616676,4,1,0,80,0,0
54816,-62.3409526445656,4,1,0,80,0,0
54905,-66.3956837493908,4,1,0,80,0,0
54993,-71.0145061331678,4,1,0,80,0,0
55170,-83.3333333333333,4,1,0,80,0,0
55281,-80,4,1,0,80,0,0
55347,-77.0042275320915,4,1,0,80,0,0
55436,-74.1870031789131,4,1,0,80,0,0
55524,-71.5686414840473,4,1,0,80,0,0
55613,-69.1288042445086,4,1,0,80,0,0
55701,-66.8498352151562,4,1,0,80,0,0
55878,-71.4285714285714,4,1,0,80,0,0
55967,-68.9900205935212,4,1,0,80,0,0
56055,-66.7125204056922,4,1,0,80,0,0
56144,-64.5805429157082,4,1,0,80,0,0
56232,-62.5806508137362,4,1,0,80,0,0
56409,-58.9307487092693,4,1,0,80,0,0
56586,-55.5555555555556,4,1,0,80,0,0
56674,-57.6923187869844,4,1,0,80,0,0
56851,-62.5,4,1,0,80,0,0
56939,-65.2174054820447,4,1,0,80,0,0
57028,-68.1818026859539,4,1,0,80,0,0
57116,-71.4285714285714,4,1,0,80,0,0
57293,-50,4,1,0,80,0,0
57470,-55.5555555555556,4,1,0,80,0,0
57559,-58.7529912616676,4,1,0,80,0,0
57647,-62.3409526445656,4,1,0,80,0,0
57736,-66.3956837493908,4,1,0,80,0,0
57824,-71.0145061331678,4,1,0,80,0,0
58001,-40,4,1,0,80,0,0
58178,-55.5555555555556,4,1,0,80,0,0
58267,-58.7529912616676,4,1,0,80,0,0
58355,-62.3409526445656,4,1,0,80,0,0
58444,-66.3956837493908,4,1,0,80,0,0
58532,-71.0145061331678,4,1,0,80,0,0
58709,-33.3333333333333,4,1,0,80,0,0
58886,-55.5555555555556,4,1,0,80,0,0
58974,-58.7529912616676,4,1,0,80,0,0
59063,-62.3409526445656,4,1,0,80,0,0
59151,-66.3956837493908,4,1,0,80,0,0
59240,-71.4285714285714,4,1,0,80,0,0
59299,-68.3060109289618,4,1,0,80,0,0
59358,-65.4450261780105,4,1,0,80,0,0
59417,-62.8140703517588,4,1,0,80,0,0
59682,-71.4285714285714,4,1,0,80,0,0
59771,-74.8987930059507,4,1,0,80,0,0
59859,-78.7234210049832,4,1,0,80,0,0
59948,-82.9596691568394,4,1,0,80,0,0
60125,-50,4,1,0,80,0,0
60301,-55.5555555555556,4,1,0,80,0,0
60390,-58.7529912616676,4,1,0,80,0,0
60478,-62.3409526445656,4,1,0,80,0,0
60567,-66.3956837493908,4,1,0,80,0,0
60655,-71.0145061331678,4,1,0,80,0,0
60832,-83.3333333333333,4,1,0,80,0,0
60944,-80,4,1,0,80,0,0
61009,-77.0042275320915,4,1,0,80,0,0
61098,-74.1870031789131,4,1,0,80,0,0
61186,-71.5686414840473,4,1,0,80,0,0
61275,-69.1288042445086,4,1,0,80,0,0
61363,-66.8498352151562,4,1,0,80,0,0
61540,-71.4285714285714,4,1,0,80,0,0
61629,-68.9900205935212,4,1,0,80,0,0
61717,-66.7125204056922,4,1,0,80,0,0
61806,-64.5805429157082,4,1,0,80,0,0
61894,-62.5806508137362,4,1,0,80,0,0
62071,-58.9307487092693,4,1,0,80,0,0
62249,-55.5555555555556,4,1,0,80,0,0
62337,-57.6923187869844,4,1,0,80,0,0
62514,-62.5,4,1,0,80,0,0
62602,-65.2174054820447,4,1,0,80,0,0
62691,-68.1818026859539,4,1,0,80,0,0
62779,-71.4285714285714,4,1,0,80,0,0
62956,-50,4,1,0,80,0,0
63155,-58.8235294117647,4,1,0,80,0,0
63244,-55.6792873051225,4,1,0,80,0,0
63332,-52.8541226215645,4,1,0,80,0,0
63509,-62.5,4,1,0,80,0,0
63598,-58.9622641509434,4,1,0,80,0,0
63686,-55.8035714285714,4,1,0,80,0,0
63863,-66.6666666666667,4,1,0,80,0,0
63952,-62.65664160401,4,1,0,80,0,0
64040,-59.1016548463357,4,1,0,80,0,0
64217,-71.4285714285714,4,1,0,80,0,0
64306,-66.8449197860963,4,1,0,80,0,0
64394,-62.8140703517588,4,1,0,80,0,0
64571,-76.9230769230769,4,1,0,80,0,0
64660,-74.130083470474,4,1,0,80,0,0
64748,-71.5328561138059,4,1,0,80,0,0
64925,-66.8485839464463,4,1,0,80,0,0
65102,-55.5555555555556,4,1,0,80,0,0
65190,-57.6619132107479,4,1,0,80,0,0
65279,-59.9343239677961,4,1,0,80,0,0
65367,-62.3931517276664,4,1,0,80,0,0
65456,-65.062401349134,4,1,0,80,0,0
65544,-67.9701991458865,4,1,0,80,0,0
65633,-71.1501203504286,4,1,0,80,0,0
65788,-50,4,1,0,80,0,0
65964,-55.5555555555556,4,1,0,80,0,0
66053,-58.7529912616676,4,1,0,80,0,0
66141,-62.3409526445656,4,1,0,80,0,0
66230,-66.3956837493908,4,1,0,80,0,0
66318,-71.0145061331678,4,1,0,80,0,0
66495,-83.3333333333333,4,1,0,80,0,0
66672,-77.0042275320915,4,1,0,80,0,0
66761,-74.1870031789131,4,1,0,80,0,0
66849,-71.5686414840473,4,1,0,80,0,0
66938,-69.1288042445086,4,1,0,80,0,0
67026,-66.8498352151562,4,1,0,80,0,0
67137,-64.5161290322581,4,1,0,80,0,0
67225,-62.5,4,1,0,80,0,0
67756,-62.5,4,1,0,80,0,0
67933,-66.6208759179524,4,1,0,80,0,0
68022,-68.8920640475741,4,1,0,80,0,0
68198,-73.9329442981804,4,1,0,80,0,0
68287,-76.7404935795066,4,1,0,80,0,0
68464,-83.0479252967302,4,1,0,80,0,0
68643,-71.4285714285714,4,1,0,80,0,1
68729,-72.9166438802155,4,1,0,80,0,1
68818,-74.4680930285205,4,1,0,80,0,1
68906,-76.0869399811,4,1,0,80,0,1
68995,-77.7777950617322,4,1,0,80,0,1
69083,-79.5454455061994,4,1,0,80,0,1
69172,-81.3953772309455,4,1,0,80,0,1
69260,-83.3333333333333,4,1,0,80,0,1
69349,-71.4285714285714,4,1,0,80,0,1
69437,-72.9166438802155,4,1,0,80,0,1
69526,-74.4680930285205,4,1,0,80,0,1
69614,-76.0869399811,4,1,0,80,0,1
69703,-77.7777950617322,4,1,0,80,0,1
69791,-79.5454455061994,4,1,0,80,0,1
69880,-81.3953772309455,4,1,0,80,0,1
69968,-83.3333333333333,4,1,0,80,0,1
70056,-71.4285714285714,4,1,0,80,0,1
70144,-72.9166438802155,4,1,0,80,0,1
70233,-74.4680930285205,4,1,0,80,0,1
70321,-76.0869399811,4,1,0,80,0,1
70410,-77.7777950617322,4,1,0,80,0,1
70498,-79.5454455061994,4,1,0,80,0,1
70587,-81.3953772309455,4,1,0,80,0,1
70764,-90.9090909090909,4,1,0,80,0,1
70853,-88.2708361101867,4,1,0,80,0,1
71030,-83.4285809632664,4,1,0,80,0,1
71118,-81.2013248808168,4,1,0,80,0,1
71207,-79.0898967402308,4,1,0,80,0,1
71295,-77.0855495428827,4,1,0,80,0,1
71450,-71.4285714285714,4,1,0,80,0,1
71538,-72.9166438802155,4,1,0,80,0,1
71627,-74.4680930285205,4,1,0,80,0,1
71715,-76.0869399811,4,1,0,80,0,1
71804,-77.7777950617322,4,1,0,80,0,1
71892,-79.5454455061994,4,1,0,80,0,1
71981,-81.3953772309455,4,1,0,80,0,1
72069,-83.3333333333333,4,1,0,80,0,1
72158,-71.4285714285714,4,1,0,80,0,1
72246,-72.9166438802155,4,1,0,80,0,1
72335,-74.4680930285205,4,1,0,80,0,1
72423,-76.0869399811,4,1,0,80,0,1
72512,-77.7777950617322,4,1,0,80,0,1
72600,-79.5454455061994,4,1,0,80,0,1
72689,-81.3953772309455,4,1,0,80,0,1
72777,-83.3333333333333,4,1,0,80,0,1
72865,-71.4285714285714,4,1,0,80,0,1
72953,-72.9166438802155,4,1,0,80,0,1
73042,-74.4680930285205,4,1,0,80,0,1
73130,-76.0869399811,4,1,0,80,0,1
73219,-77.7777950617322,4,1,0,80,0,1
73307,-79.5454455061994,4,1,0,80,0,1
73396,-81.3953772309455,4,1,0,80,0,1
73573,-90.9090909090909,4,1,0,80,0,1
73662,-88.2708361101867,4,1,0,80,0,1
73839,-83.4285809632664,4,1,0,80,0,1
73927,-81.2013248808168,4,1,0,80,0,1
74016,-79.0898967402308,4,1,0,80,0,1
74104,-77.0855495428827,4,1,0,80,0,1
74281,-71.4285714285714,4,1,0,80,0,1
74369,-72.9166438802155,4,1,0,80,0,1
74458,-74.4680930285205,4,1,0,80,0,1
74546,-76.0869399811,4,1,0,80,0,1
74635,-77.7777950617322,4,1,0,80,0,1
74723,-79.5454455061994,4,1,0,80,0,1
74812,-81.3953772309455,4,1,0,80,0,1
74900,-83.3333333333333,4,1,0,80,0,1
74989,-71.4285714285714,4,1,0,80,0,1
75077,-72.9166438802155,4,1,0,80,0,1
75166,-74.4680930285205,4,1,0,80,0,1
75254,-76.0869399811,4,1,0,80,0,1
75343,-77.7777950617322,4,1,0,80,0,1
75431,-79.5454455061994,4,1,0,80,0,1
75520,-81.3953772309455,4,1,0,80,0,1
75608,-83.3333333333333,4,1,0,80,0,1
75696,-71.4285714285714,4,1,0,80,0,1
75784,-72.9166438802155,4,1,0,80,0,1
75873,-74.4680930285205,4,1,0,80,0,1
75961,-76.0869399811,4,1,0,80,0,1
76050,-77.7777950617322,4,1,0,80,0,1
76138,-79.5454455061994,4,1,0,80,0,1
76227,-81.3953772309455,4,1,0,80,0,1
76404,-90.9090909090909,4,1,0,80,0,1
76493,-88.2708361101867,4,1,0,80,0,1
76670,-83.4285809632664,4,1,0,80,0,1
76758,-81.2013248808168,4,1,0,80,0,1
76847,-79.0898967402308,4,1,0,80,0,1
76935,-77.0855495428827,4,1,0,80,0,1
77134,-71.4285714285714,4,1,0,80,0,1
77223,-72.8987836837942,4,1,0,80,0,1
77311,-74.4308459288932,4,1,0,80,0,1
77400,-76.0286293406645,4,1,0,80,0,1
77488,-77.6965158551395,4,1,0,80,0,1
77577,-79.4392226395429,4,1,0,80,0,1
77665,-81.2619658244677,4,1,0,80,0,1
77754,-83.1702503341365,4,1,0,80,0,1
77844,-71.4285714285714,4,1,0,80,0,0
77931,-72.7203973442511,4,1,0,80,0,0
78019,-74.0598655517201,4,1,0,80,0,0
78108,-75.4495472649916,4,1,0,80,0,0
78373,-79.9503028917225,4,1,0,80,0,0
78639,-85.0220121989583,4,1,0,80,0,0
78727,-86.8587112773008,4,1,0,80,0,0
78904,-90.7808423372799,4,1,0,80,0,0
79081,-95.0739342449656,4,1,0,80,0,0
79258,-99.7931288439066,4,1,0,80,0,0
79700,-105.263157894737,4,1,0,60,0,0
80143,-111.111111111111,4,1,0,60,0,0
80658,-117.647058823529,4,1,0,60,0,0
81255,-111.111111111111,4,1,0,60,0,0
82001,-125,4,1,0,60,0,0
84035,-111.111111111111,4,1,0,60,0,0
85402,-117.647058823529,4,1,0,60,0,0
85839,-125,4,1,0,60,0,0
86246,-133.333333333333,4,1,0,60,0,0
86903,-125,4,1,0,60,0,0
87740,-142.857142857143,4,1,0,60,0,0
89066,-125,4,1,0,60,0,0
89786,-111.111111111111,4,1,0,60,0,0
89875,-109.768399653571,4,1,0,60,0,0
89963,-108.457752451687,4,1,0,60,0,0
90052,-107.177919633709,4,1,0,60,0,0
90140,-105.928051548827,4,1,0,60,0,0
90229,-104.706998406359,4,1,0,60,0,0
90406,-102.347440904588,4,1,0,60,0,0
90583,-100.09178416608,4,1,0,80,0,0
90936,-120.967693158188,4,1,0,80,0,0
91024,-120.000048000019,4,1,0,80,0,0
91113,-119.047619047619,4,1,0,80,0,0
91201,-118.110189720398,4,1,0,80,0,0
91290,-117.187545776385,4,1,0,80,0,0
91467,-115.384571005934,4,1,0,80,0,0
91555,-114.503860497657,4,1,0,80,0,0
91644,-113.636363636364,4,1,0,80,0,0
91821,-111.940340276246,4,1,0,80,0,0
91909,-111.111111111111,4,1,0,80,0,0
91998,-110.294077097766,4,1,0,80,0,0
92086,-109.489091054413,4,1,0,80,0,0
92175,-108.695652173913,4,1,0,80,0,0
92263,-107.913630246896,4,1,0,80,0,0
92352,-107.142895408177,4,1,0,80,0,0
92440,-106.382978723404,4,1,0,80,0,0
92528,-105.633765621914,4,1,0,80,0,0
92705,-104.166666666667,4,1,0,80,0,0
92882,-102.739761212247,4,1,0,80,0,0
92971,-102.040816326531,4,1,0,80,0,0
93059,-101.351317111042,4,1,0,80,0,0
93236,-100,4,1,0,80,0,0
93413,-83.3333333333333,4,1,0,80,0,0
93502,-84.2059171497981,4,1,0,80,0,0
93590,-85.0969679950303,4,1,0,80,0,0
93679,-86.0071523547898,4,1,0,80,0,0
93767,-86.936942027839,4,1,0,80,0,0
93856,-87.8870545884074,4,1,0,80,0,0
93944,-88.8581637105037,4,1,0,80,0,0
94033,-89.8510539079368,4,1,0,80,0,0
94121,-90.8663011418259,4,1,0,80,0,0
94209,-91.9047535895699,4,1,0,80,0,0
94298,-92.9672160409353,4,1,0,80,0,0
94386,-94.0546193985771,4,1,0,80,0,0
94475,-95.1676711614358,4,1,0,80,0,0
94563,-96.3073823460863,4,1,0,80,0,0
94652,-97.474722367622,4,1,0,80,0,0
94829,-100,4,1,0,80,0,0
94917,-98.7654320987654,4,1,0,80,0,0
95006,-97.5609756097561,4,1,0,80,0,0
95094,-96.3855421686747,4,1,0,80,0,0
95183,-95.2380952380952,4,1,0,80,0,0
95271,-94.1176470588235,4,1,0,80,0,0
95360,-93.0232558139535,4,1,0,80,0,0
95448,-91.9540229885058,4,1,0,80,0,0
95537,-90.9090909090909,4,1,0,80,0,0
95625,-89.8876404494382,4,1,0,80,0,0
95714,-88.8888888888889,4,1,0,80,0,0
95802,-87.9120879120879,4,1,0,80,0,0
95891,-86.9565217391304,4,1,0,80,0,0
95979,-86.0215053763441,4,1,0,80,0,0
96067,-85.1063829787234,4,1,0,80,0,0
96156,-84.2105263157895,4,1,0,80,0,0
96244,-83.3333333333333,4,1,0,80,0,0
96598,-100,4,1,0,80,0,0
96687,-99.2390350790141,4,1,0,80,0,0
96775,-98.4896610478315,4,1,0,80,0,0
96864,-97.751423993869,4,1,0,80,0,0
96952,-97.0241716318787,4,1,0,80,0,0
97129,-95.6017460702902,4,1,0,80,0,0
97218,-94.9060145737676,4,1,0,80,0,0
97306,-94.2203361404712,4,1,0,80,0,0
97483,-92.8783655636742,4,1,0,80,0,0
97572,-92.2215715478008,4,1,0,80,0,0
97660,-91.5740014084082,4,1,0,80,0,0
97748,-90.9354621931269,4,1,0,80,0,0
97837,-90.3058478454831,4,1,0,80,0,0
97925,-89.6848116977694,4,1,0,80,0,0
98014,-89.0722589793744,4,1,0,80,0,0
98102,-88.4680953084484,4,1,0,80,0,0
98191,-87.8719951072873,4,1,0,80,0,0
98368,-86.7035734877813,4,1,0,80,0,0
98545,-85.565890013605,4,1,0,80,0,0
98633,-85.0081352785461,4,1,0,80,0,0
98722,-84.4576048161105,4,1,0,80,0,0
98899,-83.3777319756104,4,1,0,80,0,0
99076,-71.4285714285714,4,1,0,80,0,0
99164,-72.1649633329821,4,1,0,80,0,0
99253,-72.9166438802155,4,1,0,80,0,0
99341,-73.6842027700839,4,1,0,80,0,0
99429,-74.4680930285205,4,1,0,80,0,0
99518,-75.2688414845725,4,1,0,80,0,0
99606,-76.0869399811,4,1,0,80,0,0
99695,-76.9230769230769,4,1,0,80,0,0
99783,-77.7777950617322,4,1,0,80,0,0
99872,-78.6516588814633,4,1,0,80,0,0
99960,-79.5454455061994,4,1,0,80,0,0
100049,-80.459779363193,4,1,0,80,0,0
100137,-81.3953772309455,4,1,0,80,0,0
100226,-82.3529217993125,4,1,0,80,0,0
100314,-83.3333333333333,4,1,0,80,0,0
100491,-71.4285714285714,4,1,0,80,0,0
100580,-73.384046601805,4,1,0,80,0,0
100668,-75.4495472649916,4,1,0,80,0,0
100757,-77.6347486924367,4,1,0,80,0,0
100845,-79.9503028917225,4,1,0,80,0,0
100934,-82.4081643416577,4,1,0,80,0,0
101022,-85.0220121989583,4,1,0,80,0,0
101081,-86.8587112773008,4,1,0,80,0,0
101140,-88.7764387331602,4,1,0,80,0,0
101199,-90.7808423372799,4,1,0,80,0,0
101287,-93.962972950879,4,1,0,80,0,0
101376,-97.3763879786902,4,1,0,80,0,0
101464,-101.047151632366,4,1,0,80,0,0
101553,-105.00539727742,4,1,0,80,0,0
101671,-110.792152813401,4,1,0,80,0,0
101789,-117.253913349358,4,1,0,80,0,0
101907,-124.51609930906,4,1,0,80,0,0
102084,-121.827460640593,4,1,0,80,0,0
102172,-120.300751879699,4,1,0,80,0,0
102349,-117.359459113725,4,1,0,80,0,0
102438,-115.942028985507,4,1,0,80,0,0
102703,-111.888111888112,4,1,0,80,0,0
102792,-110.599037567175,4,1,0,80,0,0
102968,-108.108108108108,4,1,0,80,0,0
103145,-105.726909507281,4,1,0,80,0,0
103322,-103.448240190262,4,1,0,80,0,0
103499,-101.26582278481,4,1,0,80,0,0
103588,-100.208734794577,4,1,0,80,0,0
103853,-97.1659604320776,4,1,0,80,0,0
104119,-94.3025243842752,4,1,0,80,0,0
104207,-93.3852430771185,4,1,0,80,0,0
104384,-91.6030254647251,4,1,0,80,0,0
104502,-90.4522249438292,4,1,0,80,0,0
104620,-89.3300602799247,4,1,0,80,0,0
104738,-88.2353200692118,4,1,0,80,0,0
104915,-86.6425742548522,4,1,0,80,0,0
105003,-85.867645328843,4,1,0,80,0,0
105269,-83.6237166895378,4,1,0,80,0,0
105534,-81.4940798625684,4,1,0,80,0,0
105623,-80.8080808080808,4,1,0,80,0,0
105800,-79.4702197272105,4,1,0,80,0,0
105977,-78.1758753939087,4,1,0,80,0,0
106154,-76.9230769230769,4,1,0,80,0,0
106331,-75.7097982863844,4,1,0,80,0,0
106419,-75.1173708920188,4,1,0,80,0,0
106684,-73.394495412844,4,1,0,80,0,0
106861,-72.2891740455841,4,1,0,80,0,0
106950,-71.7488789237668,4,1,0,80,0,0
107038,-71.2166003046646,4,1,0,80,0,0
107215,-70.1754385964912,4,1,0,80,0,0
107333,-69.4980641314236,4,1,0,80,0,0
107451,-68.8336414786017,4,1,0,80,0,0
107569,-68.1818026859539,4,1,0,80,0,0
107658,-67.7010025841473,4,1,0,80,0,0
107746,-67.2268907563025,4,1,0,80,0,0
107835,-66.7593731828933,4,1,0,80,0,0
107923,-66.2983571930071,4,1,0,80,0,0
108012,-65.843621399177,4,1,0,80,0,0
108100,-65.3950811127889,4,1,0,80,0,0
108188,-64.9526527637679,4,1,0,80,0,0
108277,-64.5161290322581,4,1,0,80,0,0
108365,-64.0854335732051,4,1,0,80,0,0
108454,-63.6604909624384,4,1,0,80,0,0
108542,-63.2411067193676,4,1,0,80,0,0
108631,-62.8272119733588,4,1,0,80,0,0
108719,-62.418738604679,4,1,0,80,0,0
108808,-62.015503875969,4,1,0,80,0,0
108896,-61.6174456241447,4,1,0,80,0,0
108985,-61.2245022907148,4,1,0,80,0,0
109073,-60.8365019011407,4,1,0,80,0,0
109162,-60.4533883217354,4,1,0,80,0,0
109250,-60.0751058973929,4,1,0,80,0,0
109339,-59.7014925373134,4,1,0,80,0,0
109427,-59.332497536218,4,1,0,80,0,0
109516,-58.9680705588345,4,1,0,80,0,0
109604,-58.6080586080586,4,1,0,80,0,0
109693,-58.2524158733173,4,1,0,80,0,0
109781,-57.9010968204771,4,1,0,80,0,0
109870,-57.5539568345324,4,1,0,80,0,0
109958,-57.2109545247286,4,1,0,80,0,0
110046,-56.872048696123,4,1,0,80,0,0
110135,-56.5371024734982,4,1,0,80,0,0
110223,-56.2060784625614,4,1,0,80,0,0
110312,-55.8789393953787,4,1,0,80,0,0
110400,-55.5555555555556,4,1,0,80,0,0
111819,-62.5,4,1,0,80,0,0
111995,-66.6666666666667,4,1,0,80,0,0
112084,-68.9655172413793,4,1,0,80,0,0
112261,-74.0740740740741,4,1,0,80,0,0
112438,-80,4,1,0,80,0,0
112526,-83.3333333333333,4,1,0,80,0,0
113234,-71.4285714285714,4,1,0,80,0,0
113323,-74.0740740740741,4,1,0,80,0,0
113500,-55.5555555555556,4,1,0,80,0,0
113544,-56.8181818181818,4,1,0,80,0,0
113588,-58.1395348837209,4,1,0,80,0,0
113676,-60.9756097560976,4,1,0,80,0,0
113765,-64.1025641025641,4,1,0,80,0,0
113853,-67.5675675675676,4,1,0,80,0,0
113942,-50,4,1,0,80,0,0
114119,-55.5555555555556,4,1,0,80,0,0
114207,-58.7529912616676,4,1,0,80,0,0
114296,-62.3409526445656,4,1,0,80,0,0
114384,-66.3956837493908,4,1,0,80,0,0
114473,-71.0145061331678,4,1,0,80,0,0
114650,-50,4,1,0,80,0,0
114915,-58.8235294117647,4,1,0,80,0,0
115004,-60.5809103493398,4,1,0,80,0,0
115092,-62.4465301585517,4,1,0,80,0,0
115181,-64.4307063860495,4,1,0,80,0,0
115269,-66.5451109306999,4,1,0,80,0,0
115358,-68.8029998107917,4,1,0,80,0,0
115446,-71.2194913503928,4,1,0,80,0,0
115623,-76.9230769230769,4,1,0,80,0,0
115711,-73.5294117647059,4,1,0,80,0,0
115800,-70.4225352112676,4,1,0,80,0,0
115859,-68.4931506849315,4,1,0,80,0,0
115918,-66.6666666666667,4,1,0,80,0,0
115977,-64.9350649350649,4,1,0,80,0,0
116065,-62.5,4,1,0,80,0,0
116331,-58.8235294117647,4,1,0,80,0,0
116419,-62.5,4,1,0,80,0,0
116508,-66.6666666666667,4,1,0,80,0,0
116596,-71.4285714285714,4,1,0,80,0,0
116773,-50,4,1,0,80,0,0
117039,-58.8235294117647,4,1,0,80,0,0
117127,-62.5,4,1,0,80,0,0
117215,-66.6666666666667,4,1,0,80,0,0
117304,-71.4285714285714,4,1,0,80,0,0
117481,-62.5,4,1,0,80,0,0
117569,-64.2201775944791,4,1,0,80,0,0
117658,-66.0377233891088,4,1,0,80,0,0
117746,-67.9611452540354,4,1,0,80,0,0
117835,-70.0000210000063,4,1,0,80,0,0
117923,-72.1649633329821,4,1,0,80,0,0
118012,-74.4680930285205,4,1,0,80,0,0
118100,-76.9230769230769,4,1,0,80,0,0
118189,-62.5,4,1,0,80,0,0
118277,-63.8112005247833,4,1,0,80,0,0
118366,-65.178553388079,4,1,0,80,0,0
118454,-66.6058333388838,4,1,0,80,0,0
118543,-68.0970219129407,4,1,0,80,0,0
118631,-69.6565098187816,4,1,0,80,0,0
118720,-71.2890485763577,4,1,0,80,0,0
118896,-83.1434890333738,4,1,0,80,0,0
118985,-84.7457627118644,4,1,0,80,0,0
119073,-86.2068965517241,4,1,0,80,0,0
119162,-87.719298245614,4,1,0,80,0,0
119250,-71.4285714285714,4,1,0,80,0,0
119339,-74.0740740740741,4,1,0,80,0,0
119427,-76.9230769230769,4,1,0,80,0,0
119516,-80,4,1,0,80,0,0
119604,-50,4,1,0,80,0,0
119870,-58.8235294117647,4,1,0,80,0,0
119958,-62.5,4,1,0,80,0,0
120047,-66.6666666666667,4,1,0,80,0,0
120135,-71.4285714285714,4,1,0,80,0,0
120312,-50,4,1,0,80,0,0
120578,-58.8235294117647,4,1,0,80,0,0
120666,-62.5,4,1,0,80,0,0
120754,-66.6666666666667,4,1,0,80,0,0
120843,-71.4285714285714,4,1,0,80,0,0
121020,-83.3333333333333,4,1,0,80,0,0
121108,-80.0329735851171,4,1,0,80,0,0
121285,-74.1589998620643,4,1,0,80,0,0
121374,-71.5339306893439,4,1,0,80,0,0
121462,-69.0883038337791,4,1,0,80,0,0
121521,-67.5487634523362,4,1,0,80,0,0
121580,-66.0762969785953,4,1,0,80,0,0
121639,-64.6666563200017,4,1,0,80,0,0
121728,-62.6615100421336,4,1,0,80,0,0
121993,-58.8235294117647,4,1,0,80,0,0
122082,-62.3945921359104,4,1,0,80,0,0
122170,-66.4273069373358,4,1,0,80,0,0
122259,-71.0172799245512,4,1,0,80,0,0
122435,-50,4,1,0,80,0,0
122701,-58.8235294117647,4,1,0,80,0,0
122789,-62.5,4,1,0,80,0,0
122878,-66.6666666666667,4,1,0,80,0,0
122966,-71.4285714285714,4,1,0,80,0,0
123143,-62.5,4,1,0,80,0,0
123232,-64.1993981948413,4,1,0,80,0,0
123320,-65.9937939436175,4,1,0,80,0,0
123409,-67.8913819358684,4,1,0,80,0,0
123497,-69.9013272864025,4,1,0,80,0,0
123586,-72.0339135665071,4,1,0,80,0,0
123674,-74.3007187851535,4,1,0,80,0,0
123763,-76.7148256770659,4,1,0,80,0,0
123851,-62.5,4,1,0,80,0,0
123940,-64.4876296604404,4,1,0,80,0,0
124028,-66.6058333388838,4,1,0,80,0,0
124116,-68.8679147828422,4,1,0,80,0,0
124205,-71.2890485763577,4,1,0,80,0,0
124382,-76.6806481048378,4,1,0,80,0,0
124535,-55.5555555555556,4,1,0,80,0,0
124623,-57.6923187869844,4,1,0,80,0,0
124734,-60.0600600600601,4,1,0,80,0,0
124800,-62.5,4,1,0,80,0,0
124844,-63.8977635782748,4,1,0,80,0,0
124888,-65.2174054820447,4,1,0,80,0,0
124977,-68.1818026859539,4,1,0,80,0,0
125065,-71.4285714285714,4,1,0,80,0,0
125242,-50,4,1,0,80,0,0
125419,-55.5555555555556,4,1,0,80,0,0
125508,-58.7529912616676,4,1,0,80,0,0
125596,-62.3409526445656,4,1,0,80,0,0
125685,-66.3956837493908,4,1,0,80,0,0
125773,-71.0145061331678,4,1,0,80,0,0
125950,-40,4,1,0,80,0,0
126127,-55.5555555555556,4,1,0,80,0,0
126216,-58.7529912616676,4,1,0,80,0,0
126304,-62.3409526445656,4,1,0,80,0,0
126393,-66.3956837493908,4,1,0,80,0,0
126481,-71.0145061331678,4,1,0,80,0,0
126658,-33.3333333333333,4,1,0,80,0,0
126835,-55.5555555555556,4,1,0,80,0,0
126923,-58.7529912616676,4,1,0,80,0,0
127012,-62.3409526445656,4,1,0,80,0,0
127100,-66.3956837493908,4,1,0,80,0,0
127189,-71.0145061331678,4,1,0,80,0,0
127248,-68.3060109289618,4,1,0,80,0,0
127307,-65.4450261780105,4,1,0,80,0,0
127366,-62.8140703517588,4,1,0,80,0,0
127631,-71.4285714285714,4,1,0,80,0,0
127720,-74.8987930059507,4,1,0,80,0,0
127808,-78.7234210049832,4,1,0,80,0,0
127897,-82.9596691568394,4,1,0,80,0,0
128074,-50,4,1,0,80,0,0
128250,-55.5555555555556,4,1,0,80,0,0
128339,-58.7529912616676,4,1,0,80,0,0
128427,-62.3409526445656,4,1,0,80,0,0
128516,-66.3956837493908,4,1,0,80,0,0
128604,-71.0145061331678,4,1,0,80,0,0
128781,-83.3333333333333,4,1,0,80,0,0
128893,-80,4,1,0,80,0,0
128958,-77.0042275320915,4,1,0,80,0,0
129047,-74.1870031789131,4,1,0,80,0,0
129135,-71.5686414840473,4,1,0,80,0,0
129224,-69.1288042445086,4,1,0,80,0,0
129312,-66.8498352151562,4,1,0,80,0,0
129489,-71.4285714285714,4,1,0,80,0,0
129578,-68.9900205935212,4,1,0,80,0,0
129666,-66.7125204056922,4,1,0,80,0,0
129755,-64.5805429157082,4,1,0,80,0,0
129843,-62.5806508137362,4,1,0,80,0,0
130020,-58.9307487092693,4,1,0,80,0,0
130198,-55.5555555555556,4,1,0,80,0,0
130286,-57.6923187869844,4,1,0,80,0,0
130463,-62.5,4,1,0,80,0,0
130551,-65.2174054820447,4,1,0,80,0,0
130640,-68.1818026859539,4,1,0,80,0,0
130728,-71.4285714285714,4,1,0,80,0,0
130905,-50,4,1,0,80,0,0
131104,-58.8235294117647,4,1,0,80,0,0
131193,-55.6792873051225,4,1,0,80,0,0
131281,-52.8541226215645,4,1,0,80,0,0
131458,-62.5,4,1,0,80,0,0
131547,-58.9622641509434,4,1,0,80,0,0
131635,-55.8035714285714,4,1,0,80,0,0
131812,-66.6666666666667,4,1,0,80,0,0
131901,-62.65664160401,4,1,0,80,0,0
131989,-59.1016548463357,4,1,0,80,0,0
132166,-71.4285714285714,4,1,0,80,0,0
132255,-66.8449197860963,4,1,0,80,0,0
132343,-62.8140703517588,4,1,0,80,0,0
132520,-76.9230769230769,4,1,0,80,0,0
132609,-74.130083470474,4,1,0,80,0,0
132697,-71.5328561138059,4,1,0,80,0,0
132874,-66.8485839464463,4,1,0,80,0,0
133051,-55.5555555555556,4,1,0,80,0,0
133139,-57.6619132107479,4,1,0,80,0,0
133228,-59.9343239677961,4,1,0,80,0,0
133316,-62.3931517276664,4,1,0,80,0,0
133405,-65.062401349134,4,1,0,80,0,0
133493,-67.9701991458865,4,1,0,80,0,0
133582,-71.1501203504286,4,1,0,80,0,0
133737,-50,4,1,0,80,0,0
133913,-55.5555555555556,4,1,0,80,0,0
134002,-58.7529912616676,4,1,0,80,0,0
134090,-62.3409526445656,4,1,0,80,0,0
134179,-66.3956837493908,4,1,0,80,0,0
134267,-71.0145061331678,4,1,0,80,0,0
134444,-83.3333333333333,4,1,0,80,0,0
134621,-77.0042275320915,4,1,0,80,0,0
134710,-74.1870031789131,4,1,0,80,0,0
134798,-71.5686414840473,4,1,0,80,0,0
134887,-69.1288042445086,4,1,0,80,0,0
134975,-66.8498352151562,4,1,0,80,0,0
135086,-64.5161290322581,4,1,0,80,0,0
135174,-62.5,4,1,0,80,0,0
135705,-62.5,4,1,0,80,0,0
135882,-66.6208759179524,4,1,0,80,0,0
135971,-68.8920640475741,4,1,0,80,0,0
136147,-73.9329442981804,4,1,0,80,0,0
136236,-76.7404935795066,4,1,0,80,0,0
136413,-83.0479252967302,4,1,0,80,0,0
136591,-71.4285714285714,4,1,0,80,0,1
136678,-72.9166438802155,4,1,0,80,0,1
136767,-74.4680930285205,4,1,0,80,0,1
136855,-76.0869399811,4,1,0,80,0,1
136944,-77.7777950617322,4,1,0,80,0,1
137032,-79.5454455061994,4,1,0,80,0,1
137121,-81.3953772309455,4,1,0,80,0,1
137209,-83.3333333333333,4,1,0,80,0,1
137298,-71.4285714285714,4,1,0,80,0,1
137386,-72.9166438802155,4,1,0,80,0,1
137475,-74.4680930285205,4,1,0,80,0,1
137563,-76.0869399811,4,1,0,80,0,1
137652,-77.7777950617322,4,1,0,80,0,1
137740,-79.5454455061994,4,1,0,80,0,1
137829,-81.3953772309455,4,1,0,80,0,1
137917,-83.3333333333333,4,1,0,80,0,1
138005,-71.4285714285714,4,1,0,80,0,1
138093,-72.9166438802155,4,1,0,80,0,1
138182,-74.4680930285205,4,1,0,80,0,1
138270,-76.0869399811,4,1,0,80,0,1
138359,-77.7777950617322,4,1,0,80,0,1
138447,-79.5454455061994,4,1,0,80,0,1
138536,-81.3953772309455,4,1,0,80,0,1
138713,-90.9090909090909,4,1,0,80,0,1
138802,-88.2708361101867,4,1,0,80,0,1
138979,-83.4285809632664,4,1,0,80,0,1
139067,-81.2013248808168,4,1,0,80,0,1
139156,-79.0898967402308,4,1,0,80,0,1
139244,-77.0855495428827,4,1,0,80,0,1
139399,-71.4285714285714,4,1,0,80,0,1
139487,-72.9166438802155,4,1,0,80,0,1
139576,-74.4680930285205,4,1,0,80,0,1
139664,-76.0869399811,4,1,0,80,0,1
139753,-77.7777950617322,4,1,0,80,0,1
139841,-79.5454455061994,4,1,0,80,0,1
139930,-81.3953772309455,4,1,0,80,0,1
140018,-83.3333333333333,4,1,0,80,0,1
140107,-71.4285714285714,4,1,0,80,0,1
140195,-72.9166438802155,4,1,0,80,0,1
140284,-74.4680930285205,4,1,0,80,0,1
140372,-76.0869399811,4,1,0,80,0,1
140461,-77.7777950617322,4,1,0,80,0,1
140549,-79.5454455061994,4,1,0,80,0,1
140638,-81.3953772309455,4,1,0,80,0,1
140726,-83.3333333333333,4,1,0,80,0,1
140814,-71.4285714285714,4,1,0,80,0,1
140902,-72.9166438802155,4,1,0,80,0,1
140991,-74.4680930285205,4,1,0,80,0,1
141079,-76.0869399811,4,1,0,80,0,1
141168,-77.7777950617322,4,1,0,80,0,1
141256,-79.5454455061994,4,1,0,80,0,1
141345,-81.3953772309455,4,1,0,80,0,1
141522,-90.9090909090909,4,1,0,80,0,1
141611,-88.2708361101867,4,1,0,80,0,1
141788,-83.4285809632664,4,1,0,80,0,1
141876,-81.2013248808168,4,1,0,80,0,1
141965,-79.0898967402308,4,1,0,80,0,1
142053,-77.0855495428827,4,1,0,80,0,1
142230,-71.4285714285714,4,1,0,80,0,1
142318,-72.9166438802155,4,1,0,80,0,1
142407,-74.4680930285205,4,1,0,80,0,1
142495,-76.0869399811,4,1,0,80,0,1
142584,-77.7777950617322,4,1,0,80,0,1
142672,-79.5454455061994,4,1,0,80,0,1
142761,-81.3953772309455,4,1,0,80,0,1
142849,-83.3333333333333,4,1,0,80,0,1
142938,-71.4285714285714,4,1,0,80,0,1
143026,-72.9166438802155,4,1,0,80,0,1
143115,-74.4680930285205,4,1,0,80,0,1
143203,-76.0869399811,4,1,0,80,0,1
143292,-77.7777950617322,4,1,0,80,0,1
143380,-79.5454455061994,4,1,0,80,0,1
143469,-81.3953772309455,4,1,0,80,0,1
143557,-83.3333333333333,4,1,0,80,0,1
143645,-71.4285714285714,4,1,0,80,0,1
143733,-72.9166438802155,4,1,0,80,0,1
143822,-74.4680930285205,4,1,0,80,0,1
143910,-76.0869399811,4,1,0,80,0,1
143999,-77.7777950617322,4,1,0,80,0,1
144087,-79.5454455061994,4,1,0,80,0,1
144176,-81.3953772309455,4,1,0,80,0,1
144353,-90.9090909090909,4,1,0,80,0,1
144442,-88.2708361101867,4,1,0,80,0,1
144619,-83.4285809632664,4,1,0,80,0,1
144707,-81.2013248808168,4,1,0,80,0,1
144796,-79.0898967402308,4,1,0,80,0,1
144884,-77.0855495428827,4,1,0,80,0,1
145083,-71.4285714285714,4,1,0,80,0,1
145172,-72.8987836837942,4,1,0,80,0,1
145260,-74.4308459288932,4,1,0,80,0,1
145349,-76.0286293406645,4,1,0,80,0,1
145437,-77.6965158551395,4,1,0,80,0,1
145526,-79.4392226395429,4,1,0,80,0,1
145614,-81.2619658244677,4,1,0,80,0,1
145703,-83.1702503341365,4,1,0,80,0,1
145793,-71.4285714285714,4,1,0,80,0,0
145880,-72.7203973442511,4,1,0,80,0,0
145968,-74.0598655517201,4,1,0,80,0,0
146057,-75.4495472649916,4,1,0,80,0,0
146322,-79.9503028917225,4,1,0,80,0,0
146588,-85.0220121989583,4,1,0,80,0,0
146676,-86.8587112773008,4,1,0,80,0,0
146853,-90.7808423372799,4,1,0,80,0,0
147030,-95.0739342449656,4,1,0,80,0,0
147207,-99.7931288439066,4,1,0,80,0,0
147629,-105.263157894737,4,1,0,60,0,0
148072,-111.111111111111,4,1,0,60,0,0
148587,-117.647058823529,4,1,0,60,0,0
149184,-111.111111111111,4,1,0,60,0,0
149930,-125,4,1,0,60,0,0
151964,-111.111111111111,4,1,0,60,0,0
153331,-117.647058823529,4,1,0,60,0,0
153768,-125,4,1,0,60,0,0
154175,-133.333333333333,4,1,0,60,0,0
154832,-125,4,1,0,60,0,0
155669,-142.857142857143,4,1,0,60,0,0
156995,-125,4,1,0,60,0,0
157715,-111.111111111111,4,1,0,60,0,0
157804,-109.768399653571,4,1,0,60,0,0
157892,-108.457752451687,4,1,0,60,0,0
157981,-107.177919633709,4,1,0,60,0,0
158069,-105.928051548827,4,1,0,60,0,0
158158,-104.706998406359,4,1,0,60,0,0
158335,-102.347440904588,4,1,0,60,0,0

[HitObjects]
320,118,5649,5,8,0:0:0:0:
320,118,5826,1,0,0:0:0:0:
320,118,5914,1,8,0:0:0:0:
320,118,6003,1,0,0:0:0:0:
328,117,6091,1,0,0:0:0:0:
328,117,6180,1,8,0:0:0:0:
333,106,6357,1,0,0:0:0:0:
333,106,6445,1,8,0:0:0:0:
333,106,6534,1,8,0:0:0:0:
329,109,6711,1,8,0:0:0:0:
332,109,6888,1,0,0:0:0:0:
335,112,7064,1,8,0:0:0:0:
333,112,7153,1,0,0:0:0:0:
335,112,7241,1,0,0:0:0:0:
333,106,7330,1,8,0:0:0:0:
333,106,7507,1,0,0:0:0:0:
336,108,7595,1,8,0:0:0:0:
341,108,7772,1,0,0:0:0:0:
332,109,7861,1,8,0:0:0:0:
335,112,7949,1,8,0:0:0:0:
343,113,8126,1,0,0:0:0:0:
343,113,8215,1,0,0:0:0:0:
335,112,8303,1,0,0:0:0:0:
343,113,8392,1,0,0:0:0:0:
341,120,8480,1,8,0:0:0:0:
343,120,8657,1,0,0:0:0:0:
343,120,8745,1,8,0:0:0:0:
344,109,8834,1,0,0:0:0:0:
343,107,8922,1,0,0:0:0:0:
335,112,9011,1,8,0:0:0:0:
337,109,9188,1,0,0:0:0:0:
327,108,9276,1,8,0:0:0:0:
327,108,9365,1,8,0:0:0:0:
328,107,9542,1,8,0:0:0:0:
328,107,9719,1,0,0:0:0:0:
328,108,9896,1,8,0:0:0:0:
329,111,10073,1,0,0:0:0:0:
327,108,10250,1,8,0:0:0:0:
328,107,10427,1,0,0:0:0:0:
328,107,10603,1,8,0:0:0:0:
328,108,10780,1,0,0:0:0:0:
329,111,10957,1,8,0:0:0:0:
329,111,11134,1,8,0:0:0:0:
328,107,11311,1,4,0:0:0:0:
334,104,11665,1,8,0:0:0:0:
342,103,11754,1,8,0:0:0:0:
342,103,11842,1,0,0:0:0:0:
337,104,11931,1,0,0:0:0:0:
337,104,12019,1,8,0:0:0:0:
329,111,12196,1,0,0:0:0:0:
330,113,12284,1,8,0:0:0:0:
325,111,13966,1,0,0:0:0:0:
341,107,14054,1,0,0:0:0:0:
341,107,14142,1,8,0:0:0:0:
345,103,14231,1,0,0:0:0:0:
345,103,14319,1,0,0:0:0:0:
345,103,14408,1,0,0:0:0:0:
342,109,14496,1,8,0:0:0:0:
342,108,14585,1,8,0:0:0:0:
340,108,14673,1,0,0:0:0:0:
340,105,14850,1,8,0:0:0:0:
335,91,15027,1,0,0:0:0:0:
353,104,15116,1,0,0:0:0:0:
341,109,17328,1,8,0:0:0:0:
341,109,17416,1,8,0:0:0:0:
341,109,17504,1,0,0:0:0:0:
341,109,17593,1,0,0:0:0:0:
349,108,17681,1,8,0:0:0:0:
341,109,17858,1,0,0:0:0:0:
349,108,17947,1,8,0:0:0:0:
348,109,19628,1,0,0:0:0:0:
348,109,19716,1,0,0:0:0:0:
348,109,19805,1,8,0:0:0:0:
348,109,19893,1,8,0:0:0:0:
348,109,19982,1,0,0:0:0:0:
348,109,20070,1,0,0:0:0:0:
348,109,20159,1,8,0:0:0:0:
337,112,20247,1,0,0:0:0:0:
337,112,20336,1,0,0:0:0:0:
332,114,20513,1,8,0:0:0:0:
340,100,20690,1,0,0:0:0:0:
340,100,20778,1,0,0:0:0:0:
340,100,21751,1,0,0:0:0:0:
394,97,21810,1,0,0:0:0:0:
376,102,21869,1,0,0:0:0:0:
376,102,21928,1,8,0:0:0:0:
399,77,22017,1,8,0:0:0:0:
394,97,22105,1,0,0:0:0:0:
394,97,22194,1,0,0:0:0:0:
383,97,22282,1,8,0:0:0:0:
391,88,22400,1,8,0:0:0:0:
391,88,22518,1,8,0:0:0:0:
401,97,22636,1,0,0:0:0:0:
396,95,22990,1,8,0:0:0:0:
394,97,23078,1,8,0:0:0:0:
394,97,23167,1,0,0:0:0:0:
397,101,23255,1,0,0:0:0:0:
391,101,23344,1,8,0:0:0:0:
391,101,23521,1,0,0:0:0:0:
382,105,23609,1,8,0:0:0:0:
383,106,23698,1,8,0:0:0:0:
390,105,23875,1,0,0:0:0:0:
391,105,23963,1,0,0:0:0:0:
388,107,24052,1,8,0:0:0:0:
403,97,24140,1,8,0:0:0:0:
379,89,24229,1,0,0:0:0:0:
404,97,24317,1,0,0:0:0:0:
386,107,24406,1,8,0:0:0:0:
391,101,24494,1,0,0:0:0:0:
393,105,24582,1,0,0:0:0:0:
366,95,24759,1,8,0:0:0:0:
391,96,24936,1,0,0:0:0:0:
389,99,25025,1,0,0:0:0:0:
384,115,25113,1,8,0:0:0:0:
383,115,25290,1,8,0:0:0:0:
383,115,25467,1,0,0:0:0:0:
382,100,25556,1,8,0:0:0:0:
369,126,25644,1,0,0:0:0:0:
382,120,25733,1,0,0:0:0:0:
369,126,25821,1,8,0:0:0:0:
382,108,25910,1,0,0:0:0:0:
382,108,25998,1,8,0:0:0:0:
382,108,26087,1,8,0:0:0:0:
383,115,26175,1,0,0:0:0:0:
377,101,26263,1,8,0:0:0:0:
377,102,26352,1,0,0:0:0:0:
384,122,26440,1,0,0:0:0:0:
385,121,26529,1,8,0:0:0:0:
383,117,26617,1,0,0:0:0:0:
383,123,26706,1,8,0:0:0:0:
374,112,26883,1,0,0:0:0:0:
374,112,26971,1,0,0:0:0:0:
361,118,27060,1,8,0:0:0:0:
383,115,27148,1,0,0:0:0:0:
363,117,27237,1,8,0:0:0:0:
382,115,27325,1,8,0:0:0:0:
381,116,27414,1,0,0:0:0:0:
385,121,27502,1,0,0:0:0:0:
385,121,27591,1,8,0:0:0:0:
376,119,27679,1,8,0:0:0:0:
381,119,27768,1,0,0:0:0:0:
381,120,27856,1,0,0:0:0:0:
381,121,27945,1,8,0:0:0:0:
376,113,28033,1,8,0:0:0:0:
379,109,28121,1,0,0:0:0:0:
381,121,28210,1,0,0:0:0:0:
377,111,28298,1,0,0:0:0:0:
376,119,28652,1,8,0:0:0:0:
381,119,28741,1,8,0:0:0:0:
381,120,28829,1,0,0:0:0:0:
381,120,28918,1,0,0:0:0:0:
381,121,29006,1,8,0:0:0:0:
383,125,29183,1,0,0:0:0:0:
377,120,29272,1,8,0:0:0:0:
378,119,29360,1,8,0:0:0:0:
376,119,29537,1,0,0:0:0:0:
376,119,29626,1,0,0:0:0:0:
372,123,29714,1,8,0:0:0:0:
372,123,29802,1,0,0:0:0:0:
373,123,29891,1,0,0:0:0:0:
381,120,29979,1,0,0:0:0:0:
381,121,30068,1,8,0:0:0:0:
378,119,30156,1,8,0:0:0:0:
374,120,30245,1,0,0:0:0:0:
378,119,30422,1,8,0:0:0:0:
376,119,30599,1,0,0:0:0:0:
386,120,30687,1,0,0:0:0:0:
387,117,30776,1,8,0:0:0:0:
382,115,30953,1,8,0:0:0:0:
381,121,31130,1,0,0:0:0:0:
392,114,31218,1,8,0:0:0:0:
395,111,31307,1,0,0:0:0:0:
394,109,31395,1,0,0:0:0:0:
392,109,31483,1,8,0:0:0:0:
392,109,31572,1,8,0:0:0:0:
391,109,31660,1,0,0:0:0:0:
391,107,31749,1,8,0:0:0:0:
391,107,31837,1,0,0:0:0:0:
390,103,31926,1,8,0:0:0:0:
391,103,32014,1,0,0:0:0:0:
393,102,32103,1,0,0:0:0:0:
386,109,32191,1,8,0:0:0:0:
392,114,32280,1,0,0:0:0:0:
402,116,32368,1,8,0:0:0:0:
401,117,32545,1,0,0:0:0:0:
379,115,32634,1,0,0:0:0:0:
378,115,32722,1,8,0:0:0:0:
386,121,32811,1,0,0:0:0:0:
378,115,32899,1,8,0:0:0:0:
399,115,32988,1,8,0:0:0:0:
397,115,33076,1,0,0:0:0:0:
381,94,33135,1,0,0:0:0:0:
387,83,33194,1,0,0:0:0:0:
382,94,33253,1,8,0:0:0:0:
405,89,33341,1,8,0:0:0:0:
405,90,33430,1,8,0:0:0:0:
403,91,33518,1,8,0:0:0:0:
409,91,33607,1,0,0:0:0:0:
391,100,33725,1,0,0:0:0:0:
410,100,33843,1,0,0:0:0:0:
402,103,33961,1,8,0:0:0:0:
405,94,34138,1,0,0:0:0:0:
408,77,34226,1,8,0:0:0:0:
417,101,34403,1,0,0:0:0:0:
411,95,34492,1,0,0:0:0:0:
425,90,34757,1,0,0:0:0:0:
424,90,34846,1,0,0:0:0:0:
422,91,35022,1,0,0:0:0:0:
427,92,35199,1,8,0:0:0:0:
434,84,35376,1,0,0:0:0:0:
432,85,35553,1,0,0:0:0:0:
432,87,35642,1,0,0:0:0:0:
430,88,35907,1,0,0:0:0:0:
433,86,36173,1,0,0:0:0:0:
431,86,36261,1,0,0:0:0:0:
424,80,36438,1,8,0:0:0:0:
424,80,36556,1,0,0:0:0:0:
444,85,36674,1,0,0:0:0:0:
430,88,36792,1,8,0:0:0:0:
436,71,36969,1,0,0:0:0:0:
424,76,37057,1,8,0:0:0:0:
424,80,37323,1,0,0:0:0:0:
424,80,37588,1,0,0:0:0:0:
424,79,37677,1,0,0:0:0:0:
429,101,37854,1,0,0:0:0:0:
429,101,38031,1,8,0:0:0:0:
429,100,38208,1,0,0:0:0:0:
429,100,38385,1,0,0:0:0:0:
429,100,38473,1,0,0:0:0:0:
430,100,38738,1,8,0:0:0:0:
429,101,38915,1,0,0:0:0:0:
429,101,39004,1,0,0:0:0:0:
429,100,39092,1,8,0:0:0:0:
435,95,39269,1,0,0:0:0:0:
435,95,39387,1,0,0:0:0:0:
456,101,39505,1,0,0:0:0:0:
443,101,39623,1,8,0:0:0:0:
454,92,39712,1,0,0:0:0:0:
441,92,39800,1,8,0:0:0:0:
441,92,39889,1,8,0:0:0:0:
440,95,39977,1,0,0:0:0:0:
440,95,40066,1,0,0:0:0:0:
440,95,40154,1,8,0:0:0:0:
442,96,40242,1,0,0:0:0:0:
437,101,40331,1,8,0:0:0:0:
437,101,40419,1,8,0:0:0:0:
439,104,40508,1,0,0:0:0:0:
443,101,40596,1,0,0:0:0:0:
443,101,40685,1,8,0:0:0:0:
437,101,40773,1,8,0:0:0:0:
429,97,40862,1,0,0:0:0:0:
429,97,40950,1,0,0:0:0:0:
439,102,41039,1,8,0:0:0:0:
440,95,41127,1,8,0:0:0:0:
440,95,41216,1,0,0:0:0:0:
437,101,41304,1,0,0:0:0:0:
437,101,41393,1,8,0:0:0:0:
437,101,41481,1,8,0:0:0:0:
439,96,41570,1,0,0:0:0:0:
443,101,41658,1,0,0:0:0:0:
437,101,41747,1,8,0:0:0:0:
437,101,41835,1,8,0:0:0:0:
439,96,41924,1,0,0:0:0:0:
439,102,42012,1,0,0:0:0:0:
437,101,42100,1,8,0:0:0:0:
431,101,42189,1,8,0:0:0:0:
437,101,42277,1,0,0:0:0:0:
437,101,42366,1,0,0:0:0:0:
228,169,42454,2,4,L|359:147,6,125.999996154785
370,104,43870,1,8,0:0:0:0:
348,112,44047,1,0,0:0:0:0:
370,91,44135,1,8,0:0:0:0:
372,91,44312,1,0,0:0:0:0:
373,91,44489,1,0,0:0:0:0:
367,90,44578,1,8,0:0:0:0:
380,109,45286,1,0,0:0:0:0:
390,111,45374,1,0,0:0:0:0:
380,95,45551,1,8,0:0:0:0:
380,104,45639,1,8,0:0:0:0:
391,102,45728,1,0,0:0:0:0:
397,103,45816,1,0,0:0:0:0:
395,106,45993,1,12,0:0:0:0:
395,92,46170,1,0,0:0:0:0:
390,94,46259,1,0,0:0:0:0:
390,94,46347,1,8,0:0:0:0:
396,96,46436,1,8,0:0:0:0:
399,93,46524,1,0,0:0:0:0:
391,102,46701,1,12,0:0:0:0:
403,92,46878,1,0,0:0:0:0:
409,90,46967,1,8,0:0:0:0:
409,90,47055,1,0,0:0:0:0:
395,92,47144,1,8,0:0:0:0:
401,95,47232,1,0,0:0:0:0:
391,102,47409,1,12,0:0:0:0:
405,99,47586,1,0,0:0:0:0:
405,98,47674,1,0,0:0:0:0:
418,101,47763,1,8,0:0:0:0:
418,101,47851,1,8,0:0:0:0:
417,99,47940,1,0,0:0:0:0:
409,90,47999,1,0,0:0:0:0:
409,90,48058,1,0,0:0:0:0:
409,84,48117,1,8,0:0:0:0:
422,85,48382,1,0,0:0:0:0:
405,99,48471,1,8,0:0:0:0:
413,97,48559,1,0,0:0:0:0:
416,97,48648,1,0,0:0:0:0:
395,106,48825,1,12,0:0:0:0:
409,90,49001,1,0,0:0:0:0:
409,90,49090,1,8,0:0:0:0:
414,89,49178,1,0,0:0:0:0:
414,92,49267,1,0,0:0:0:0:
416,89,49355,1,8,0:0:0:0:
417,85,49532,1,0,0:0:0:0:
416,89,49709,1,8,0:0:0:0:
417,89,49798,1,8,0:0:0:0:
423,92,49886,1,0,0:0:0:0:
423,89,49975,1,0,0:0:0:0:
423,88,50063,1,8,0:0:0:0:
414,89,50240,1,0,0:0:0:0:
416,89,50329,1,0,0:0:0:0:
416,89,50417,1,8,0:0:0:0:
417,85,50506,1,0,0:0:0:0:
417,85,50594,1,8,0:0:0:0:
416,89,50771,1,8,0:0:0:0:
412,92,50948,1,0,0:0:0:0:
411,86,51036,1,0,0:0:0:0:
414,89,51213,1,8,0:0:0:0:
408,87,51302,1,8,0:0:0:0:
416,89,51390,1,0,0:0:0:0:
417,85,51479,1,0,0:0:0:0:
380,105,51656,1,12,0:0:0:0:
416,89,51833,1,0,0:0:0:0:
412,92,51921,1,0,0:0:0:0:
417,89,52010,1,8,0:0:0:0:
414,89,52098,1,8,0:0:0:0:
414,89,52187,1,0,0:0:0:0:
380,105,52364,1,12,0:0:0:0:
417,85,52540,1,0,0:0:0:0:
416,89,52629,1,8,0:0:0:0:
408,85,52717,1,0,0:0:0:0:
416,89,52806,1,8,0:0:0:0:
408,85,52894,1,0,0:0:0:0:
380,105,53071,1,12,0:0:0:0:
414,89,53248,1,0,0:0:0:0:
417,85,53337,1,0,0:0:0:0:
417,85,53425,1,8,0:0:0:0:
417,85,53514,1,8,0:0:0:0:
416,89,53602,1,0,0:0:0:0:
422,81,53661,1,0,0:0:0:0:
418,81,53720,1,0,0:0:0:0:
416,81,53779,1,8,0:0:0:0:
422,79,54045,1,0,0:0:0:0:
411,79,54133,1,8,0:0:0:0:
420,78,54221,1,0,0:0:0:0:
421,78,54310,1,0,0:0:0:0:
386,105,54487,1,12,0:0:0:0:
416,88,54664,1,0,0:0:0:0:
418,81,54752,1,8,0:0:0:0:
416,81,54841,1,0,0:0:0:0:
422,79,54929,1,0,0:0:0:0:
412,82,55018,1,8,0:0:0:0:
425,86,55195,1,0,0:0:0:0:
431,85,55283,1,0,0:0:0:0:
430,85,55372,1,8,0:0:0:0:
426,87,55460,1,0,0:0:0:0:
426,87,55549,1,8,0:0:0:0:
416,88,55726,1,8,0:0:0:0:
428,86,55903,1,0,0:0:0:0:
422,79,55991,1,8,0:0:0:0:
425,86,56079,1,0,0:0:0:0:
425,86,56168,1,0,0:0:0:0:
431,85,56256,1,8,0:0:0:0:
436,80,56433,1,8,0:0:0:0:
428,85,56610,1,0,0:0:0:0:
433,85,56699,1,0,0:0:0:0:
428,86,56876,1,8,0:0:0:0:
434,85,56964,1,8,0:0:0:0:
434,85,57053,1,0,0:0:0:0:
434,85,57141,1,0,0:0:0:0:
391,104,57318,1,12,0:0:0:0:
435,84,57495,1,0,0:0:0:0:
436,85,57584,1,0,0:0:0:0:
433,85,57672,1,8,0:0:0:0:
429,92,57760,1,8,0:0:0:0:
436,85,57849,1,0,0:0:0:0:
391,104,58026,1,12,0:0:0:0:
430,91,58203,1,0,0:0:0:0:
430,92,58291,1,8,0:0:0:0:
430,91,58380,1,0,0:0:0:0:
430,91,58468,1,8,0:0:0:0:
431,90,58557,1,0,0:0:0:0:
391,104,58734,1,12,0:0:0:0:
430,91,58911,1,0,0:0:0:0:
430,91,58999,1,0,0:0:0:0:
430,91,59088,1,8,0:0:0:0:
447,92,59176,1,8,0:0:0:0:
447,91,59265,1,0,0:0:0:0:
449,92,59324,1,0,0:0:0:0:
438,97,59383,1,0,0:0:0:0:
448,93,59441,1,8,0:0:0:0:
449,88,59707,1,0,0:0:0:0:
449,88,59795,1,8,0:0:0:0:
449,86,59884,1,0,0:0:0:0:
449,86,59972,1,0,0:0:0:0:
395,107,60149,1,12,0:0:0:0:
447,91,60326,1,0,0:0:0:0:
449,88,60415,1,8,0:0:0:0:
448,93,60503,1,0,0:0:0:0:
449,88,60592,1,0,0:0:0:0:
449,88,60680,1,8,0:0:0:0:
449,86,60857,1,0,0:0:0:0:
447,96,60946,1,0,0:0:0:0:
447,91,61034,1,8,0:0:0:0:
447,91,61123,1,0,0:0:0:0:
447,91,61211,1,8,0:0:0:0:
449,88,61388,1,8,0:0:0:0:
449,88,61565,1,0,0:0:0:0:
445,94,61653,1,8,0:0:0:0:
445,94,61742,1,8,0:0:0:0:
442,97,61830,1,0,0:0:0:0:
447,96,61919,1,8,0:0:0:0:
429,97,62096,1,8,0:0:0:0:
443,104,62273,1,0,0:0:0:0:
444,104,62361,1,0,0:0:0:0:
439,105,62538,1,8,0:0:0:0:
439,105,62627,1,8,0:0:0:0:
437,96,62715,1,0,0:0:0:0:
442,97,62804,1,0,0:0:0:0:
391,107,62980,1,12,0:0:0:0:
437,95,63157,1,0,0:0:0:0:
439,95,63246,1,0,0:0:0:0:
391,107,63334,1,12,0:0:0:0:
439,95,63511,1,0,0:0:0:0:
411,95,63600,1,0,0:0:0:0:
428,100,63688,1,12,0:0:0:0:
412,95,63865,1,0,0:0:0:0:
405,98,63954,1,0,0:0:0:0:
391,107,64042,1,12,0:0:0:0:
412,95,64219,1,0,0:0:0:0:
405,98,64308,1,0,0:0:0:0:
391,107,64396,1,12,0:0:0:0:
389,96,64573,1,0,0:0:0:0:
389,96,64662,1,0,0:0:0:0:
386,97,64750,1,0,0:0:0:0:
381,98,64927,1,8,0:0:0:0:
421,110,65104,1,0,0:0:0:0:
391,95,65192,1,0,0:0:0:0:
416,100,65281,1,8,0:0:0:0:
410,104,65369,1,8,0:0:0:0:
409,116,65458,1,0,0:0:0:0:
407,115,65546,1,8,0:0:0:0:
413,103,65635,1,0,0:0:0:0:
399,108,65812,1,12,0:0:0:0:
410,100,65989,1,0,0:0:0:0:
405,102,66077,1,8,0:0:0:0:
405,102,66166,1,0,0:0:0:0:
405,102,66254,1,0,0:0:0:0:
410,104,66343,1,8,0:0:0:0:
406,103,66519,1,0,0:0:0:0:
409,114,66696,1,8,0:0:0:0:
404,101,66785,1,0,0:0:0:0:
409,114,66873,1,8,0:0:0:0:
402,101,66962,1,0,0:0:0:0:
405,102,67050,1,0,0:0:0:0:
405,102,67139,1,0,0:0:0:0:
405,102,67227,1,8,0:0:0:0:
408,100,67758,1,8,0:0:0:0:
423,91,67935,1,0,0:0:0:0:
408,95,68024,1,0,0:0:0:0:
408,95,68200,1,8,0:0:0:0:
403,88,68289,1,0,0:0:0:0:
418,84,68466,1,8,0:0:0:0:
401,78,68643,1,0,0:0:0:0:
411,82,68731,1,8,0:0:0:0:
413,94,68820,1,0,0:0:0:0:
413,92,68908,1,0,0:0:0:0:
410,94,68997,1,8,0:0:0:0:
408,95,69085,1,0,0:0:0:0:
422,102,69174,1,8,0:0:0:0:
412,78,69262,1,8,0:0:0:0:
408,82,69351,1,0,0:0:0:0:
408,82,69439,1,0,0:0:0:0:
408,82,69528,1,8,0:0:0:0:
408,82,69616,1,0,0:0:0:0:
411,82,69705,1,8,0:0:0:0:
414,83,69793,1,0,0:0:0:0:
414,83,69882,1,8,0:0:0:0:
407,81,69970,1,8,0:0:0:0:
419,92,70058,1,0,0:0:0:0:
405,77,70147,1,8,0:0:0:0:
412,78,70235,1,0,0:0:0:0:
394,80,70324,1,0,0:0:0:0:
389,87,70412,1,8,0:0:0:0:
401,80,70501,1,0,0:0:0:0:
408,82,70589,1,8,0:0:0:0:
400,77,70766,1,0,0:0:0:0:
400,77,70855,1,0,0:0:0:0:
402,78,71032,1,8,0:0:0:0:
405,77,71120,1,0,0:0:0:0:
405,77,71209,1,0,0:0:0:0:
400,84,71297,1,8,0:0:0:0:
399,90,71474,1,0,0:0:0:0:
408,82,71563,1,8,0:0:0:0:
405,85,71651,1,0,0:0:0:0:
405,84,71739,1,0,0:0:0:0:
406,85,71828,1,8,0:0:0:0:
406,85,71916,1,0,0:0:0:0:
406,85,72005,1,8,0:0:0:0:
406,85,72093,1,8,0:0:0:0:
406,86,72182,1,0,0:0:0:0:
406,86,72270,1,0,0:0:0:0:
406,87,72359,1,8,0:0:0:0:
406,87,72447,1,0,0:0:0:0:
407,90,72536,1,8,0:0:0:0:
403,92,72624,1,0,0:0:0:0:
403,92,72713,1,8,0:0:0:0:
403,92,72801,1,8,0:0:0:0:
403,92,72890,1,0,0:0:0:0:
402,92,72978,1,8,0:0:0:0:
402,92,73067,1,0,0:0:0:0:
402,92,73155,1,0,0:0:0:0:
402,92,73244,1,8,0:0:0:0:
406,87,73332,1,0,0:0:0:0:
406,87,73420,1,8,0:0:0:0:
406,78,73597,1,0,0:0:0:0:
406,78,73686,1,0,0:0:0:0:
406,78,73863,1,8,0:0:0:0:
405,83,73951,1,8,0:0:0:0:
422,97,74040,1,0,0:0:0:0:
402,92,74128,1,8,0:0:0:0:
406,87,74305,1,0,0:0:0:0:
406,87,74394,1,0,0:0:0:0:
406,78,74482,1,8,0:0:0:0:
406,78,74571,1,0,0:0:0:0:
406,78,74659,1,8,0:0:0:0:
406,78,74748,1,0,0:0:0:0:
406,78,74836,1,8,0:0:0:0:
405,83,74925,1,8,0:0:0:0:
424,89,75013,1,0,0:0:0:0:
415,86,75102,1,8,0:0:0:0:
414,86,75190,1,0,0:0:0:0:
406,87,75278,1,0,0:0:0:0:
406,87,75367,1,8,0:0:0:0:
407,86,75455,1,0,0:0:0:0:
410,85,75544,1,8,0:0:0:0:
406,88,75632,1,8,0:0:0:0:
406,87,75721,1,0,0:0:0:0:
406,87,75809,1,0,0:0:0:0:
405,83,75898,1,8,0:0:0:0:
409,86,75986,1,0,0:0:0:0:
406,87,76075,1,8,0:0:0:0:
414,86,76163,1,0,0:0:0:0:
405,87,76252,1,8,0:0:0:0:
407,77,76429,1,0,0:0:0:0:
417,76,76517,1,0,0:0:0:0:
422,88,76694,1,8,0:0:0:0:
422,88,76783,1,0,0:0:0:0:
425,89,76871,1,0,0:0:0:0:
424,89,76959,1,8,0:0:0:0:
414,86,77136,1,0,0:0:0:0:
419,84,77225,1,8,0:0:0:0:
419,84,77313,1,0,0:0:0:0:
420,83,77402,1,0,0:0:0:0:
420,83,77490,1,8,0:0:0:0:
421,83,77579,1,0,0:0:0:0:
422,88,77667,1,8,0:0:0:0:
422,88,77756,1,0,0:0:0:0:
422,88,77844,1,8,0:0:0:0:
422,78,77933,1,0,0:0:0:0:
423,78,78021,1,0,0:0:0:0:
422,78,78110,1,8,0:0:0:0:
419,84,78375,1,8,0:0:0:0:
424,72,78641,1,0,0:0:0:0:
424,72,78729,1,8,0:0:0:0:
422,78,78906,1,8,0:0:0:0:
422,78,79083,1,0,0:0:0:0:
407,80,79260,1,12,0:0:0:0:
436,91,79791,1,8,0:0:0:0:
436,91,80322,1,0,0:0:0:0:
407,82,81295,1,8,0:0:0:0:
427,91,81384,1,0,0:0:0:0:
414,86,81472,1,8,0:0:0:0:
414,86,81560,1,0,0:0:0:0:
417,86,81649,1,0,0:0:0:0:
420,84,81737,1,8,0:0:0:0:
422,85,81914,1,8,0:0:0:0:
422,90,84126,1,8,0:0:0:0:
416,78,84214,1,0,0:0:0:0:
422,90,84303,1,0,0:0:0:0:
417,82,84391,1,8,0:0:0:0:
422,90,84480,1,8,0:0:0:0:
422,90,84568,1,0,0:0:0:0:
409,86,84657,1,8,0:0:0:0:
386,83,84834,1,0,0:0:0:0:
413,85,84922,1,8,0:0:0:0:
413,85,85011,1,0,0:0:0:0:
414,88,85453,1,8,0:0:0:0:
413,85,85984,1,0,0:0:0:0:
422,89,86957,1,8,0:0:0:0:
422,89,87046,1,0,0:0:0:0:
422,89,87134,1,8,0:0:0:0:
422,89,87223,1,0,0:0:0:0:
422,89,87311,1,0,0:0:0:0:
422,89,87399,1,8,0:0:0:0:
422,89,87576,1,8,0:0:0:0:
414,91,89788,1,8,0:0:0:0:
414,91,89877,1,0,0:0:0:0:
414,91,89965,1,8,0:0:0:0:
414,91,90054,1,0,0:0:0:0:
414,91,90142,1,0,0:0:0:0:
414,91,90231,1,8,0:0:0:0:
414,91,90408,1,8,0:0:0:0:
400,102,90585,1,4,0:0:0:0:
396,95,90938,1,8,0:0:0:0:
394,97,91026,1,8,0:0:0:0:
394,97,91115,1,0,0:0:0:0:
397,101,91203,1,0,0:0:0:0:
391,101,91292,1,8,0:0:0:0:
391,101,91469,1,0,0:0:0:0:
382,105,91557,1,8,0:0:0:0:
383,106,91646,1,8,0:0:0:0:
390,105,91823,1,0,0:0:0:0:
391,105,91911,1,0,0:0:0:0:
388,107,92000,1,8,0:0:0:0:
403,97,92088,1,8,0:0:0:0:
379,89,92177,1,0,0:0:0:0:
404,97,92265,1,0,0:0:0:0:
386,107,92354,1,8,0:0:0:0:
391,101,92442,1,0,0:0:0:0:
393,105,92530,1,0,0:0:0:0:
366,95,92707,1,8,0:0:0:0:
391,96,92884,1,0,0:0:0:0:
389,99,92973,1,0,0:0:0:0:
384,115,93061,1,8,0:0:0:0:
383,115,93238,1,8,0:0:0:0:
383,115,93415,1,0,0:0:0:0:
382,100,93504,1,8,0:0:0:0:
369,126,93592,1,0,0:0:0:0:
382,120,93681,1,0,0:0:0:0:
369,126,93769,1,8,0:0:0:0:
382,108,93858,1,0,0:0:0:0:
382,108,93946,1,8,0:0:0:0:
382,108,94035,1,8,0:0:0:0:
383,115,94123,1,0,0:0:0:0:
377,101,94211,1,8,0:0:0:0:
377,102,94300,1,0,0:0:0:0:
384,122,94388,1,0,0:0:0:0:
385,121,94477,1,8,0:0:0:0:
383,117,94565,1,0,0:0:0:0:
383,123,94654,1,8,0:0:0:0:
374,112,94831,1,0,0:0:0:0:
374,112,94919,1,0,0:0:0:0:
361,118,95008,1,8,0:0:0:0:
383,115,95096,1,0,0:0:0:0:
363,117,95185,1,8,0:0:0:0:
382,115,95273,1,8,0:0:0:0:
381,116,95362,1,0,0:0:0:0:
385,121,95450,1,0,0:0:0:0:
385,121,95539,1,8,0:0:0:0:
376,119,95627,1,8,0:0:0:0:
381,119,95716,1,0,0:0:0:0:
381,120,95804,1,0,0:0:0:0:
381,121,95893,1,8,0:0:0:0:
376,113,95981,1,8,0:0:0:0:
379,109,96069,1,0,0:0:0:0:
381,121,96158,1,0,0:0:0:0:
377,111,96246,1,0,0:0:0:0:
376,119,96600,1,8,0:0:0:0:
381,119,96689,1,8,0:0:0:0:
381,120,96777,1,0,0:0:0:0:
381,120,96866,1,0,0:0:0:0:
381,121,96954,1,8,0:0:0:0:
383,125,97131,1,0,0:0:0:0:
377,120,97220,1,8,0:0:0:0:
378,119,97308,1,8,0:0:0:0:
376,119,97485,1,0,0:0:0:0:
376,119,97574,1,0,0:0:0:0:
372,123,97662,1,8,0:0:0:0:
372,123,97750,1,0,0:0:0:0:
373,123,97839,1,0,0:0:0:0:
381,120,97927,1,0,0:0:0:0:
381,121,98016,1,8,0:0:0:0:
378,119,98104,1,8,0:0:0:0:
374,120,98193,1,0,0:0:0:0:
378,119,98370,1,8,0:0:0:0:
376,119,98547,1,0,0:0:0:0:
386,120,98635,1,0,0:0:0:0:
387,117,98724,1,8,0:0:0:0:
382,115,98901,1,8,0:0:0:0:
381,121,99078,1,0,0:0:0:0:
392,114,99166,1,8,0:0:0:0:
395,111,99255,1,0,0:0:0:0:
394,109,99343,1,0,0:0:0:0:
392,109,99431,1,8,0:0:0:0:
392,109,99520,1,8,0:0:0:0:
391,109,99608,1,0,0:0:0:0:
391,107,99697,1,8,0:0:0:0:
391,107,99785,1,0,0:0:0:0:
390,103,99874,1,8,0:0:0:0:
391,103,99962,1,0,0:0:0:0:
393,102,100051,1,0,0:0:0:0:
386,109,100139,1,8,0:0:0:0:
392,114,100228,1,0,0:0:0:0:
402,116,100316,1,8,0:0:0:0:
401,117,100493,1,0,0:0:0:0:
379,115,100582,1,0,0:0:0:0:
378,115,100670,1,8,0:0:0:0:
386,121,100759,1,0,0:0:0:0:
378,115,100847,1,8,0:0:0:0:
399,115,100936,1,8,0:0:0:0:
397,115,101024,1,0,0:0:0:0:
381,94,101083,1,0,0:0:0:0:
387,83,101142,1,0,0:0:0:0:
382,94,101201,1,8,0:0:0:0:
405,89,101289,1,8,0:0:0:0:
405,90,101378,1,8,0:0:0:0:
403,91,101466,1,8,0:0:0:0:
409,91,101555,1,0,0:0:0:0:
391,100,101673,1,0,0:0:0:0:
410,100,101791,1,0,0:0:0:0:
402,103,101909,1,8,0:0:0:0:
405,94,102086,1,0,0:0:0:0:
408,77,102174,1,8,0:0:0:0:
417,101,102351,1,0,0:0:0:0:
411,95,102440,1,0,0:0:0:0:
425,90,102705,1,0,0:0:0:0:
424,90,102794,1,0,0:0:0:0:
422,91,102970,1,0,0:0:0:0:
427,92,103147,1,8,0:0:0:0:
434,84,103324,1,0,0:0:0:0:
432,85,103501,1,0,0:0:0:0:
432,87,103590,1,0,0:0:0:0:
430,88,103855,1,0,0:0:0:0:
433,86,104121,1,0,0:0:0:0:
431,86,104209,1,0,0:0:0:0:
424,80,104386,1,8,0:0:0:0:
424,80,104504,1,0,0:0:0:0:
444,85,104622,1,0,0:0:0:0:
430,88,104740,1,8,0:0:0:0:
436,71,104917,1,0,0:0:0:0:
424,76,105005,1,8,0:0:0:0:
424,80,105271,1,0,0:0:0:0:
424,80,105536,1,0,0:0:0:0:
424,79,105625,1,0,0:0:0:0:
429,101,105802,1,0,0:0:0:0:
429,101,105979,1,8,0:0:0:0:
429,100,106156,1,0,0:0:0:0:
429,100,106333,1,0,0:0:0:0:
429,100,106421,1,0,0:0:0:0:
430,100,106686,1,8,0:0:0:0:
429,101,106863,1,0,0:0:0:0:
429,101,106952,1,0,0:0:0:0:
429,100,107040,1,8,0:0:0:0:
435,95,107217,1,0,0:0:0:0:
435,95,107335,1,0,0:0:0:0:
456,101,107453,1,0,0:0:0:0:
443,101,107571,1,8,0:0:0:0:
454,92,107660,1,0,0:0:0:0:
441,92,107748,1,8,0:0:0:0:
441,92,107837,1,8,0:0:0:0:
440,95,107925,1,0,0:0:0:0:
440,95,108014,1,0,0:0:0:0:
440,95,108102,1,8,0:0:0:0:
442,96,108190,1,0,0:0:0:0:
437,101,108279,1,8,0:0:0:0:
437,101,108367,1,8,0:0:0:0:
439,104,108456,1,0,0:0:0:0:
443,101,108544,1,0,0:0:0:0:
443,101,108633,1,8,0:0:0:0:
437,101,108721,1,8,0:0:0:0:
429,97,108810,1,0,0:0:0:0:
429,97,108898,1,0,0:0:0:0:
439,102,108987,1,8,0:0:0:0:
440,95,109075,1,8,0:0:0:0:
440,95,109164,1,0,0:0:0:0:
437,101,109252,1,0,0:0:0:0:
437,101,109341,1,8,0:0:0:0:
437,101,109429,1,8,0:0:0:0:
439,96,109518,1,0,0:0:0:0:
443,101,109606,1,0,0:0:0:0:
437,101,109695,1,8,0:0:0:0:
437,101,109783,1,8,0:0:0:0:
439,96,109872,1,0,0:0:0:0:
439,102,109960,1,0,0:0:0:0:
437,101,110048,1,8,0:0:0:0:
431,101,110137,1,8,0:0:0:0:
437,101,110225,1,0,0:0:0:0:
437,101,110314,1,0,0:0:0:0:
228,170,110403,2,4,L|358:154,6,125.999996154785
361,98,111819,1,8,0:0:0:0:
361,98,111995,1,0,0:0:0:0:
371,97,112084,1,8,0:0:0:0:
371,97,112261,1,0,0:0:0:0:
371,95,112438,1,0,0:0:0:0:
371,95,112526,1,8,0:0:0:0:
371,97,113234,1,0,0:0:0:0:
378,95,113323,1,0,0:0:0:0:
420,88,113500,1,8,0:0:0:0:
420,88,113544,1,8,0:0:0:0:
420,88,113588,1,8,0:0:0:0:
424,83,113676,1,0,0:0:0:0:
424,81,113765,1,8,0:0:0:0:
407,83,113853,1,8,0:0:0:0:
408,82,113942,1,4,0:0:0:0:
420,88,114207,1,8,0:0:0:0:
402,66,114296,1,0,0:0:0:0:
433,81,114384,1,0,0:0:0:0:
432,81,114473,1,8,0:0:0:0:
424,83,114650,1,4,0:0:0:0:
431,71,114915,1,8,0:0:0:0:
431,70,115004,1,0,0:0:0:0:
431,70,115092,1,0,0:0:0:0:
417,69,115181,1,8,0:0:0:0:
413,66,115269,1,8,0:0:0:0:
419,74,115358,1,0,0:0:0:0:
418,80,115446,1,8,0:0:0:0:
417,79,115623,1,0,0:0:0:0:
417,79,115711,1,8,0:0:0:0:
424,77,115800,1,0,0:0:0:0:
424,67,115859,1,0,0:0:0:0:
424,67,115918,1,0,0:0:0:0:
425,66,115977,1,8,0:0:0:0:
413,75,116065,1,0,0:0:0:0:
442,68,116331,1,8,0:0:0:0:
424,60,116419,1,8,0:0:0:0:
439,79,116508,1,0,0:0:0:0:
431,82,116596,1,8,0:0:0:0:
436,62,116773,1,4,0:0:0:0:
434,63,117039,1,8,0:0:0:0:
425,60,117127,1,8,0:0:0:0:
434,65,117215,1,0,0:0:0:0:
431,66,117304,1,8,0:0:0:0:
432,66,117481,1,0,0:0:0:0:
441,69,117569,1,0,0:0:0:0:
429,66,117658,1,8,0:0:0:0:
436,69,117746,1,0,0:0:0:0:
437,70,117835,1,8,0:0:0:0:
439,71,117923,1,0,0:0:0:0:
439,71,118012,1,8,0:0:0:0:
434,65,118100,1,8,0:0:0:0:
434,65,118189,1,0,0:0:0:0:
431,66,118277,1,8,0:0:0:0:
431,66,118366,1,0,0:0:0:0:
432,66,118454,1,0,0:0:0:0:
432,66,118543,1,8,0:0:0:0:
437,63,118631,1,0,0:0:0:0:
449,86,118720,1,8,0:0:0:0:
437,70,118896,1,0,0:0:0:0:
438,63,118985,1,0,0:0:0:0:
434,65,119073,1,0,0:0:0:0:
434,65,119162,1,0,0:0:0:0:
437,63,119250,1,8,0:0:0:0:
443,68,119339,1,0,0:0:0:0:
443,68,119427,1,8,0:0:0:0:
397,88,119516,1,8,0:0:0:0:
437,63,119604,1,4,0:0:0:0:
437,70,119870,1,8,0:0:0:0:
418,67,119958,1,0,0:0:0:0:
419,67,120047,1,0,0:0:0:0:
424,67,120135,1,8,0:0:0:0:
424,67,120312,1,4,0:0:0:0:
434,74,120578,1,8,0:0:0:0:
437,70,120666,1,0,0:0:0:0:
418,84,120754,1,0,0:0:0:0:
419,79,120843,1,8,0:0:0:0:
419,79,121020,1,0,0:0:0:0:
419,79,121108,1,8,0:0:0:0:
425,74,121285,1,0,0:0:0:0:
426,74,121374,1,8,0:0:0:0:
426,74,121462,1,0,0:0:0:0:
408,62,121521,1,0,0:0:0:0:
408,61,121580,1,0,0:0:0:0:
408,61,121639,1,8,0:0:0:0:
442,74,121728,1,0,0:0:0:0:
432,65,121993,1,8,0:0:0:0:
432,65,122082,1,8,0:0:0:0:
435,63,122170,1,0,0:0:0:0:
435,63,122259,1,8,0:0:0:0:
435,64,122435,1,4,0:0:0:0:
435,65,122701,1,8,0:0:0:0:
431,56,122789,1,8,0:0:0:0:
423,83,122878,1,0,0:0:0:0:
424,83,122966,1,8,0:0:0:0:
426,64,123143,1,0,0:0:0:0:
435,63,123232,1,0,0:0:0:0:
435,64,123320,1,8,0:0:0:0:
428,62,123409,1,0,0:0:0:0:
435,65,123497,1,8,0:0:0:0:
428,62,123586,1,0,0:0:0:0:
435,65,123674,1,8,0:0:0:0:
434,63,123763,1,8,0:0:0:0:
434,62,123851,1,0,0:0:0:0:
436,68,123940,1,8,0:0:0:0:
436,68,124028,1,0,0:0:0:0:
436,68,124116,1,0,0:0:0:0:
435,63,124205,1,8,0:0:0:0:
436,68,124382,1,8,0:0:0:0:
439,62,124559,1,0,0:0:0:0:
435,65,124647,1,8,0:0:0:0:
434,63,124736,1,8,0:0:0:0:
434,62,124824,1,0,0:0:0:0:
438,76,124869,1,0,0:0:0:0:
439,76,124913,1,8,0:0:0:0:
436,68,125001,1,0,0:0:0:0:
443,68,125090,1,0,0:0:0:0:
391,104,125267,5,12,0:0:0:0:
435,84,125444,1,0,0:0:0:0:
436,85,125533,1,0,0:0:0:0:
433,85,125621,1,8,0:0:0:0:
429,92,125709,1,8,0:0:0:0:
436,85,125798,1,0,0:0:0:0:
391,104,125975,1,12,0:0:0:0:
430,91,126152,1,0,0:0:0:0:
430,92,126240,1,8,0:0:0:0:
430,91,126329,1,0,0:0:0:0:
430,91,126417,1,8,0:0:0:0:
431,90,126506,1,0,0:0:0:0:
391,104,126683,1,12,0:0:0:0:
430,91,126860,1,0,0:0:0:0:
430,91,126948,1,0,0:0:0:0:
430,91,127037,1,8,0:0:0:0:
447,92,127125,1,8,0:0:0:0:
447,91,127214,1,0,0:0:0:0:
449,92,127273,1,0,0:0:0:0:
438,97,127332,1,0,0:0:0:0:
448,93,127390,1,8,0:0:0:0:
449,88,127656,1,0,0:0:0:0:
449,88,127744,1,8,0:0:0:0:
449,86,127833,1,0,0:0:0:0:
449,86,127921,1,0,0:0:0:0:
395,107,128098,1,12,0:0:0:0:
447,91,128275,1,0,0:0:0:0:
449,88,128364,1,8,0:0:0:0:
448,93,128452,1,0,0:0:0:0:
449,88,128541,1,0,0:0:0:0:
449,88,128629,1,8,0:0:0:0:
449,86,128806,1,0,0:0:0:0:
447,96,128895,1,0,0:0:0:0:
447,91,128983,1,8,0:0:0:0:
447,91,129072,1,0,0:0:0:0:
447,91,129160,1,8,0:0:0:0:
449,88,129337,1,8,0:0:0:0:
449,88,129514,1,0,0:0:0:0:
445,94,129602,1,8,0:0:0:0:
445,94,129691,1,8,0:0:0:0:
442,97,129779,1,0,0:0:0:0:
447,96,129868,1,8,0:0:0:0:
429,97,130045,1,8,0:0:0:0:
443,104,130222,1,0,0:0:0:0:
444,104,130310,1,0,0:0:0:0:
439,105,130487,1,8,0:0:0:0:
439,105,130576,1,8,0:0:0:0:
437,96,130664,1,0,0:0:0:0:
442,97,130753,1,0,0:0:0:0:
391,107,130929,1,12,0:0:0:0:
437,95,131106,1,0,0:0:0:0:
439,95,131195,1,0,0:0:0:0:
391,107,131283,1,12,0:0:0:0:
439,95,131460,1,0,0:0:0:0:
411,95,131549,1,0,0:0:0:0:
428,100,131637,1,12,0:0:0:0:
412,95,131814,1,0,0:0:0:0:
405,98,131903,1,0,0:0:0:0:
391,107,131991,1,12,0:0:0:0:
412,95,132168,1,0,0:0:0:0:
405,98,132257,1,0,0:0:0:0:
391,107,132345,1,12,0:0:0:0:
389,96,132522,1,0,0:0:0:0:
389,96,132611,1,0,0:0:0:0:
386,97,132699,1,0,0:0:0:0:
381,98,132876,1,8,0:0:0:0:
421,110,133053,1,0,0:0:0:0:
391,95,133141,1,0,0:0:0:0:
416,100,133230,1,8,0:0:0:0:
410,104,133318,1,8,0:0:0:0:
409,116,133407,1,0,0:0:0:0:
407,115,133495,1,8,0:0:0:0:
413,103,133584,1,0,0:0:0:0:
399,108,133761,1,12,0:0:0:0:
410,100,133938,1,0,0:0:0:0:
405,102,134026,1,8,0:0:0:0:
405,102,134115,1,0,0:0:0:0:
405,102,134203,1,0,0:0:0:0:
410,104,134292,1,8,0:0:0:0:
406,103,134468,1,0,0:0:0:0:
409,114,134645,1,8,0:0:0:0:
404,101,134734,1,0,0:0:0:0:
409,114,134822,1,8,0:0:0:0:
402,101,134911,1,0,0:0:0:0:
405,102,134999,1,0,0:0:0:0:
405,102,135088,1,0,0:0:0:0:
405,102,135176,1,8,0:0:0:0:
408,100,135707,1,8,0:0:0:0:
423,91,135884,1,0,0:0:0:0:
408,95,135973,1,0,0:0:0:0:
408,95,136149,1,8,0:0:0:0:
403,88,136238,1,0,0:0:0:0:
418,84,136415,1,8,0:0:0:0:
401,78,136592,1,0,0:0:0:0:
411,82,136680,1,8,0:0:0:0:
413,94,136769,1,0,0:0:0:0:
413,92,136857,1,0,0:0:0:0:
410,94,136946,1,8,0:0:0:0:
408,95,137034,1,0,0:0:0:0:
422,102,137123,1,8,0:0:0:0:
412,78,137211,1,8,0:0:0:0:
408,82,137300,1,0,0:0:0:0:
408,82,137388,1,0,0:0:0:0:
408,82,137477,1,8,0:0:0:0:
408,82,137565,1,0,0:0:0:0:
411,82,137654,1,8,0:0:0:0:
414,83,137742,1,0,0:0:0:0:
414,83,137831,1,8,0:0:0:0:
407,81,137919,1,8,0:0:0:0:
419,92,138007,1,0,0:0:0:0:
405,77,138096,1,8,0:0:0:0:
412,78,138184,1,0,0:0:0:0:
394,80,138273,1,0,0:0:0:0:
389,87,138361,1,8,0:0:0:0:
401,80,138450,1,0,0:0:0:0:
408,82,138538,1,8,0:0:0:0:
400,77,138715,1,0,0:0:0:0:
400,77,138804,1,0,0:0:0:0:
402,78,138981,1,8,0:0:0:0:
405,77,139069,1,0,0:0:0:0:
405,77,139158,1,0,0:0:0:0:
400,84,139246,1,8,0:0:0:0:
399,90,139423,1,0,0:0:0:0:
408,82,139512,1,8,0:0:0:0:
405,85,139600,1,0,0:0:0:0:
405,84,139688,1,0,0:0:0:0:
406,85,139777,1,8,0:0:0:0:
406,85,139865,1,0,0:0:0:0:
406,85,139954,1,8,0:0:0:0:
406,85,140042,1,8,0:0:0:0:
406,86,140131,1,0,0:0:0:0:
406,86,140219,1,0,0:0:0:0:
406,87,140308,1,8,0:0:0:0:
406,87,140396,1,0,0:0:0:0:
407,90,140485,1,8,0:0:0:0:
403,92,140573,1,0,0:0:0:0:
403,92,140662,1,8,0:0:0:0:
403,92,140750,1,8,0:0:0:0:
403,92,140839,1,0,0:0:0:0:
402,92,140927,1,8,0:0:0:0:
402,92,141016,1,0,0:0:0:0:
402,92,141104,1,0,0:0:0:0:
402,92,141193,1,8,0:0:0:0:
406,87,141281,1,0,0:0:0:0:
406,87,141369,1,8,0:0:0:0:
406,78,141546,1,0,0:0:0:0:
406,78,141635,1,0,0:0:0:0:
406,78,141812,1,8,0:0:0:0:
405,83,141900,1,8,0:0:0:0:
422,97,141989,1,0,0:0:0:0:
402,92,142077,1,8,0:0:0:0:
406,87,142254,1,0,0:0:0:0:
406,87,142343,1,0,0:0:0:0:
406,78,142431,1,8,0:0:0:0:
406,78,142520,1,0,0:0:0:0:
406,78,142608,1,8,0:0:0:0:
406,78,142697,1,0,0:0:0:0:
406,78,142785,1,8,0:0:0:0:
405,83,142874,1,8,0:0:0:0:
424,89,142962,1,0,0:0:0:0:
415,86,143051,1,8,0:0:0:0:
414,86,143139,1,0,0:0:0:0:
406,87,143227,1,0,0:0:0:0:
406,87,143316,1,8,0:0:0:0:
407,86,143404,1,0,0:0:0:0:
410,85,143493,1,8,0:0:0:0:
406,88,143581,1,8,0:0:0:0:
406,87,143670,1,0,0:0:0:0:
406,87,143758,1,0,0:0:0:0:
405,83,143847,1,8,0:0:0:0:
409,86,143935,1,0,0:0:0:0:
406,87,144024,1,8,0:0:0:0:
414,86,144112,1,0,0:0:0:0:
405,87,144201,1,8,0:0:0:0:
407,77,144378,1,0,0:0:0:0:
417,76,144466,1,0,0:0:0:0:
422,88,144643,1,8,0:0:0:0:
422,88,144732,1,0,0:0:0:0:
425,89,144820,1,0,0:0:0:0:
424,89,144908,1,8,0:0:0:0:
414,86,145085,1,0,0:0:0:0:
419,84,145174,1,8,0:0:0:0:
419,84,145262,1,0,0:0:0:0:
420,83,145351,1,0,0:0:0:0:
420,83,145439,1,8,0:0:0:0:
421,83,145528,1,0,0:0:0:0:
422,88,145616,1,8,0:0:0:0:
422,88,145705,1,0,0:0:0:0:
422,88,145793,1,8,0:0:0:0:
422,78,145882,1,0,0:0:0:0:
423,78,145970,1,0,0:0:0:0:
422,78,146059,1,8,0:0:0:0:
419,84,146324,1,8,0:0:0:0:
424,72,146590,1,0,0:0:0:0:
424,72,146678,1,8,0:0:0:0:
422,78,146855,1,8,0:0:0:0:
422,78,147032,1,0,0:0:0:0:
407,80,147209,1,12,0:0:0:0:
412,96,147739,1,8,0:0:0:0:
412,96,148270,1,0,0:0:0:0:
412,96,149243,1,8,0:0:0:0:
416,89,149332,1,0,0:0:0:0:
416,89,149420,1,8,0:0:0:0:
414,86,149509,1,0,0:0:0:0:
414,86,149597,1,0,0:0:0:0:
412,96,149686,1,8,0:0:0:0:
413,89,149863,1,8,0:0:0:0:
419,82,152340,1,8,0:0:0:0:
403,85,152428,1,0,0:0:0:0:
402,86,152517,1,0,0:0:0:0:
419,82,152605,1,8,0:0:0:0:
402,86,152694,1,8,0:0:0:0:
419,82,152782,1,0,0:0:0:0:
426,79,152871,1,8,0:0:0:0:
427,79,152959,1,0,0:0:0:0:
426,86,153402,1,8,0:0:0:0:
426,86,153932,1,0,0:0:0:0:
426,86,154906,1,8,0:0:0:0:
426,86,154994,1,0,0:0:0:0:
426,86,155083,1,8,0:0:0:0:
426,86,155171,1,0,0:0:0:0:
426,86,155260,1,0,0:0:0:0:
426,86,155348,1,8,0:0:0:0:
426,86,155525,1,8,0:0:0:0:
422,89,157737,1,8,0:0:0:0:
422,89,157825,1,0,0:0:0:0:
422,89,157914,1,8,0:0:0:0:
422,89,158002,1,0,0:0:0:0:
422,89,158091,1,0,0:0:0:0:
422,89,158179,1,8,0:0:0:0:
422,89,158356,1,8,0:0:0:0:
