osu file format v14

[General]
AudioFilename: audiow.mp3
AudioLeadIn: 0
PreviewTime: 86755
Countdown: 1
SampleSet: None
StackLeniency: 0.7
Mode: 2
LetterboxInBreaks: 0
WidescreenStoryboard: 0

[Editor]
DistanceSpacing: 1.2
BeatDivisor: 4
GridSize: 32
TimelineZoom: 2.599999

[Metadata]
Title:Koi(Otaku No.1 Bootleg)
TitleUnicode:恋(Otaku No.1 Bootleg)
Artist:DJ M1SO
ArtistUnicode:DJ M1SO
Creator:lineqtxz
Version:HD god
Source:
Tags:
BeatmapID:2094942
BeatmapSetID:1000828

[Difficulty]
HPDrainRate:4
CircleSize:5
OverallDifficulty:10
ApproachRate:8.6
SliderMultiplier:1.4
SliderTickRate:1

[Events]
//Background and Video events
0,0,"nuku.png",0,0
//Break Periods
//Storyboard Layer 0 (Background)
//Storyboard Layer 1 (Fail)
//Storyboard Layer 2 (Pass)
//Storyboard Layer 3 (Foreground)
//Storyboard Sound Samples

[TimingPoints]
20293,230.769230769231,4,1,0,100,1,0
36908,-100,4,1,0,100,0,1
38523,-100,4,1,0,100,0,0
42331,-100,4,1,0,100,0,1
48908,-100,4,1,0,100,0,0
49716,-100,4,1,0,100,0,1
57216,-100,4,1,0,100,0,0
64369,-45.4545454545455,4,1,0,100,0,0
64600,-100,4,1,0,100,0,0
71985,-100,4,1,0,100,0,1
83062,-90.9090909090909,4,1,0,100,0,1
83523,-83.3333333333333,4,1,0,100,0,1
83985,-76.9230769230769,4,1,0,100,0,1
84446,-71.4285714285714,4,1,0,100,0,1
84908,-66.6666666666667,4,1,0,100,0,1
85139,-62.5,4,1,0,100,0,1
85369,-58.8235294117647,4,1,0,100,0,1
85485,-55.5555555555556,4,1,0,100,0,1
85600,-52.6315789473684,4,1,0,100,0,1
85716,-50,4,1,0,100,0,1
85831,-47.6190476190476,4,1,0,100,0,0
86523,-142.857142857143,4,1,0,100,0,0
86754,-100,4,1,0,100,0,1
99908,-71.4285714285714,4,1,0,100,0,1
100139,-100,4,1,0,100,0,1
100369,-71.4285714285714,4,1,0,100,0,1
100600,-100,4,1,0,100,0,1
100831,-71.4285714285714,4,1,0,100,0,1
101062,-100,4,1,0,100,0,1
101293,-71.4285714285714,4,1,0,100,0,1
101523,-100,4,1,0,100,0,1
101754,-71.4285714285714,4,1,0,100,0,1
101985,-100,4,1,0,100,0,1
102216,-71.4285714285714,4,1,0,100,0,1
102446,-100,4,1,0,100,0,1
102677,-71.4285714285714,4,1,0,100,0,1
102908,-100,4,1,0,100,0,1
103139,-71.4285714285714,4,1,0,100,0,1
103369,-100,4,1,0,100,0,1
103600,-71.4285714285714,4,1,0,100,0,1
103831,-100,4,1,0,100,0,1
104062,-71.4285714285714,4,1,0,100,0,1
104292,-100,4,1,0,100,0,1
104523,-71.4285714285714,4,1,0,100,0,1
104754,-100,4,1,0,100,0,1
104992,-71.4285714285714,4,1,0,100,0,1
105100,-100,4,1,0,100,0,1
120504,-99.009900990099,4,1,0,100,0,1
120562,-98.0392156862745,4,1,0,100,0,1
120619,-95.2380952380952,4,1,0,100,0,1
120677,-92.5925925925926,4,1,0,100,0,1
120735,-90.0900900900901,4,1,0,100,0,1
120793,-87.719298245614,4,1,0,100,0,1
120850,-85.4700854700855,4,1,0,100,0,1
120908,-83.3333333333333,4,1,0,100,0,1

[HitObjects]
250,361,20293,5,4,0:0:0:0:
153,318,20408,1,0,0:0:0:0:
479,364,20523,1,2,0:0:0:0:
512,320,20581,1,0,0:0:0:0:
279,367,20754,1,0,0:0:0:0:
254,346,20812,1,0,0:0:0:0:
226,323,20869,1,2,0:0:0:0:
148,307,20985,1,0,0:0:0:0:
114,246,21100,1,2,0:0:0:0:
290,193,21216,5,0,0:0:0:0:
329,148,21331,1,0,0:0:0:0:
291,108,21446,1,2,0:0:0:0:
248,64,21562,1,0,0:0:0:0:
148,307,21677,1,0,0:0:0:0:
186,282,21735,1,0,0:0:0:0:
226,252,21793,1,2,0:0:0:0:
422,301,21908,1,0,0:0:0:0:
452,252,22023,1,2,0:0:0:0:
410,210,22139,1,4,0:0:0:0:
78,305,22254,1,0,0:0:0:0:
39,260,22369,1,0,0:0:0:0:
79,217,22485,1,2,0:0:0:0:
248,170,22600,1,2,0:0:0:0:
247,125,22658,1,2,0:0:0:0:
249,80,22716,5,0,0:0:0:0:
313,32,22831,1,0,0:0:0:0:
31,357,22946,1,2,0:0:0:0:
64,359,23062,1,0,0:0:0:0:
87,358,23177,1,0,0:0:0:0:
71,314,23293,1,2,0:0:0:0:
99,315,23408,1,0,0:0:0:0:
123,314,23523,1,2,0:0:0:0:
144,290,23581,1,2,0:0:0:0:
173,290,23639,1,2,0:0:0:0:
197,289,23696,1,2,0:0:0:0:
221,260,23754,1,0,0:0:0:0:
487,365,23869,1,2,0:0:0:0:
276,366,23985,1,0,0:0:0:0:
462,316,24100,1,0,0:0:0:0:
305,317,24216,1,2,0:0:0:0:
380,266,24331,5,0,0:0:0:0:
379,231,24389,1,0,0:0:0:0:
381,202,24446,1,2,0:0:0:0:
28,222,24562,1,0,0:0:0:0:
59,186,24677,1,2,0:0:0:0:
479,235,24793,1,2,0:0:0:0:
461,198,24908,1,0,0:0:0:0:
137,196,25023,1,0,0:0:0:0:
98,158,25081,1,0,0:0:0:0:
132,115,25139,1,2,0:0:0:0:
263,66,25254,1,2,0:0:0:0:
375,196,25369,1,2,0:0:0:0:
408,162,25427,1,2,0:0:0:0:
375,121,25485,1,0,0:0:0:0:
192,128,25600,1,2,0:0:0:0:
192,128,25716,1,0,0:0:0:0:
96,160,25831,5,0,0:0:0:0:
256,128,25985,1,0,0:0:0:0:
320,192,26062,1,0,0:0:0:0:
320,192,26216,1,2,0:0:0:0:
320,192,26293,1,0,0:0:0:0:
320,192,26446,1,0,0:0:0:0:
320,160,26639,1,6,0:0:0:0:
320,160,26869,1,6,0:0:0:0:
320,160,27100,1,6,0:0:0:0:
268,325,27446,1,0,0:0:0:0:
242,303,27504,1,0,0:0:0:0:
215,280,27562,1,2,0:0:0:0:
191,255,27619,1,2,0:0:0:0:
223,228,27677,1,0,0:0:0:0:
294,189,27793,5,0,0:0:0:0:
328,156,27908,1,2,0:0:0:0:
248,186,28023,1,0,0:0:0:0:
246,136,28081,1,0,0:0:0:0:
247,91,28139,1,0,0:0:0:0:
435,333,28254,1,0,0:0:0:0:
437,295,28369,1,2,0:0:0:0:
437,253,28485,1,2,0:0:0:0:
280,298,28600,1,0,0:0:0:0:
249,264,28658,1,0,0:0:0:0:
223,236,28716,1,0,0:0:0:0:
200,201,28773,1,0,0:0:0:0:
182,178,28831,1,2,0:0:0:0:
139,119,28946,1,0,0:0:0:0:
260,164,29062,1,0,0:0:0:0:
261,101,29177,1,2,0:0:0:0:
312,330,29293,5,2,0:0:0:0:
335,290,29350,1,0,0:0:0:0:
249,329,29408,1,2,0:0:0:0:
224,285,29466,1,2,0:0:0:0:
384,233,29523,1,0,0:0:0:0:
156,234,29639,1,0,0:0:0:0:
273,226,29754,1,2,0:0:0:0:
68,168,29869,1,0,0:0:0:0:
33,140,29927,1,0,0:0:0:0:
69,99,29985,1,0,0:0:0:0:
250,82,30100,1,0,0:0:0:0:
425,32,30216,1,2,0:0:0:0:
250,103,30331,1,2,0:0:0:0:
31,335,30446,5,2,0:0:0:0:
72,335,30504,1,0,0:0:0:0:
112,335,30562,1,0,0:0:0:0:
149,335,30619,1,0,0:0:0:0:
187,337,30677,1,2,0:0:0:0:
301,338,30793,1,0,0:0:0:0:
301,300,30850,1,0,0:0:0:0:
301,267,30908,1,2,0:0:0:0:
473,217,31023,1,0,0:0:0:0:
55,174,31139,1,6,0:0:0:0:
384,192,31369,1,2,0:0:0:0:
384,192,31427,1,2,0:0:0:0:
384,192,31485,1,2,0:0:0:0:
384,192,31543,1,2,0:0:0:0:
384,192,31600,1,0,0:0:0:0:
384,192,31716,1,2,0:0:0:0:
352,192,31831,5,0,0:0:0:0:
352,192,31946,1,0,0:0:0:0:
352,192,32004,1,0,0:0:0:0:
352,192,32062,1,2,0:0:0:0:
352,192,32119,1,2,0:0:0:0:
352,192,32177,1,0,0:0:0:0:
352,160,32293,1,2,0:0:0:0:
352,160,32408,1,0,0:0:0:0:
352,160,32466,1,0,0:0:0:0:
352,160,32523,1,2,0:0:0:0:
352,160,32639,1,0,0:0:0:0:
64,192,32754,1,6,0:0:0:0:
241,353,32985,5,2,0:0:0:0:
241,317,33043,1,2,0:0:0:0:
130,283,33100,1,0,0:0:0:0:
130,252,33158,1,0,0:0:0:0:
240,207,33216,1,2,0:0:0:0:
354,291,33331,1,0,0:0:0:0:
352,251,33389,1,0,0:0:0:0:
240,207,33446,1,2,0:0:0:0:
159,159,33562,1,2,0:0:0:0:
303,159,33677,1,0,0:0:0:0:
239,100,33793,1,2,0:0:0:0:
258,72,33850,1,2,0:0:0:0:
236,44,33908,1,0,0:0:0:0:
131,343,34023,5,2,0:0:0:0:
277,308,34139,1,0,0:0:0:0:
314,309,34196,1,0,0:0:0:0:
346,309,34254,1,0,0:0:0:0:
383,310,34312,1,0,0:0:0:0:
315,251,34369,1,2,0:0:0:0:
83,254,34485,1,0,0:0:0:0:
64,224,34543,1,0,0:0:0:0:
281,201,34716,1,6,0:0:0:0:
94,356,35062,1,0,0:0:0:0:
63,303,35177,1,0,0:0:0:0:
108,262,35293,1,2,0:0:0:0:
254,354,35408,5,0,0:0:0:0:
254,311,35466,1,0,0:0:0:0:
254,262,35523,1,2,0:0:0:0:
396,354,35639,1,2,0:0:0:0:
425,309,35754,1,0,0:0:0:0:
386,265,35869,1,2,0:0:0:0:
254,354,35985,1,2,0:0:0:0:
254,311,36043,1,2,0:0:0:0:
254,262,36100,1,0,0:0:0:0:
176,219,36216,1,0,0:0:0:0:
325,223,36331,1,2,0:0:0:0:
254,198,36446,5,0,0:0:0:0:
254,163,36504,1,0,0:0:0:0:
140,356,36562,1,0,0:0:0:0:
139,317,36619,1,0,0:0:0:0:
387,360,36677,1,2,0:0:0:0:
388,317,36735,1,2,0:0:0:0:
254,311,36793,1,2,0:0:0:0:
254,262,36850,1,2,0:0:0:0:
252,224,36908,1,0,0:0:0:0:
140,356,37023,1,2,0:0:0:0:
114,320,37081,1,2,0:0:0:0:
82,283,37139,1,0,0:0:0:0:
251,358,37254,1,2,0:0:0:0:
250,277,37369,1,0,0:0:0:0:
387,360,37485,1,2,0:0:0:0:
421,325,37543,1,2,0:0:0:0:
449,288,37600,1,0,0:0:0:0:
192,96,37716,1,2,0:0:0:0:
182,291,37831,5,0,0:0:0:0:
163,267,37889,1,2,0:0:0:0:
139,238,37946,1,2,0:0:0:0:
160,218,38004,1,2,0:0:0:0:
186,201,38062,1,0,0:0:0:0:
192,96,38177,1,2,0:0:0:0:
192,96,38293,1,0,0:0:0:0:
128,64,38350,1,0,0:0:0:0:
128,64,38408,1,0,0:0:0:0:
128,64,38523,1,6,0:0:0:0:
224,192,38754,1,0,0:0:0:0:
224,192,38869,1,0,0:0:0:0:
170,343,38985,1,2,0:0:0:0:
138,322,39043,1,0,0:0:0:0:
110,298,39100,1,0,0:0:0:0:
380,344,39216,5,0,0:0:0:0:
194,295,39331,1,0,0:0:0:0:
165,270,39389,1,0,0:0:0:0:
131,245,39446,1,2,0:0:0:0:
275,280,39562,1,2,0:0:0:0:
324,250,39677,1,0,0:0:0:0:
276,219,39793,1,2,0:0:0:0:
246,188,39850,1,2,0:0:0:0:
278,154,39908,1,0,0:0:0:0:
432,170,40023,1,2,0:0:0:0:
431,121,40139,1,0,0:0:0:0:
432,72,40254,1,2,0:0:0:0:
315,354,40369,1,2,0:0:0:0:
288,353,40427,1,0,0:0:0:0:
264,351,40485,1,2,0:0:0:0:
253,304,40543,1,2,0:0:0:0:
204,305,40600,1,0,0:0:0:0:
131,293,40716,5,2,0:0:0:0:
101,257,40773,1,0,0:0:0:0:
76,226,40831,1,2,0:0:0:0:
230,219,40946,1,2,0:0:0:0:
276,219,41062,1,0,0:0:0:0:
357,293,41177,1,2,0:0:0:0:
394,257,41235,1,0,0:0:0:0:
426,224,41293,1,2,0:0:0:0:
150,224,41408,1,0,0:0:0:0:
353,224,41523,1,6,0:0:0:0:
160,128,41985,1,4,0:0:0:0:
192,128,42100,1,4,0:0:0:0:
256,356,42331,5,6,0:0:0:0:
287,356,42446,1,0,0:0:0:0:
391,331,42562,1,2,0:0:0:0:
426,296,42619,1,2,0:0:0:0:
391,257,42677,1,0,0:0:0:0:
254,238,42793,1,0,0:0:0:0:
130,240,42908,1,2,0:0:0:0:
106,216,42966,1,2,0:0:0:0:
78,192,43023,1,0,0:0:0:0:
59,175,43081,1,0,0:0:0:0:
38,157,43139,1,2,0:0:0:0:
160,128,43254,1,2,0:0:0:0:
254,128,43369,5,0,0:0:0:0:
409,161,43485,1,2,0:0:0:0:
438,122,43543,1,2,0:0:0:0:
402,97,43600,1,0,0:0:0:0:
254,128,43716,1,2,0:0:0:0:
160,128,43831,1,0,0:0:0:0:
251,362,43946,1,0,0:0:0:0:
286,343,44004,1,0,0:0:0:0:
320,324,44062,1,2,0:0:0:0:
349,301,44119,1,2,0:0:0:0:
377,282,44177,1,0,0:0:0:0:
252,244,44293,1,0,0:0:0:0:
117,237,44408,1,0,0:0:0:0:
87,202,44466,1,0,0:0:0:0:
121,175,44523,1,2,0:0:0:0:
190,128,44639,5,2,0:0:0:0:
294,130,44754,1,0,0:0:0:0:
128,128,44869,1,0,0:0:0:0:
128,128,44927,1,0,0:0:0:0:
128,128,44985,1,2,0:0:0:0:
128,128,45100,1,0,0:0:0:0:
256,160,45216,1,2,0:0:0:0:
256,160,45273,1,2,0:0:0:0:
256,160,45331,1,2,0:0:0:0:
256,160,45389,1,2,0:0:0:0:
256,160,45446,1,0,0:0:0:0:
256,160,45504,1,2,0:0:0:0:
256,160,45562,1,0,0:0:0:0:
256,160,45619,1,0,0:0:0:0:
256,160,45677,1,2,0:0:0:0:
144,355,45793,5,0,0:0:0:0:
110,355,45850,1,0,0:0:0:0:
75,355,45908,1,2,0:0:0:0:
264,358,46023,1,0,0:0:0:0:
385,355,46139,1,0,0:0:0:0:
416,355,46196,1,0,0:0:0:0:
452,356,46254,1,0,0:0:0:0:
452,304,46312,1,0,0:0:0:0:
413,303,46369,1,2,0:0:0:0:
265,296,46485,1,0,0:0:0:0:
213,250,46600,1,2,0:0:0:0:
87,205,46716,1,2,0:0:0:0:
88,158,46773,1,2,0:0:0:0:
88,116,46831,1,0,0:0:0:0:
256,160,46946,5,2,0:0:0:0:
256,128,47062,1,0,0:0:0:0:
409,209,47177,1,2,0:0:0:0:
409,168,47235,1,2,0:0:0:0:
409,128,47293,1,0,0:0:0:0:
274,358,47408,1,2,0:0:0:0:
188,353,47523,1,0,0:0:0:0:
167,333,47581,1,0,0:0:0:0:
150,311,47639,1,0,0:0:0:0:
128,291,47696,1,0,0:0:0:0:
111,271,47754,1,2,0:0:0:0:
143,253,47812,1,0,0:0:0:0:
166,240,47869,1,2,0:0:0:0:
186,231,47927,1,2,0:0:0:0:
212,221,47985,1,0,0:0:0:0:
294,218,48100,5,0,0:0:0:0:
364,220,48216,1,2,0:0:0:0:
363,155,48331,1,2,0:0:0:0:
351,142,48389,1,2,0:0:0:0:
323,118,48446,1,0,0:0:0:0:
308,102,48504,1,2,0:0:0:0:
292,86,48562,1,2,0:0:0:0:
317,69,48619,1,2,0:0:0:0:
341,56,48677,1,2,0:0:0:0:
365,44,48735,1,2,0:0:0:0:
391,33,48793,1,2,0:0:0:0:
361,11,48850,1,2,0:0:0:0:
397,0,48908,1,6,0:0:0:0:
216,348,49139,5,0,0:0:0:0:
181,306,49254,1,0,0:0:0:0:
232,237,49369,1,2,0:0:0:0:
120,149,49485,1,0,0:0:0:0:
354,187,49716,1,6,0:0:0:0:
147,352,50062,1,2,0:0:0:0:
97,293,50177,1,0,0:0:0:0:
67,267,50235,1,0,0:0:0:0:
97,224,50293,1,2,0:0:0:0:
185,202,50408,5,2,0:0:0:0:
120,149,50523,1,2,0:0:0:0:
93,128,50581,1,2,0:0:0:0:
69,108,50639,1,0,0:0:0:0:
95,79,50696,1,0,0:0:0:0:
127,58,50754,1,2,0:0:0:0:
400,294,50869,1,0,0:0:0:0:
426,261,50927,1,0,0:0:0:0:
396,233,50985,1,2,0:0:0:0:
309,203,51100,5,2,0:0:0:0:
393,168,51216,1,2,0:0:0:0:
424,149,51273,1,0,0:0:0:0:
386,125,51331,1,2,0:0:0:0:
426,101,51389,1,0,0:0:0:0:
379,84,51446,1,2,0:0:0:0:
258,48,51562,1,2,0:0:0:0:
253,362,51677,1,2,0:0:0:0:
255,321,51735,1,2,0:0:0:0:
254,280,51793,1,0,0:0:0:0:
442,223,51908,5,2,0:0:0:0:
171,231,52023,1,2,0:0:0:0:
149,209,52081,1,2,0:0:0:0:
67,146,52139,1,0,0:0:0:0:
53,131,52196,1,2,0:0:0:0:
96,160,52254,1,0,0:0:0:0:
122,91,52369,1,2,0:0:0:0:
242,96,52485,1,0,0:0:0:0:
371,163,52600,1,2,0:0:0:0:
390,146,52658,1,0,0:0:0:0:
411,124,52716,1,2,0:0:0:0:
128,96,52831,5,2,0:0:0:0:
128,96,52946,1,2,0:0:0:0:
128,96,53004,1,2,0:0:0:0:
128,96,53062,1,0,0:0:0:0:
192,32,53177,1,2,0:0:0:0:
128,96,53235,1,2,0:0:0:0:
160,32,53293,1,0,0:0:0:0:
128,96,53350,1,2,0:0:0:0:
128,96,53408,1,0,0:0:0:0:
160,96,53523,1,2,0:0:0:0:
160,96,53581,1,2,0:0:0:0:
160,96,53639,1,2,0:0:0:0:
160,96,53696,1,2,0:0:0:0:
160,96,53754,1,0,0:0:0:0:
160,96,53869,5,2,0:0:0:0:
192,128,53985,1,2,0:0:0:0:
192,128,54043,1,2,0:0:0:0:
192,128,54100,1,0,0:0:0:0:
192,128,54216,1,2,0:0:0:0:
416,128,54331,1,6,0:0:0:0:
416,128,54562,1,6,0:0:0:0:
416,128,54677,1,6,0:0:0:0:
224,64,54908,1,0,0:0:0:0:
224,64,54946,1,0,0:0:0:0:
224,64,54985,1,0,0:0:0:0:
224,64,55023,1,0,0:0:0:0:
160,128,55139,1,6,0:0:0:0:
224,160,55369,1,0,0:0:0:0:
224,160,55600,1,2,0:0:0:0:
256,192,55716,12,6,56639,0:0:0:0:
192,128,56754,5,4,0:0:0:0:
192,128,56985,1,6,0:0:0:0:
96,192,57331,1,0,0:0:0:0:
160,192,57446,1,2,0:0:0:0:
315,263,58023,1,0,0:0:0:0:
315,210,58081,1,0,0:0:0:0:
317,170,58158,1,2,0:0:0:0:
293,124,58244,1,2,0:0:0:0:
326,145,58273,1,0,0:0:0:0:
317,98,58331,1,2,0:0:0:0:
342,99,58369,5,0,0:0:0:0:
192,128,58927,1,0,0:0:0:0:
192,128,58966,1,2,0:0:0:0:
192,128,59004,1,2,0:0:0:0:
192,128,59043,1,0,0:0:0:0:
32,160,59139,1,0,0:0:0:0:
64,224,59206,1,0,0:0:0:0:
64,224,59293,1,2,0:0:0:0:
64,224,59350,1,0,0:0:0:0:
249,357,59696,5,2,0:0:0:0:
250,333,59754,1,2,0:0:0:0:
251,293,59812,1,0,0:0:0:0:
275,268,59908,1,0,0:0:0:0:
231,256,59985,1,0,0:0:0:0:
201,220,60062,1,2,0:0:0:0:
351,211,60119,1,2,0:0:0:0:
192,64,60446,1,2,0:0:0:0:
192,96,60562,1,2,0:0:0:0:
160,96,60677,5,2,0:0:0:0:
224,96,61023,1,2,0:0:0:0:
256,224,61067,1,2,0:0:0:0:
256,224,61110,1,2,0:0:0:0:
284,131,61153,1,0,0:0:0:0:
192,64,61254,1,0,0:0:0:0:
192,64,61312,1,2,0:0:0:0:
192,64,61600,1,0,0:0:0:0:
192,64,61716,1,0,0:0:0:0:
192,64,61831,1,2,0:0:0:0:
192,64,61903,1,0,0:0:0:0:
192,64,61946,1,0,0:0:0:0:
288,128,62004,1,0,0:0:0:0:
288,128,62033,1,0,0:0:0:0:
192,128,62062,5,2,0:0:0:0:
192,160,62523,1,0,0:0:0:0:
192,160,62581,1,2,0:0:0:0:
192,160,62639,1,2,0:0:0:0:
192,160,62696,1,2,0:0:0:0:
192,160,62783,1,2,0:0:0:0:
160,160,62869,1,0,0:0:0:0:
192,160,62927,1,2,0:0:0:0:
192,160,62985,1,2,0:0:0:0:
192,160,63043,1,2,0:0:0:0:
192,160,63129,1,2,0:0:0:0:
192,160,63216,5,0,0:0:0:0:
246,354,64369,5,6,0:0:0:0:
143,296,64600,1,0,0:0:0:0:
339,299,64716,1,0,0:0:0:0:
247,295,64831,1,2,0:0:0:0:
245,238,64946,1,0,0:0:0:0:
246,197,65004,1,0,0:0:0:0:
245,166,65062,1,0,0:0:0:0:
209,124,65177,1,0,0:0:0:0:
279,124,65293,1,2,0:0:0:0:
238,97,65408,5,0,0:0:0:0:
270,73,65466,1,0,0:0:0:0:
237,47,65523,1,0,0:0:0:0:
283,20,65639,1,2,0:0:0:0:
221,20,65754,1,2,0:0:0:0:
242,359,65869,1,0,0:0:0:0:
378,335,65985,1,0,0:0:0:0:
401,309,66043,1,2,0:0:0:0:
370,278,66100,1,0,0:0:0:0:
368,244,66216,1,2,0:0:0:0:
423,199,66331,1,0,0:0:0:0:
307,271,66446,1,0,0:0:0:0:
279,243,66504,1,0,0:0:0:0:
258,220,66562,1,0,0:0:0:0:
230,197,66619,1,0,0:0:0:0:
209,180,66677,5,2,0:0:0:0:
121,328,66793,1,0,0:0:0:0:
71,287,66908,1,0,0:0:0:0:
90,237,67023,1,0,0:0:0:0:
36,217,67081,1,0,0:0:0:0:
39,169,67139,1,2,0:0:0:0:
150,129,67254,1,2,0:0:0:0:
205,175,67369,1,0,0:0:0:0:
225,145,67427,1,0,0:0:0:0:
243,118,67485,1,0,0:0:0:0:
277,154,67543,1,0,0:0:0:0:
296,182,67600,1,2,0:0:0:0:
328,158,67658,1,2,0:0:0:0:
348,203,67716,1,2,0:0:0:0:
375,238,67773,1,2,0:0:0:0:
410,210,67831,1,0,0:0:0:0:
469,308,67946,1,0,0:0:0:0:
363,356,68062,5,6,0:0:0:0:
260,351,68293,1,0,0:0:0:0:
63,307,68408,1,2,0:0:0:0:
99,275,68523,1,2,0:0:0:0:
229,299,68639,1,0,0:0:0:0:
257,262,68696,1,0,0:0:0:0:
223,237,68754,1,2,0:0:0:0:
33,190,68869,1,2,0:0:0:0:
267,152,68985,1,0,0:0:0:0:
467,196,69100,5,2,0:0:0:0:
253,357,69216,1,2,0:0:0:0:
286,338,69273,1,2,0:0:0:0:
312,317,69331,1,2,0:0:0:0:
332,300,69389,1,2,0:0:0:0:
351,278,69446,1,0,0:0:0:0:
308,244,69562,1,2,0:0:0:0:
136,243,69677,1,0,0:0:0:0:
136,211,69735,1,2,0:0:0:0:
137,177,69793,1,0,0:0:0:0:
15,142,69908,5,2,0:0:0:0:
137,90,70023,1,0,0:0:0:0:
257,215,70139,1,0,0:0:0:0:
257,180,70196,1,0,0:0:0:0:
256,138,70254,1,2,0:0:0:0:
373,129,70369,1,2,0:0:0:0:
401,98,70427,1,2,0:0:0:0:
428,70,70485,1,0,0:0:0:0:
254,23,70600,1,2,0:0:0:0:
128,128,70716,5,2,0:0:0:0:
107,104,70773,1,2,0:0:0:0:
81,80,70831,1,0,0:0:0:0:
60,57,70889,1,0,0:0:0:0:
47,34,70946,1,2,0:0:0:0:
365,200,71062,1,2,0:0:0:0:
393,165,71119,1,2,0:0:0:0:
138,201,71177,1,0,0:0:0:0:
119,165,71235,1,0,0:0:0:0:
422,121,71293,1,2,0:0:0:0:
446,87,71350,1,0,0:0:0:0:
468,56,71408,1,2,0:0:0:0:
255,76,71523,1,6,0:0:0:0:
37,297,71754,5,0,0:0:0:0:
187,349,71985,1,0,0:0:0:0:
213,312,72043,1,0,0:0:0:0:
234,344,72100,1,0,0:0:0:0:
274,310,72158,1,0,0:0:0:0:
300,354,72216,1,2,0:0:0:0:
439,346,72331,1,0,0:0:0:0:
314,196,72446,1,0,0:0:0:0:
281,154,72504,1,0,0:0:0:0:
259,201,72562,1,2,0:0:0:0:
230,153,72619,1,2,0:0:0:0:
208,199,72677,1,0,0:0:0:0:
136,202,72793,5,2,0:0:0:0:
43,348,72908,1,0,0:0:0:0:
71,316,72966,1,0,0:0:0:0:
434,346,73023,1,0,0:0:0:0:
408,315,73081,1,0,0:0:0:0:
151,269,73139,1,2,0:0:0:0:
153,227,73196,1,0,0:0:0:0:
343,271,73254,1,2,0:0:0:0:
343,220,73312,1,2,0:0:0:0:
248,202,73369,1,0,0:0:0:0:
244,105,73485,1,2,0:0:0:0:
304,137,73600,5,6,0:0:0:0:
245,160,73831,1,0,0:0:0:0:
136,351,73946,1,0,0:0:0:0:
113,319,74004,1,0,0:0:0:0:
90,286,74062,1,2,0:0:0:0:
204,356,74177,1,2,0:0:0:0:
218,321,74235,1,0,0:0:0:0:
228,289,74293,1,2,0:0:0:0:
162,253,74408,1,2,0:0:0:0:
162,224,74466,1,2,0:0:0:0:
162,189,74523,1,0,0:0:0:0:
312,357,74639,5,0,0:0:0:0:
332,327,74696,1,0,0:0:0:0:
351,300,74754,1,2,0:0:0:0:
378,325,74812,1,2,0:0:0:0:
406,355,74869,1,0,0:0:0:0:
426,319,74927,1,0,0:0:0:0:
450,288,74985,1,2,0:0:0:0:
363,244,75100,1,2,0:0:0:0:
277,200,75216,1,0,0:0:0:0:
191,178,75331,1,0,0:0:0:0:
101,157,75446,1,6,0:0:0:0:
230,346,75677,5,0,0:0:0:0:
230,276,75793,1,0,0:0:0:0:
48,332,75908,1,2,0:0:0:0:
82,295,76023,1,2,0:0:0:0:
113,260,76139,1,0,0:0:0:0:
142,225,76254,1,2,0:0:0:0:
234,204,76369,1,0,0:0:0:0:
266,205,76427,1,2,0:0:0:0:
298,206,76485,1,2,0:0:0:0:
383,221,76600,1,2,0:0:0:0:
416,276,76716,1,0,0:0:0:0:
435,312,76773,1,0,0:0:0:0:
457,350,76831,1,2,0:0:0:0:
403,357,76946,1,0,0:0:0:0:
334,360,77062,5,2,0:0:0:0:
261,358,77177,1,0,0:0:0:0:
260,303,77293,1,2,0:0:0:0:
293,268,77350,1,2,0:0:0:0:
255,232,77408,1,0,0:0:0:0:
253,182,77523,1,0,0:0:0:0:
35,335,77754,1,0,0:0:0:0:
261,358,77908,1,0,0:0:0:0:
260,303,77985,1,2,0:0:0:0:
465,351,78216,5,0,0:0:0:0:
261,358,78369,1,0,0:0:0:0:
260,303,78446,1,2,0:0:0:0:
87,279,78600,1,2,0:0:0:0:
114,241,78677,1,0,0:0:0:0:
464,263,78831,1,2,0:0:0:0:
441,230,78908,1,2,0:0:0:0:
420,200,78985,1,0,0:0:0:0:
401,171,79062,1,0,0:0:0:0:
380,144,79139,1,6,0:0:0:0:
192,160,79369,5,0,0:0:0:0:
286,358,79485,1,0,0:0:0:0:
260,309,79600,1,2,0:0:0:0:
284,273,79716,1,2,0:0:0:0:
315,249,79831,1,0,0:0:0:0:
284,202,79946,1,2,0:0:0:0:
250,174,80062,1,0,0:0:0:0:
287,139,80177,1,2,0:0:0:0:
320,120,80293,1,0,0:0:0:0:
45,352,80408,1,0,0:0:0:0:
47,315,80466,1,0,0:0:0:0:
44,274,80523,1,2,0:0:0:0:
289,362,80639,5,2,0:0:0:0:
472,363,80754,1,0,0:0:0:0:
472,327,80812,1,2,0:0:0:0:
469,292,80869,1,2,0:0:0:0:
466,262,80927,1,2,0:0:0:0:
465,231,80985,1,0,0:0:0:0:
444,205,81100,1,2,0:0:0:0:
377,172,81216,1,0,0:0:0:0:
263,356,81331,1,2,0:0:0:0:
262,319,81389,1,2,0:0:0:0:
263,284,81446,1,0,0:0:0:0:
201,233,81562,1,2,0:0:0:0:
259,171,81677,1,0,0:0:0:0:
435,356,81793,1,2,0:0:0:0:
412,329,81850,1,2,0:0:0:0:
391,300,81908,1,0,0:0:0:0:
263,284,82023,5,2,0:0:0:0:
37,361,82139,1,0,0:0:0:0:
37,316,82196,1,0,0:0:0:0:
263,356,82254,1,0,0:0:0:0:
262,314,82312,1,0,0:0:0:0:
482,359,82369,1,0,0:0:0:0:
482,309,82427,1,0,0:0:0:0:
265,253,82485,1,0,0:0:0:0:
267,214,82543,1,0,0:0:0:0:
33,256,82600,1,2,0:0:0:0:
55,226,82658,1,2,0:0:0:0:
483,259,82716,1,2,0:0:0:0:
454,222,82773,1,2,0:0:0:0:
265,186,82831,5,2,0:0:0:0:
267,155,82889,1,2,0:0:0:0:
491,170,82946,1,2,0:0:0:0:
492,134,83004,1,2,0:0:0:0:
268,114,83062,1,0,0:0:0:0:
270,84,83119,1,2,0:0:0:0:
25,184,83177,1,2,0:0:0:0:
56,152,83235,1,2,0:0:0:0:
490,100,83293,1,2,0:0:0:0:
455,72,83350,1,2,0:0:0:0:
22,108,83408,1,2,0:0:0:0:
22,66,83466,1,2,0:0:0:0:
269,61,83523,1,0,0:0:0:0:
270,36,83581,1,2,0:0:0:0:
512,360,83639,1,2,0:0:0:0:
512,320,83696,1,2,0:0:0:0:
392,355,83754,1,2,0:0:0:0:
394,307,83812,1,2,0:0:0:0:
263,354,83869,1,2,0:0:0:0:
264,305,83927,1,2,0:0:0:0:
141,355,83985,1,0,0:0:0:0:
175,319,84043,5,2,0:0:0:0:
30,358,84100,1,2,0:0:0:0:
54,321,84158,1,2,0:0:0:0:
183,265,84216,1,2,0:0:0:0:
182,219,84273,1,2,0:0:0:0:
27,275,84331,1,2,0:0:0:0:
65,245,84389,1,2,0:0:0:0:
263,354,84446,1,0,0:0:0:0:
264,305,84504,1,2,0:0:0:0:
356,310,84562,1,2,0:0:0:0:
392,355,84619,1,2,0:0:0:0:
512,361,84677,5,2,0:0:0:0:
485,317,84735,1,2,0:0:0:0:
392,355,84793,1,2,0:0:0:0:
356,310,84850,1,2,0:0:0:0:
512,361,84908,1,0,0:0:0:0:
485,317,84966,1,2,0:0:0:0:
392,355,85023,1,2,0:0:0:0:
392,305,85081,1,2,0:0:0:0:
263,354,85139,1,0,0:0:0:0:
264,305,85196,1,2,0:0:0:0:
156,356,85254,1,2,0:0:0:0:
154,304,85312,5,2,0:0:0:0:
28,356,85369,1,0,0:0:0:0:
27,311,85427,1,2,0:0:0:0:
257,247,85485,1,0,0:0:0:0:
256,206,85543,1,2,0:0:0:0:
280,181,85600,1,0,0:0:0:0:
249,153,85658,1,2,0:0:0:0:
249,117,85716,1,0,0:0:0:0:
250,83,85773,1,2,0:0:0:0:
247,56,85831,1,4,0:0:0:0:
96,160,86523,5,6,0:0:0:0:
242,355,86754,1,0,0:0:0:0:
322,327,86869,1,0,0:0:0:0:
340,298,86927,1,0,0:0:0:0:
359,272,86985,1,2,0:0:0:0:
300,237,87100,1,2,0:0:0:0:
210,334,87216,1,2,0:0:0:0:
188,308,87273,1,2,0:0:0:0:
167,275,87331,1,2,0:0:0:0:
144,248,87389,1,2,0:0:0:0:
168,232,87446,1,0,0:0:0:0:
248,237,87562,5,2,0:0:0:0:
248,179,87677,1,0,0:0:0:0:
328,301,87793,1,2,0:0:0:0:
305,335,87850,1,2,0:0:0:0:
347,271,87908,1,0,0:0:0:0:
239,358,88023,1,2,0:0:0:0:
176,358,88139,1,0,0:0:0:0:
113,359,88254,1,6,0:0:0:0:
47,357,88369,1,6,0:0:0:0:
304,361,88600,5,0,0:0:0:0:
363,362,88658,1,0,0:0:0:0:
419,360,88716,1,2,0:0:0:0:
474,361,88773,1,2,0:0:0:0:
473,309,88831,1,0,0:0:0:0:
128,160,88946,1,2,0:0:0:0:
64,160,89062,1,0,0:0:0:0:
64,160,89177,1,2,0:0:0:0:
247,308,89293,1,2,0:0:0:0:
270,280,89350,1,0,0:0:0:0:
294,250,89408,1,2,0:0:0:0:
311,224,89466,1,2,0:0:0:0:
323,202,89523,1,0,0:0:0:0:
228,184,89639,5,2,0:0:0:0:
227,162,89696,1,2,0:0:0:0:
227,139,89754,1,0,0:0:0:0:
191,310,89869,1,2,0:0:0:0:
156,273,89985,1,0,0:0:0:0:
191,310,90100,1,6,0:0:0:0:
156,273,90216,1,6,0:0:0:0:
254,317,90446,5,0,0:0:0:0:
240,296,90504,1,0,0:0:0:0:
255,267,90562,1,2,0:0:0:0:
253,206,90677,1,0,0:0:0:0:
253,146,90793,1,2,0:0:0:0:
310,328,90908,1,2,0:0:0:0:
336,304,90966,1,2,0:0:0:0:
369,331,91023,1,2,0:0:0:0:
391,301,91081,1,2,0:0:0:0:
413,334,91139,1,0,0:0:0:0:
30,324,91254,5,2,0:0:0:0:
310,328,91369,1,0,0:0:0:0:
197,327,91485,1,0,0:0:0:0:
181,301,91543,1,0,0:0:0:0:
165,270,91600,1,2,0:0:0:0:
310,328,91716,1,2,0:0:0:0:
311,262,91831,1,0,0:0:0:0:
311,205,91946,1,6,0:0:0:0:
311,146,92062,1,6,0:0:0:0:
311,84,92177,1,0,0:0:0:0:
245,82,92293,1,0,0:0:0:0:
244,148,92408,5,2,0:0:0:0:
178,157,92523,1,0,0:0:0:0:
154,122,92581,1,0,0:0:0:0:
136,94,92639,1,0,0:0:0:0:
28,26,92754,1,2,0:0:0:0:
268,22,92869,1,0,0:0:0:0:
227,78,92985,1,0,0:0:0:0:
269,79,93043,1,0,0:0:0:0:
304,80,93100,1,0,0:0:0:0:
338,80,93158,1,0,0:0:0:0:
364,80,93216,1,2,0:0:0:0:
474,84,93331,5,2,0:0:0:0:
268,145,93446,1,0,0:0:0:0:
337,190,93562,1,2,0:0:0:0:
353,209,93619,1,2,0:0:0:0:
370,229,93677,1,0,0:0:0:0:
482,276,93793,1,6,0:0:0:0:
481,352,93908,1,6,0:0:0:0:
38,347,94139,1,0,0:0:0:0:
92,293,94254,1,0,0:0:0:0:
116,267,94312,1,0,0:0:0:0:
140,240,94369,1,2,0:0:0:0:
265,356,94485,5,2,0:0:0:0:
266,280,94600,1,0,0:0:0:0:
296,248,94658,1,0,0:0:0:0:
265,219,94716,1,0,0:0:0:0:
230,195,94773,1,0,0:0:0:0:
266,171,94831,1,2,0:0:0:0:
330,125,94946,1,0,0:0:0:0:
265,92,95062,1,2,0:0:0:0:
228,93,95119,1,2,0:0:0:0:
196,92,95177,1,0,0:0:0:0:
224,192,95293,5,2,0:0:0:0:
224,192,95408,1,0,0:0:0:0:
224,192,95523,1,0,0:0:0:0:
224,224,95639,1,6,0:0:0:0:
224,224,95754,1,6,0:0:0:0:
80,357,95985,1,0,0:0:0:0:
53,328,96043,1,2,0:0:0:0:
86,306,96100,1,0,0:0:0:0:
192,361,96216,1,2,0:0:0:0:
490,358,96331,5,0,0:0:0:0:
25,282,96446,1,2,0:0:0:0:
48,260,96504,1,2,0:0:0:0:
64,244,96562,1,0,0:0:0:0:
76,230,96619,1,2,0:0:0:0:
89,214,96677,1,2,0:0:0:0:
104,195,96735,1,2,0:0:0:0:
117,179,96793,1,0,0:0:0:0:
275,174,96908,1,2,0:0:0:0:
454,136,97023,1,0,0:0:0:0:
487,110,97081,1,0,0:0:0:0:
453,80,97139,1,0,0:0:0:0:
353,23,97254,5,2,0:0:0:0:
281,24,97369,1,0,0:0:0:0:
210,27,97485,1,6,0:0:0:0:
140,28,97600,1,6,0:0:0:0:
255,86,97831,1,0,0:0:0:0:
291,141,97946,1,0,0:0:0:0:
254,200,98062,1,2,0:0:0:0:
210,255,98177,1,0,0:0:0:0:
257,304,98293,1,2,0:0:0:0:
282,332,98350,1,2,0:0:0:0:
313,301,98408,1,2,0:0:0:0:
334,333,98466,1,2,0:0:0:0:
364,298,98523,1,0,0:0:0:0:
482,350,98639,5,2,0:0:0:0:
26,346,98754,1,0,0:0:0:0:
257,346,98869,1,0,0:0:0:0:
255,313,98927,1,0,0:0:0:0:
254,286,98985,1,2,0:0:0:0:
253,205,99100,1,2,0:0:0:0:
249,174,99158,1,2,0:0:0:0:
247,144,99216,1,0,0:0:0:0:
298,97,99331,1,6,0:0:0:0:
35,31,99446,1,6,0:0:0:0:
144,30,99677,5,0,0:0:0:0:
214,31,99793,1,0,0:0:0:0:
281,30,99908,1,6,0:0:0:0:
484,32,100139,1,0,0:0:0:0:
470,59,100196,1,0,0:0:0:0:
457,83,100254,1,0,0:0:0:0:
419,152,100369,1,6,0:0:0:0:
35,31,100600,1,0,0:0:0:0:
53,52,100658,1,2,0:0:0:0:
67,74,100716,1,2,0:0:0:0:
114,140,100831,5,6,0:0:0:0:
264,25,101062,1,2,0:0:0:0:
262,61,101119,1,2,0:0:0:0:
260,101,101177,1,0,0:0:0:0:
259,176,101293,1,6,0:0:0:0:
26,363,101523,1,0,0:0:0:0:
87,364,101639,1,0,0:0:0:0:
145,363,101754,1,6,0:0:0:0:
299,360,101985,1,0,0:0:0:0:
361,359,102100,1,2,0:0:0:0:
419,360,102216,1,6,0:0:0:0:
250,356,102446,5,2,0:0:0:0:
229,329,102504,1,2,0:0:0:0:
206,302,102562,1,0,0:0:0:0:
252,248,102677,1,6,0:0:0:0:
250,356,102908,1,2,0:0:0:0:
273,332,102966,1,0,0:0:0:0:
296,303,103023,1,2,0:0:0:0:
252,248,103139,1,6,0:0:0:0:
33,33,103369,1,0,0:0:0:0:
100,33,103485,1,0,0:0:0:0:
164,32,103600,1,6,0:0:0:0:
160,160,103831,5,0,0:0:0:0:
160,160,103946,1,2,0:0:0:0:
224,224,104062,1,6,0:0:0:0:
224,192,104293,1,2,0:0:0:0:
224,192,104350,1,2,0:0:0:0:
224,192,104408,1,0,0:0:0:0:
224,192,104466,1,0,0:0:0:0:
224,224,104523,1,6,0:0:0:0:
224,160,104754,1,2,0:0:0:0:
224,160,104812,1,0,0:0:0:0:
224,160,104869,1,0,0:0:0:0:
224,160,104927,1,0,0:0:0:0:
224,160,104985,1,6,0:0:0:0:
160,128,105100,1,6,0:0:0:0:
31,359,105446,5,6,0:0:0:0:
489,360,105677,1,6,0:0:0:0:
31,359,105908,1,0,0:0:0:0:
31,359,105946,5,0,0:0:0:0:
46,339,105985,1,0,0:0:0:0:
62,320,106023,1,0,0:0:0:0:
152,362,106139,1,6,0:0:0:0:
215,362,106254,1,0,0:0:0:0:
257,300,106369,1,0,0:0:0:0:
258,261,106427,1,0,0:0:0:0:
257,225,106485,1,2,0:0:0:0:
489,360,106600,1,0,0:0:0:0:
468,341,106658,5,2,0:0:0:0:
256,360,106773,1,2,0:0:0:0:
256,317,106831,1,0,0:0:0:0:
31,359,106946,1,2,0:0:0:0:
98,359,107062,1,0,0:0:0:0:
164,360,107177,1,0,0:0:0:0:
227,361,107293,5,2,0:0:0:0:
459,186,107408,1,0,0:0:0:0:
488,163,107466,1,0,0:0:0:0:
455,138,107523,1,2,0:0:0:0:
255,21,107639,1,2,0:0:0:0:
255,52,107696,1,2,0:0:0:0:
24,87,107812,1,0,0:0:0:0:
41,109,107869,1,2,0:0:0:0:
255,116,107985,1,0,0:0:0:0:
482,106,108100,5,0,0:0:0:0:
455,138,108158,1,0,0:0:0:0:
488,163,108216,1,2,0:0:0:0:
255,179,108331,1,0,0:0:0:0:
26,360,108446,1,2,0:0:0:0:
46,337,108504,1,2,0:0:0:0:
63,316,108562,1,0,0:0:0:0:
78,297,108619,1,2,0:0:0:0:
486,361,108735,1,2,0:0:0:0:
487,326,108793,1,0,0:0:0:0:
258,361,108908,1,0,0:0:0:0:
258,301,109023,1,2,0:0:0:0:
488,262,109196,5,0,0:0:0:0:
487,210,109254,1,2,0:0:0:0:
425,154,109369,1,0,0:0:0:0:
424,93,109485,1,2,0:0:0:0:
28,359,109600,1,0,0:0:0:0:
29,333,109658,1,0,0:0:0:0:
29,304,109716,1,0,0:0:0:0:
28,271,109773,1,0,0:0:0:0:
29,232,109831,1,0,0:0:0:0:
263,358,109946,1,2,0:0:0:0:
28,359,110062,1,0,0:0:0:0:
29,333,110119,1,0,0:0:0:0:
29,304,110177,1,2,0:0:0:0:
263,358,110293,5,0,0:0:0:0:
487,357,110408,1,2,0:0:0:0:
465,330,110466,1,0,0:0:0:0:
32,30,110581,1,0,0:0:0:0:
45,50,110639,1,2,0:0:0:0:
258,26,110754,1,0,0:0:0:0:
257,88,110869,1,2,0:0:0:0:
484,25,110985,1,0,0:0:0:0:
483,54,111043,1,0,0:0:0:0:
483,86,111100,1,2,0:0:0:0:
258,26,111216,5,0,0:0:0:0:
257,88,111331,1,2,0:0:0:0:
258,118,111389,1,0,0:0:0:0:
32,30,111504,1,2,0:0:0:0:
45,50,111562,1,2,0:0:0:0:
258,26,111677,1,0,0:0:0:0:
257,88,111793,1,2,0:0:0:0:
258,118,111850,1,2,0:0:0:0:
258,144,111908,1,0,0:0:0:0:
486,20,112023,1,2,0:0:0:0:
258,26,112139,1,0,0:0:0:0:
486,20,112254,5,2,0:0:0:0:
485,50,112312,1,2,0:0:0:0:
485,85,112369,1,0,0:0:0:0:
258,26,112485,1,2,0:0:0:0:
257,88,112600,1,0,0:0:0:0:
225,110,112658,1,0,0:0:0:0:
257,130,112716,1,0,0:0:0:0:
278,144,112773,1,0,0:0:0:0:
255,162,112831,1,2,0:0:0:0:
258,353,112946,5,0,0:0:0:0:
27,357,113062,1,0,0:0:0:0:
50,335,113119,1,0,0:0:0:0:
27,307,113177,1,2,0:0:0:0:
27,274,113235,1,2,0:0:0:0:
26,245,113293,1,0,0:0:0:0:
52,227,113350,1,2,0:0:0:0:
74,213,113408,1,2,0:0:0:0:
98,198,113466,1,2,0:0:0:0:
122,187,113523,1,0,0:0:0:0:
478,354,113639,5,2,0:0:0:0:
421,299,113754,1,0,0:0:0:0:
402,279,113812,1,0,0:0:0:0:
378,255,113869,1,2,0:0:0:0:
483,203,113985,1,0,0:0:0:0:
483,133,114100,1,2,0:0:0:0:
484,96,114158,1,2,0:0:0:0:
484,69,114216,1,0,0:0:0:0:
256,30,114331,1,2,0:0:0:0:
22,22,114446,1,0,0:0:0:0:
37,44,114504,1,0,0:0:0:0:
51,70,114562,1,0,0:0:0:0:
67,97,114619,1,0,0:0:0:0:
80,126,114677,1,2,0:0:0:0:
256,30,114793,5,0,0:0:0:0:
256,114,114908,1,2,0:0:0:0:
280,138,114966,1,0,0:0:0:0:
298,160,115023,1,0,0:0:0:0:
317,185,115081,1,0,0:0:0:0:
333,208,115139,1,2,0:0:0:0:
257,245,115254,1,0,0:0:0:0:
315,286,115369,1,2,0:0:0:0:
369,327,115485,1,0,0:0:0:0:
479,355,115600,1,2,0:0:0:0:
479,307,115658,1,2,0:0:0:0:
478,254,115716,1,0,0:0:0:0:
400,355,115831,1,2,0:0:0:0:
333,356,115946,5,0,0:0:0:0:
252,356,116062,1,2,0:0:0:0:
273,323,116119,1,0,0:0:0:0:
296,292,116177,1,0,0:0:0:0:
255,238,116293,1,2,0:0:0:0:
20,358,116408,1,0,0:0:0:0:
39,337,116466,1,0,0:0:0:0:
58,311,116523,1,2,0:0:0:0:
106,258,116639,1,0,0:0:0:0:
151,205,116754,5,2,0:0:0:0:
27,29,116869,1,0,0:0:0:0:
39,53,116927,1,0,0:0:0:0:
54,85,116985,1,2,0:0:0:0:
91,148,117100,1,2,0:0:0:0:
265,30,117216,1,0,0:0:0:0:
263,58,117273,1,0,0:0:0:0:
263,91,117331,1,2,0:0:0:0:
259,165,117446,1,0,0:0:0:0:
481,30,117562,5,2,0:0:0:0:
485,89,117677,1,2,0:0:0:0:
456,108,117735,1,2,0:0:0:0:
428,135,117793,1,2,0:0:0:0:
454,161,117850,1,2,0:0:0:0:
476,181,117908,1,0,0:0:0:0:
479,244,118023,1,2,0:0:0:0:
249,357,118139,1,0,0:0:0:0:
232,339,118196,1,0,0:0:0:0:
248,316,118254,1,2,0:0:0:0:
253,246,118369,5,0,0:0:0:0:
26,25,118485,1,2,0:0:0:0:
43,46,118543,1,2,0:0:0:0:
64,73,118600,1,0,0:0:0:0:
481,30,118658,1,0,0:0:0:0:
481,62,118716,1,2,0:0:0:0:
83,102,118831,1,0,0:0:0:0:
94,118,118889,1,0,0:0:0:0:
107,143,118946,1,2,0:0:0:0:
254,28,119062,1,0,0:0:0:0:
481,30,119177,1,2,0:0:0:0:
481,62,119235,1,2,0:0:0:0:
254,28,119293,1,0,0:0:0:0:
254,86,119408,5,2,0:0:0:0:
30,356,119523,1,0,0:0:0:0:
48,331,119581,1,0,0:0:0:0:
255,358,119639,1,0,0:0:0:0:
255,326,119696,1,0,0:0:0:0:
25,301,119754,1,2,0:0:0:0:
47,276,119812,1,2,0:0:0:0:
22,253,119869,1,0,0:0:0:0:
255,260,119985,1,6,0:0:0:0:
253,204,120100,1,0,0:0:0:0:
254,153,120216,1,6,0:0:0:0:
255,106,120331,1,0,0:0:0:0:
33,30,120446,5,2,0:0:0:0:
31,62,120504,1,2,0:0:0:0:
487,27,120562,1,2,0:0:0:0:
486,61,120619,1,2,0:0:0:0:
260,28,120677,1,0,0:0:0:0:
261,58,120735,1,0,0:0:0:0:
20,159,120793,1,0,0:0:0:0:
43,181,120850,1,0,0:0:0:0:
260,28,120908,1,2,0:0:0:0:
487,27,121023,5,0,0:0:0:0:
486,61,121081,1,0,0:0:0:0:
486,87,121139,1,2,0:0:0:0:
260,172,121254,1,0,0:0:0:0:
243,193,121312,1,0,0:0:0:0:
225,215,121369,1,0,0:0:0:0:
484,360,121485,1,0,0:0:0:0:
464,338,121543,1,0,0:0:0:0:
31,355,121600,1,2,0:0:0:0:
50,334,121658,1,2,0:0:0:0:
256,359,121716,1,0,0:0:0:0:
256,327,121773,1,0,0:0:0:0:
31,355,121831,1,2,0:0:0:0:
464,359,121946,5,2,0:0:0:0:
493,330,122004,1,2,0:0:0:0:
460,312,122062,1,0,0:0:0:0:
256,359,122177,1,0,0:0:0:0:
238,335,122235,1,0,0:0:0:0:
258,314,122293,1,2,0:0:0:0:
465,255,122408,1,0,0:0:0:0:
490,230,122466,1,0,0:0:0:0:
462,203,122523,1,2,0:0:0:0:
260,258,122639,5,2,0:0:0:0:
31,260,122754,1,2,0:0:0:0:
43,234,122812,1,0,0:0:0:0:
23,205,122869,1,0,0:0:0:0:
483,255,122927,1,0,0:0:0:0:
484,215,122985,1,2,0:0:0:0:
260,207,123100,1,2,0:0:0:0:
60,183,123216,1,0,0:0:0:0:
46,164,123273,1,0,0:0:0:0:
61,133,123331,1,0,0:0:0:0:
263,151,123446,5,2,0:0:0:0:
261,119,123504,1,0,0:0:0:0:
261,90,123562,1,0,0:0:0:0:
34,358,123677,1,2,0:0:0:0:
34,326,123735,1,0,0:0:0:0:
255,355,123793,1,0,0:0:0:0:
257,317,123850,1,0,0:0:0:0:
482,353,123908,1,2,0:0:0:0:
483,319,123966,1,0,0:0:0:0:
258,262,124023,1,0,0:0:0:0:
240,238,124081,1,0,0:0:0:0:
216,210,124139,1,2,0:0:0:0:
484,204,124196,1,2,0:0:0:0:
456,178,124254,1,0,0:0:0:0:
29,209,124312,1,0,0:0:0:0:
52,188,124369,1,2,0:0:0:0:
257,155,124427,1,2,0:0:0:0:
256,114,124485,1,2,0:0:0:0:
256,86,124543,1,2,0:0:0:0:
257,55,124600,5,0,0:0:0:0:
255,355,124716,1,0,0:0:0:0:
257,317,124773,1,0,0:0:0:0:
257,284,124831,1,2,0:0:0:0:
28,359,124946,1,2,0:0:0:0:
44,338,125004,1,2,0:0:0:0:
64,313,125062,1,0,0:0:0:0:
487,26,125177,1,2,0:0:0:0:
477,45,125235,1,2,0:0:0:0:
463,72,125293,1,0,0:0:0:0:
454,88,125350,1,0,0:0:0:0:
443,106,125408,1,0,0:0:0:0:
30,29,125466,1,0,0:0:0:0:
29,63,125523,5,2,0:0:0:0:
247,23,125639,1,2,0:0:0:0:
247,50,125696,1,2,0:0:0:0:
248,73,125754,1,0,0:0:0:0:
28,359,125869,1,0,0:0:0:0:
44,338,125927,1,0,0:0:0:0:
58,315,125985,1,2,0:0:0:0:
71,297,126043,1,2,0:0:0:0:
80,277,126100,1,0,0:0:0:0:
159,229,126216,1,2,0:0:0:0:
482,24,126331,1,0,0:0:0:0:
482,57,126389,1,0,0:0:0:0:
482,87,126446,1,2,0:0:0:0:
257,354,126562,5,2,0:0:0:0:
258,311,126619,1,2,0:0:0:0:
256,266,126677,1,0,0:0:0:0:
258,190,126793,1,2,0:0:0:0:
28,30,126908,1,0,0:0:0:0:
27,56,126966,1,0,0:0:0:0:
257,31,127023,1,2,0:0:0:0:
256,63,127081,1,0,0:0:0:0:
485,30,127139,1,2,0:0:0:0:
482,67,127196,1,2,0:0:0:0:
30,354,127254,1,0,0:0:0:0:
482,351,127312,1,0,0:0:0:0:
257,354,127369,1,6,0:0:0:0:
30,354,127543,1,6,0:0:0:0:
258,190,127716,5,6,0:0:0:0:
