osu file format v14

[General]
AudioFilename: 05-dj_laz-block_party(2)(2).mp3
AudioLeadIn: 2
PreviewTime: 100050
Countdown: 0
SampleSet: Normal
StackLeniency: 0.7
Mode: 3
LetterboxInBreaks: 0
SpecialStyle: 0
WidescreenStoryboard: 1

[Editor]
DistanceSpacing: 0.8
BeatDivisor: 4
GridSize: 8
TimelineZoom: 1

[Metadata]
Title:[3-BOSS] Block Party
TitleUnicode:[3-BOSS] Block Party
Artist:DJ Laz
ArtistUnicode:DJ Laz
Creator:Userbacker
Version:Convert (samurai7694)
Source:Rebound Dump Collection Megapack II
Tags:Stepmania rd2
BeatmapID:1385477
BeatmapSetID:653577

[Difficulty]
HPDrainRate:8
CircleSize:4
OverallDifficulty:9
ApproachRate:10
SliderMultiplier:1.4
SliderTickRate:1

[Events]
//Background and Video events
0,0,"background.jpg",0,0
//Break Periods
//Storyboard Layer 0 (Background)
//Storyboard Layer 1 (Fail)
//Storyboard Layer 2 (Pass)
//Storyboard Layer 3 (Foreground)
//Storyboard Sound Samples

[TimingPoints]
100,428.5714,4,1,0,0,1,0

[HitObjects]
64,192,100,5,0,0:0:0:0:
192,192,100,1,0,0:0:0:0:
448,192,100,1,0,0:0:0:0:
192,192,421,1,0,0:0:0:0:
448,192,421,1,0,0:0:0:0:
64,192,528,1,0,0:0:0:0:
320,192,635,1,0,0:0:0:0:
64,192,742,1,0,0:0:0:0:
192,192,742,1,0,0:0:0:0:
320,192,850,1,0,0:0:0:0:
192,192,957,1,0,0:0:0:0:
448,192,957,1,0,0:0:0:0:
448,192,1064,1,0,0:0:0:0:
192,192,1171,1,0,0:0:0:0:
64,192,1278,1,0,0:0:0:0:
320,192,1278,1,0,0:0:0:0:
64,192,1385,1,0,0:0:0:0:
448,192,1385,1,0,0:0:0:0:
320,192,1492,1,0,0:0:0:0:
64,192,1599,1,0,0:0:0:0:
192,192,1599,1,0,0:0:0:0:
448,192,1707,1,0,0:0:0:0:
64,192,1814,1,0,0:0:0:0:
320,192,1814,1,0,0:0:0:0:
448,192,1921,1,0,0:0:0:0:
192,192,2028,1,0,0:0:0:0:
64,192,2135,1,0,0:0:0:0:
320,192,2135,1,0,0:0:0:0:
448,192,2242,1,0,0:0:0:0:
192,192,2349,1,0,0:0:0:0:
320,192,2457,1,0,0:0:0:0:
448,192,2457,1,0,0:0:0:0:
192,192,2564,1,0,0:0:0:0:
64,192,2671,1,0,0:0:0:0:
320,192,2671,1,0,0:0:0:0:
64,192,2778,1,0,0:0:0:0:
320,192,2885,1,0,0:0:0:0:
192,192,2992,1,0,0:0:0:0:
448,192,2992,1,0,0:0:0:0:
64,192,3099,1,0,0:0:0:0:
448,192,3099,1,0,0:0:0:0:
192,192,3207,1,0,0:0:0:0:
320,192,3314,1,0,0:0:0:0:
448,192,3314,1,0,0:0:0:0:
64,192,3421,1,0,0:0:0:0:
192,192,3528,1,0,0:0:0:0:
448,192,3528,1,0,0:0:0:0:
64,192,3635,1,0,0:0:0:0:
320,192,3742,1,0,0:0:0:0:
192,192,3849,1,0,0:0:0:0:
448,192,3849,1,0,0:0:0:0:
64,192,3957,1,0,0:0:0:0:
320,192,4064,1,0,0:0:0:0:
64,192,4171,1,0,0:0:0:0:
192,192,4171,1,0,0:0:0:0:
320,192,4278,1,0,0:0:0:0:
192,192,4385,1,0,0:0:0:0:
448,192,4385,1,0,0:0:0:0:
448,192,4492,1,0,0:0:0:0:
192,192,4600,1,0,0:0:0:0:
64,192,4707,1,0,0:0:0:0:
320,192,4707,1,0,0:0:0:0:
64,192,4814,1,0,0:0:0:0:
448,192,4814,1,0,0:0:0:0:
320,192,4921,1,0,0:0:0:0:
64,192,5028,1,0,0:0:0:0:
192,192,5028,1,0,0:0:0:0:
448,192,5135,1,0,0:0:0:0:
64,192,5242,1,0,0:0:0:0:
320,192,5242,1,0,0:0:0:0:
448,192,5350,1,0,0:0:0:0:
192,192,5457,1,0,0:0:0:0:
64,192,5564,1,0,0:0:0:0:
320,192,5564,1,0,0:0:0:0:
448,192,5671,1,0,0:0:0:0:
192,192,5778,1,0,0:0:0:0:
320,192,5885,1,0,0:0:0:0:
448,192,5885,1,0,0:0:0:0:
192,192,5992,1,0,0:0:0:0:
64,192,6100,1,0,0:0:0:0:
320,192,6100,1,0,0:0:0:0:
64,192,6207,1,0,0:0:0:0:
192,192,6314,1,0,0:0:0:0:
320,192,6314,1,0,0:0:0:0:
192,192,6421,1,0,0:0:0:0:
448,192,6421,1,0,0:0:0:0:
64,192,6528,1,0,0:0:0:0:
448,192,6528,1,0,0:0:0:0:
64,192,6635,1,0,0:0:0:0:
192,192,6635,1,0,0:0:0:0:
320,192,6742,1,0,0:0:0:0:
448,192,6742,1,0,0:0:0:0:
64,192,6850,1,0,0:0:0:0:
192,192,6850,1,0,0:0:0:0:
64,192,6957,1,0,0:0:0:0:
448,192,6957,1,0,0:0:0:0:
192,192,7064,1,0,0:0:0:0:
448,192,7064,1,0,0:0:0:0:
320,192,7171,1,0,0:0:0:0:
64,192,7278,1,0,0:0:0:0:
192,192,7278,1,0,0:0:0:0:
64,192,7385,1,0,0:0:0:0:
448,192,7385,1,0,0:0:0:0:
192,192,7492,1,0,0:0:0:0:
320,192,7600,1,0,0:0:0:0:
448,192,7600,1,0,0:0:0:0:
64,192,7707,1,0,0:0:0:0:
192,192,7814,1,0,0:0:0:0:
448,192,7814,1,0,0:0:0:0:
192,192,7921,1,0,0:0:0:0:
64,192,8028,1,0,0:0:0:0:
192,192,8135,1,0,0:0:0:0:
448,192,8135,1,0,0:0:0:0:
320,192,8242,1,0,0:0:0:0:
448,192,8242,1,0,0:0:0:0:
192,192,8350,1,0,0:0:0:0:
64,192,8457,1,0,0:0:0:0:
320,192,8457,1,0,0:0:0:0:
320,192,8564,1,0,0:0:0:0:
64,192,8671,1,0,0:0:0:0:
448,192,8671,1,0,0:0:0:0:
64,192,8778,1,0,0:0:0:0:
320,192,8778,1,0,0:0:0:0:
192,192,8885,1,0,0:0:0:0:
320,192,8992,1,0,0:0:0:0:
448,192,8992,1,0,0:0:0:0:
64,192,9100,1,0,0:0:0:0:
448,192,9100,1,0,0:0:0:0:
320,192,9207,1,0,0:0:0:0:
64,192,9314,1,0,0:0:0:0:
192,192,9314,1,0,0:0:0:0:
448,192,9421,1,0,0:0:0:0:
64,192,9528,1,0,0:0:0:0:
320,192,9528,1,0,0:0:0:0:
320,192,9635,1,0,0:0:0:0:
448,192,9742,1,0,0:0:0:0:
64,192,9850,1,0,0:0:0:0:
320,192,9850,1,0,0:0:0:0:
64,192,9957,1,0,0:0:0:0:
192,192,9957,1,0,0:0:0:0:
320,192,10064,1,0,0:0:0:0:
192,192,10171,1,0,0:0:0:0:
448,192,10171,1,0,0:0:0:0:
192,192,10278,1,0,0:0:0:0:
64,192,10385,1,0,0:0:0:0:
448,192,10385,1,0,0:0:0:0:
192,192,10492,1,0,0:0:0:0:
448,192,10492,1,0,0:0:0:0:
320,192,10600,1,0,0:0:0:0:
64,192,10707,1,0,0:0:0:0:
192,192,10707,1,0,0:0:0:0:
64,192,10814,1,0,0:0:0:0:
448,192,10814,1,0,0:0:0:0:
192,192,10921,1,0,0:0:0:0:
320,192,11028,1,0,0:0:0:0:
448,192,11028,1,0,0:0:0:0:
64,192,11135,1,0,0:0:0:0:
192,192,11242,1,0,0:0:0:0:
448,192,11242,1,0,0:0:0:0:
192,192,11349,1,0,0:0:0:0:
64,192,11457,1,0,0:0:0:0:
192,192,11564,1,0,0:0:0:0:
448,192,11564,1,0,0:0:0:0:
320,192,11671,1,0,0:0:0:0:
448,192,11671,1,0,0:0:0:0:
192,192,11778,1,0,0:0:0:0:
64,192,11885,1,0,0:0:0:0:
320,192,11885,1,0,0:0:0:0:
320,192,11992,1,0,0:0:0:0:
448,192,12046,1,0,0:0:0:0:
64,192,12099,1,0,0:0:0:0:
192,192,12099,1,0,0:0:0:0:
64,192,12421,1,0,0:0:0:0:
192,192,12421,1,0,0:0:0:0:
64,192,12742,1,0,0:0:0:0:
192,192,12742,1,0,0:0:0:0:
320,192,12957,1,0,0:0:0:0:
448,192,12957,1,0,0:0:0:0:
320,192,13171,1,0,0:0:0:0:
448,192,13171,1,0,0:0:0:0:
64,192,13385,1,0,0:0:0:0:
192,192,13385,1,0,0:0:0:0:
320,192,13385,1,0,0:0:0:0:
448,192,13385,1,0,0:0:0:0:
64,192,13599,1,0,0:0:0:0:
192,192,13599,1,0,0:0:0:0:
64,192,13814,1,0,0:0:0:0:
320,192,13814,1,0,0:0:0:0:
448,192,13921,1,0,0:0:0:0:
320,192,14028,1,0,0:0:0:0:
192,192,14135,1,0,0:0:0:0:
64,192,14242,1,0,0:0:0:0:
320,192,14349,1,0,0:0:0:0:
64,192,14457,1,0,0:0:0:0:
448,192,14457,1,0,0:0:0:0:
192,192,14564,1,0,0:0:0:0:
320,192,14671,1,0,0:0:0:0:
448,192,14671,1,0,0:0:0:0:
448,192,14778,1,0,0:0:0:0:
192,192,14885,1,0,0:0:0:0:
448,192,14992,1,0,0:0:0:0:
192,192,15099,1,0,0:0:0:0:
320,192,15099,1,0,0:0:0:0:
192,192,15207,1,0,0:0:0:0:
64,192,15314,1,0,0:0:0:0:
320,192,15421,1,0,0:0:0:0:
448,192,15421,1,0,0:0:0:0:
192,192,15528,1,0,0:0:0:0:
448,192,15528,1,0,0:0:0:0:
64,192,15635,1,0,0:0:0:0:
192,192,15742,1,0,0:0:0:0:
320,192,15742,1,0,0:0:0:0:
320,192,15849,1,0,0:0:0:0:
448,192,15957,1,0,0:0:0:0:
192,192,16064,1,0,0:0:0:0:
448,192,16171,1,0,0:0:0:0:
320,192,16278,1,0,0:0:0:0:
192,192,16385,1,0,0:0:0:0:
448,192,16385,1,0,0:0:0:0:
64,192,16492,1,0,0:0:0:0:
320,192,16599,1,0,0:0:0:0:
64,192,16707,1,0,0:0:0:0:
64,192,16814,1,0,0:0:0:0:
192,192,16814,1,0,0:0:0:0:
320,192,16921,1,0,0:0:0:0:
192,192,17028,1,0,0:0:0:0:
448,192,17028,1,0,0:0:0:0:
192,192,17135,1,0,0:0:0:0:
64,192,17242,1,0,0:0:0:0:
320,192,17242,1,0,0:0:0:0:
448,192,17349,1,0,0:0:0:0:
64,192,17457,1,0,0:0:0:0:
192,192,17564,1,0,0:0:0:0:
320,192,17671,1,0,0:0:0:0:
192,192,17778,1,0,0:0:0:0:
64,192,17885,1,0,0:0:0:0:
320,192,17885,1,0,0:0:0:0:
448,192,17992,1,0,0:0:0:0:
64,192,18099,1,0,0:0:0:0:
448,192,18099,1,0,0:0:0:0:
192,192,18207,1,0,0:0:0:0:
320,192,18314,1,0,0:0:0:0:
448,192,18421,1,0,0:0:0:0:
192,192,18528,1,0,0:0:0:0:
320,192,18528,1,0,0:0:0:0:
192,192,18635,1,0,0:0:0:0:
64,192,18742,1,0,0:0:0:0:
192,192,18849,1,0,0:0:0:0:
320,192,18849,1,0,0:0:0:0:
192,192,18957,1,0,0:0:0:0:
448,192,18957,1,0,0:0:0:0:
64,192,19064,1,0,0:0:0:0:
448,192,19171,1,0,0:0:0:0:
64,192,19278,1,0,0:0:0:0:
320,192,19278,1,0,0:0:0:0:
64,192,19385,1,0,0:0:0:0:
192,192,19385,1,0,0:0:0:0:
320,192,19492,1,0,0:0:0:0:
192,192,19599,1,0,0:0:0:0:
448,192,19599,1,0,0:0:0:0:
64,192,19707,1,0,0:0:0:0:
192,192,19814,1,0,0:0:0:0:
448,192,19814,1,0,0:0:0:0:
64,192,19921,1,0,0:0:0:0:
320,192,19921,1,0,0:0:0:0:
192,192,20028,1,0,0:0:0:0:
64,192,20135,1,0,0:0:0:0:
320,192,20135,1,0,0:0:0:0:
192,192,20242,1,0,0:0:0:0:
448,192,20242,1,0,0:0:0:0:
320,192,20349,1,0,0:0:0:0:
64,192,20457,1,0,0:0:0:0:
448,192,20457,1,0,0:0:0:0:
320,192,20564,1,0,0:0:0:0:
64,192,20671,1,0,0:0:0:0:
448,192,20671,1,0,0:0:0:0:
320,192,20778,1,0,0:0:0:0:
192,192,20885,1,0,0:0:0:0:
64,192,20992,1,0,0:0:0:0:
448,192,20992,1,0,0:0:0:0:
192,192,21099,1,0,0:0:0:0:
320,192,21207,1,0,0:0:0:0:
64,192,21314,1,0,0:0:0:0:
448,192,21314,1,0,0:0:0:0:
320,192,21421,1,0,0:0:0:0:
64,192,21528,1,0,0:0:0:0:
192,192,21528,1,0,0:0:0:0:
320,192,21635,1,0,0:0:0:0:
64,192,21742,1,0,0:0:0:0:
448,192,21742,1,0,0:0:0:0:
320,192,21849,1,0,0:0:0:0:
64,192,21957,1,0,0:0:0:0:
192,192,21957,1,0,0:0:0:0:
320,192,22064,1,0,0:0:0:0:
64,192,22171,1,0,0:0:0:0:
448,192,22171,1,0,0:0:0:0:
320,192,22278,1,0,0:0:0:0:
64,192,22385,1,0,0:0:0:0:
192,192,22385,1,0,0:0:0:0:
320,192,22492,1,0,0:0:0:0:
448,192,22599,1,0,0:0:0:0:
64,192,22707,1,0,0:0:0:0:
192,192,22707,1,0,0:0:0:0:
448,192,22814,1,0,0:0:0:0:
320,192,22921,1,0,0:0:0:0:
64,192,23028,1,0,0:0:0:0:
192,192,23028,1,0,0:0:0:0:
192,192,23135,1,0,0:0:0:0:
320,192,23135,1,0,0:0:0:0:
64,192,23242,1,0,0:0:0:0:
448,192,23242,1,0,0:0:0:0:
320,192,23349,1,0,0:0:0:0:
64,192,23457,1,0,0:0:0:0:
192,192,23457,1,0,0:0:0:0:
320,192,23564,1,0,0:0:0:0:
64,192,23671,1,0,0:0:0:0:
448,192,23671,1,0,0:0:0:0:
320,192,23778,1,0,0:0:0:0:
64,192,23885,1,0,0:0:0:0:
192,192,23885,1,0,0:0:0:0:
320,192,23992,1,0,0:0:0:0:
64,192,24099,1,0,0:0:0:0:
448,192,24099,1,0,0:0:0:0:
192,192,24207,1,0,0:0:0:0:
320,192,24314,1,0,0:0:0:0:
64,192,24421,1,0,0:0:0:0:
448,192,24421,1,0,0:0:0:0:
320,192,24528,1,0,0:0:0:0:
192,192,24635,1,0,0:0:0:0:
64,192,24742,1,0,0:0:0:0:
448,192,24742,1,0,0:0:0:0:
192,192,24849,1,0,0:0:0:0:
320,192,24957,1,0,0:0:0:0:
448,192,24957,1,0,0:0:0:0:
192,192,25064,1,0,0:0:0:0:
64,192,25171,1,0,0:0:0:0:
448,192,25171,1,0,0:0:0:0:
192,192,25278,1,0,0:0:0:0:
320,192,25385,1,0,0:0:0:0:
448,192,25385,1,0,0:0:0:0:
192,192,25492,1,0,0:0:0:0:
64,192,25599,1,0,0:0:0:0:
448,192,25599,1,0,0:0:0:0:
320,192,25707,1,0,0:0:0:0:
64,192,25814,1,0,0:0:0:0:
192,192,25814,1,0,0:0:0:0:
448,192,25921,1,0,0:0:0:0:
320,192,26028,1,0,0:0:0:0:
64,192,26135,1,0,0:0:0:0:
192,192,26135,1,0,0:0:0:0:
448,192,26242,1,0,0:0:0:0:
320,192,26349,1,0,0:0:0:0:
64,192,26457,1,0,0:0:0:0:
192,192,26457,1,0,0:0:0:0:
448,192,26564,1,0,0:0:0:0:
64,192,26671,1,0,0:0:0:0:
192,192,26671,1,0,0:0:0:0:
320,192,26778,1,0,0:0:0:0:
448,192,26778,1,0,0:0:0:0:
64,192,26885,1,0,0:0:0:0:
192,192,26885,1,0,0:0:0:0:
320,192,26992,1,0,0:0:0:0:
448,192,26992,1,0,0:0:0:0:
64,192,27099,1,0,0:0:0:0:
192,192,27099,1,0,0:0:0:0:
448,192,27207,1,0,0:0:0:0:
64,192,27314,1,0,0:0:0:0:
320,192,27314,1,0,0:0:0:0:
448,192,27421,1,0,0:0:0:0:
64,192,27528,1,0,0:0:0:0:
192,192,27528,1,0,0:0:0:0:
320,192,27528,1,0,0:0:0:0:
448,192,27635,1,0,0:0:0:0:
64,192,27742,1,0,0:0:0:0:
192,192,27849,1,0,0:0:0:0:
320,192,27957,1,0,0:0:0:0:
448,192,27957,1,0,0:0:0:0:
192,192,28064,1,0,0:0:0:0:
64,192,28171,1,0,0:0:0:0:
448,192,28171,1,0,0:0:0:0:
320,192,28278,1,0,0:0:0:0:
64,192,28385,1,0,0:0:0:0:
192,192,28385,1,0,0:0:0:0:
448,192,28492,1,0,0:0:0:0:
64,192,28599,1,0,0:0:0:0:
192,192,28707,1,0,0:0:0:0:
320,192,28814,1,0,0:0:0:0:
448,192,28814,1,0,0:0:0:0:
192,192,28921,1,0,0:0:0:0:
64,192,29028,1,0,0:0:0:0:
320,192,29135,1,0,0:0:0:0:
448,192,29135,1,0,0:0:0:0:
64,192,29242,1,0,0:0:0:0:
192,192,29242,1,0,0:0:0:0:
320,192,29349,1,0,0:0:0:0:
64,192,29457,1,0,0:0:0:0:
448,192,29457,1,0,0:0:0:0:
192,192,29564,1,0,0:0:0:0:
320,192,29671,1,0,0:0:0:0:
448,192,29671,1,0,0:0:0:0:
192,192,29778,1,0,0:0:0:0:
64,192,29885,1,0,0:0:0:0:
320,192,29992,1,0,0:0:0:0:
64,192,30099,1,0,0:0:0:0:
192,192,30099,1,0,0:0:0:0:
320,192,30207,1,0,0:0:0:0:
64,192,30314,1,0,0:0:0:0:
192,192,30421,1,0,0:0:0:0:
320,192,30528,1,0,0:0:0:0:
448,192,30528,1,0,0:0:0:0:
192,192,30635,1,0,0:0:0:0:
64,192,30742,1,0,0:0:0:0:
320,192,30742,1,0,0:0:0:0:
320,192,30849,1,0,0:0:0:0:
64,192,30957,1,0,0:0:0:0:
448,192,30957,1,0,0:0:0:0:
192,192,31064,1,0,0:0:0:0:
448,192,31171,1,0,0:0:0:0:
320,192,31278,1,0,0:0:0:0:
64,192,31385,1,0,0:0:0:0:
192,192,31385,1,0,0:0:0:0:
320,192,31492,1,0,0:0:0:0:
320,192,31599,1,0,0:0:0:0:
448,192,31599,1,0,0:0:0:0:
192,192,31707,1,0,0:0:0:0:
64,192,31814,1,0,0:0:0:0:
448,192,31814,1,0,0:0:0:0:
192,192,31921,1,0,0:0:0:0:
448,192,32028,1,0,0:0:0:0:
320,192,32135,1,0,0:0:0:0:
64,192,32242,1,0,0:0:0:0:
192,192,32242,1,0,0:0:0:0:
320,192,32349,1,0,0:0:0:0:
448,192,32457,1,0,0:0:0:0:
192,192,32564,1,0,0:0:0:0:
320,192,32564,1,0,0:0:0:0:
64,192,32671,1,0,0:0:0:0:
448,192,32671,1,0,0:0:0:0:
192,192,32778,1,0,0:0:0:0:
448,192,32885,1,0,0:0:0:0:
320,192,32992,1,0,0:0:0:0:
64,192,33099,1,0,0:0:0:0:
192,192,33099,1,0,0:0:0:0:
320,192,33207,1,0,0:0:0:0:
448,192,33314,1,0,0:0:0:0:
192,192,33421,1,0,0:0:0:0:
64,192,33528,1,0,0:0:0:0:
448,192,33528,1,0,0:0:0:0:
192,192,33635,1,0,0:0:0:0:
320,192,33635,1,0,0:0:0:0:
448,192,33742,1,0,0:0:0:0:
192,192,33849,1,0,0:0:0:0:
320,192,33849,1,0,0:0:0:0:
64,192,33957,1,0,0:0:0:0:
192,192,33957,1,0,0:0:0:0:
320,192,34064,1,0,0:0:0:0:
192,192,34171,1,0,0:0:0:0:
448,192,34171,1,0,0:0:0:0:
192,192,34278,1,0,0:0:0:0:
64,192,34385,1,0,0:0:0:0:
320,192,34385,1,0,0:0:0:0:
192,192,34492,1,0,0:0:0:0:
448,192,34599,1,0,0:0:0:0:
192,192,34707,1,0,0:0:0:0:
320,192,34707,1,0,0:0:0:0:
64,192,34814,1,0,0:0:0:0:
320,192,34921,1,0,0:0:0:0:
192,192,35028,1,0,0:0:0:0:
448,192,35028,1,0,0:0:0:0:
64,192,35135,1,0,0:0:0:0:
320,192,35242,1,0,0:0:0:0:
448,192,35242,1,0,0:0:0:0:
192,192,35349,1,0,0:0:0:0:
64,192,35457,1,0,0:0:0:0:
320,192,35457,1,0,0:0:0:0:
448,192,35564,1,0,0:0:0:0:
64,192,35671,1,0,0:0:0:0:
192,192,35671,1,0,0:0:0:0:
448,192,35778,1,0,0:0:0:0:
192,192,35885,1,0,0:0:0:0:
320,192,35885,1,0,0:0:0:0:
64,192,35992,1,0,0:0:0:0:
192,192,36099,1,0,0:0:0:0:
448,192,36099,1,0,0:0:0:0:
320,192,36207,1,0,0:0:0:0:
64,192,36314,1,0,0:0:0:0:
192,192,36421,1,0,0:0:0:0:
320,192,36421,1,0,0:0:0:0:
448,192,36528,1,0,0:0:0:0:
64,192,36635,1,0,0:0:0:0:
192,192,36742,1,0,0:0:0:0:
448,192,36742,1,0,0:0:0:0:
64,192,36850,1,0,0:0:0:0:
448,192,36850,1,0,0:0:0:0:
64,192,36957,1,0,0:0:0:0:
320,192,36957,1,0,0:0:0:0:
192,192,37064,1,0,0:0:0:0:
320,192,37171,1,0,0:0:0:0:
448,192,37171,1,0,0:0:0:0:
64,192,37278,1,0,0:0:0:0:
192,192,37385,1,0,0:0:0:0:
448,192,37385,1,0,0:0:0:0:
320,192,37492,1,0,0:0:0:0:
64,192,37600,1,0,0:0:0:0:
192,192,37600,1,0,0:0:0:0:
448,192,37707,1,0,0:0:0:0:
64,192,37814,1,0,0:0:0:0:
320,192,37814,1,0,0:0:0:0:
192,192,37921,1,0,0:0:0:0:
448,192,38028,1,0,0:0:0:0:
192,192,38135,1,0,0:0:0:0:
320,192,38135,1,0,0:0:0:0:
64,192,38242,1,0,0:0:0:0:
448,192,38350,1,0,0:0:0:0:
64,192,38457,1,0,0:0:0:0:
320,192,38457,1,0,0:0:0:0:
192,192,38564,1,0,0:0:0:0:
320,192,38671,1,0,0:0:0:0:
448,192,38671,1,0,0:0:0:0:
64,192,38778,1,0,0:0:0:0:
192,192,38885,1,0,0:0:0:0:
448,192,38885,1,0,0:0:0:0:
320,192,38992,1,0,0:0:0:0:
64,192,39100,1,0,0:0:0:0:
192,192,39100,1,0,0:0:0:0:
448,192,39207,1,0,0:0:0:0:
192,192,39314,1,0,0:0:0:0:
320,192,39314,1,0,0:0:0:0:
64,192,39421,1,0,0:0:0:0:
320,192,39528,1,0,0:0:0:0:
448,192,39528,1,0,0:0:0:0:
320,192,39850,1,0,0:0:0:0:
448,192,39850,1,0,0:0:0:0:
320,192,40171,1,0,0:0:0:0:
448,192,40171,1,0,0:0:0:0:
64,192,40385,1,0,0:0:0:0:
192,192,40385,1,0,0:0:0:0:
64,192,40600,1,0,0:0:0:0:
192,192,40600,1,0,0:0:0:0:
64,192,40814,1,0,0:0:0:0:
192,192,40814,1,0,0:0:0:0:
192,192,41242,1,0,0:0:0:0:
448,192,41242,1,0,0:0:0:0:
448,192,41385,1,0,0:0:0:0:
448,192,41528,1,0,0:0:0:0:
192,192,41671,1,0,0:0:0:0:
448,192,41671,1,0,0:0:0:0:
448,192,41814,1,0,0:0:0:0:
448,192,41957,1,0,0:0:0:0:
192,192,42100,1,0,0:0:0:0:
448,192,42100,1,0,0:0:0:0:
64,192,42314,1,0,0:0:0:0:
320,192,42421,1,0,0:0:0:0:
192,192,42528,1,0,0:0:0:0:
320,192,42528,1,0,0:0:0:0:
448,192,42528,1,0,0:0:0:0:
64,192,42850,1,0,0:0:0:0:
320,192,42850,1,0,0:0:0:0:
448,192,42850,1,0,0:0:0:0:
64,192,42957,1,0,0:0:0:0:
192,192,42957,1,0,0:0:0:0:
320,192,42957,1,0,0:0:0:0:
448,192,42957,1,0,0:0:0:0:
320,192,43064,1,0,0:0:0:0:
64,192,43171,1,0,0:0:0:0:
192,192,43171,1,0,0:0:0:0:
64,192,43278,1,0,0:0:0:0:
448,192,43278,1,0,0:0:0:0:
192,192,43385,1,0,0:0:0:0:
448,192,43385,1,0,0:0:0:0:
320,192,43492,1,0,0:0:0:0:
64,192,43600,1,0,0:0:0:0:
192,192,43600,1,0,0:0:0:0:
64,192,43707,1,0,0:0:0:0:
320,192,43707,1,0,0:0:0:0:
448,192,43707,1,0,0:0:0:0:
192,192,43814,1,0,0:0:0:0:
320,192,43814,1,0,0:0:0:0:
448,192,43921,1,0,0:0:0:0:
64,192,44028,1,0,0:0:0:0:
320,192,44028,1,0,0:0:0:0:
64,192,44135,1,0,0:0:0:0:
192,192,44135,1,0,0:0:0:0:
192,192,44242,1,0,0:0:0:0:
320,192,44242,1,0,0:0:0:0:
448,192,44242,1,0,0:0:0:0:
64,192,44350,1,0,0:0:0:0:
192,192,44457,1,0,0:0:0:0:
448,192,44457,1,0,0:0:0:0:
64,192,44564,1,0,0:0:0:0:
320,192,44564,1,0,0:0:0:0:
448,192,44564,1,0,0:0:0:0:
64,192,44671,1,0,0:0:0:0:
320,192,44671,1,0,0:0:0:0:
192,192,44778,1,0,0:0:0:0:
320,192,44885,1,0,0:0:0:0:
448,192,44885,1,0,0:0:0:0:
192,192,44992,1,0,0:0:0:0:
64,192,45100,1,0,0:0:0:0:
320,192,45100,1,0,0:0:0:0:
448,192,45100,1,0,0:0:0:0:
192,192,45207,1,0,0:0:0:0:
320,192,45314,1,0,0:0:0:0:
448,192,45314,1,0,0:0:0:0:
64,192,45421,1,0,0:0:0:0:
192,192,45421,1,0,0:0:0:0:
448,192,45421,1,0,0:0:0:0:
192,192,45528,1,0,0:0:0:0:
320,192,45528,1,0,0:0:0:0:
64,192,45635,1,0,0:0:0:0:
192,192,45743,1,0,0:0:0:0:
448,192,45743,1,0,0:0:0:0:
320,192,45850,1,0,0:0:0:0:
448,192,45850,1,0,0:0:0:0:
64,192,45957,1,0,0:0:0:0:
192,192,45957,1,0,0:0:0:0:
320,192,45957,1,0,0:0:0:0:
448,192,46064,1,0,0:0:0:0:
64,192,46171,1,0,0:0:0:0:
320,192,46171,1,0,0:0:0:0:
64,192,46278,1,0,0:0:0:0:
192,192,46278,1,0,0:0:0:0:
448,192,46278,1,0,0:0:0:0:
64,192,46385,1,0,0:0:0:0:
320,192,46385,1,0,0:0:0:0:
448,192,46385,1,0,0:0:0:0:
320,192,46493,1,0,0:0:0:0:
64,192,46600,1,0,0:0:0:0:
192,192,46600,1,0,0:0:0:0:
64,192,46707,1,0,0:0:0:0:
448,192,46707,1,0,0:0:0:0:
192,192,46814,1,0,0:0:0:0:
448,192,46814,1,0,0:0:0:0:
320,192,46921,1,0,0:0:0:0:
64,192,47028,1,0,0:0:0:0:
192,192,47028,1,0,0:0:0:0:
64,192,47135,1,0,0:0:0:0:
320,192,47135,1,0,0:0:0:0:
448,192,47135,1,0,0:0:0:0:
192,192,47243,1,0,0:0:0:0:
320,192,47243,1,0,0:0:0:0:
448,192,47350,1,0,0:0:0:0:
64,192,47457,1,0,0:0:0:0:
320,192,47457,1,0,0:0:0:0:
64,192,47564,1,0,0:0:0:0:
192,192,47564,1,0,0:0:0:0:
192,192,47671,1,0,0:0:0:0:
320,192,47671,1,0,0:0:0:0:
448,192,47671,1,0,0:0:0:0:
64,192,47778,1,0,0:0:0:0:
192,192,47885,1,0,0:0:0:0:
448,192,47885,1,0,0:0:0:0:
192,192,47993,1,0,0:0:0:0:
64,192,48100,1,0,0:0:0:0:
320,192,48100,1,0,0:0:0:0:
448,192,48100,1,0,0:0:0:0:
192,192,48207,1,0,0:0:0:0:
320,192,48314,1,0,0:0:0:0:
448,192,48314,1,0,0:0:0:0:
192,192,48421,1,0,0:0:0:0:
64,192,48528,1,0,0:0:0:0:
320,192,48528,1,0,0:0:0:0:
448,192,48528,1,0,0:0:0:0:
192,192,48635,1,0,0:0:0:0:
64,192,48743,1,0,0:0:0:0:
320,192,48743,1,0,0:0:0:0:
192,192,48850,1,0,0:0:0:0:
320,192,48850,1,0,0:0:0:0:
320,192,48957,1,0,0:0:0:0:
448,192,48957,1,0,0:0:0:0:
64,192,49064,1,0,0:0:0:0:
448,192,49064,1,0,0:0:0:0:
192,192,49171,1,0,0:0:0:0:
320,192,49171,1,0,0:0:0:0:
320,192,49278,1,0,0:0:0:0:
448,192,49278,1,0,0:0:0:0:
64,192,49385,1,0,0:0:0:0:
192,192,49385,1,0,0:0:0:0:
320,192,49385,1,0,0:0:0:0:
448,192,49493,1,0,0:0:0:0:
64,192,49600,1,0,0:0:0:0:
320,192,49600,1,0,0:0:0:0:
64,192,49707,1,0,0:0:0:0:
192,192,49707,1,0,0:0:0:0:
448,192,49707,1,0,0:0:0:0:
64,192,49814,1,0,0:0:0:0:
320,192,49814,1,0,0:0:0:0:
448,192,49814,1,0,0:0:0:0:
192,192,49921,1,0,0:0:0:0:
64,192,50028,1,0,0:0:0:0:
320,192,50028,1,0,0:0:0:0:
448,192,50135,1,0,0:0:0:0:
64,192,50243,1,0,0:0:0:0:
192,192,50243,1,0,0:0:0:0:
448,192,50350,1,0,0:0:0:0:
64,192,50457,1,0,0:0:0:0:
192,192,50457,1,0,0:0:0:0:
64,192,50564,1,0,0:0:0:0:
192,192,50564,1,0,0:0:0:0:
320,192,50671,1,0,0:0:0:0:
448,192,50778,1,0,0:0:0:0:
192,192,50885,1,0,0:0:0:0:
320,192,50885,1,0,0:0:0:0:
64,192,50993,1,0,0:0:0:0:
320,192,50993,1,0,0:0:0:0:
64,192,51100,1,0,0:0:0:0:
448,192,51100,1,0,0:0:0:0:
448,192,51207,1,0,0:0:0:0:
192,192,51314,1,0,0:0:0:0:
320,192,51314,1,0,0:0:0:0:
192,192,51421,1,0,0:0:0:0:
448,192,51421,1,0,0:0:0:0:
64,192,51528,1,0,0:0:0:0:
448,192,51528,1,0,0:0:0:0:
64,192,51635,1,0,0:0:0:0:
192,192,51743,1,0,0:0:0:0:
320,192,51743,1,0,0:0:0:0:
64,192,51850,1,0,0:0:0:0:
320,192,51957,1,0,0:0:0:0:
448,192,51957,1,0,0:0:0:0:
192,192,52064,1,0,0:0:0:0:
320,192,52171,1,0,0:0:0:0:
448,192,52171,1,0,0:0:0:0:
320,192,52278,1,0,0:0:0:0:
448,192,52278,1,0,0:0:0:0:
192,192,52385,1,0,0:0:0:0:
64,192,52493,1,0,0:0:0:0:
320,192,52600,1,0,0:0:0:0:
448,192,52600,1,0,0:0:0:0:
192,192,52707,1,0,0:0:0:0:
448,192,52707,1,0,0:0:0:0:
64,192,52814,1,0,0:0:0:0:
448,192,52814,1,0,0:0:0:0:
320,192,52921,1,0,0:0:0:0:
64,192,53028,1,0,0:0:0:0:
192,192,53028,1,0,0:0:0:0:
64,192,53135,1,0,0:0:0:0:
320,192,53135,1,0,0:0:0:0:
64,192,53243,1,0,0:0:0:0:
448,192,53243,1,0,0:0:0:0:
192,192,53350,1,0,0:0:0:0:
320,192,53457,1,0,0:0:0:0:
448,192,53457,1,0,0:0:0:0:
192,192,53564,1,0,0:0:0:0:
64,192,53671,1,0,0:0:0:0:
320,192,53671,1,0,0:0:0:0:
448,192,53778,1,0,0:0:0:0:
64,192,53885,1,0,0:0:0:0:
320,192,53885,1,0,0:0:0:0:
64,192,53993,1,0,0:0:0:0:
320,192,53993,1,0,0:0:0:0:
192,192,54100,1,0,0:0:0:0:
64,192,54207,1,0,0:0:0:0:
320,192,54314,1,0,0:0:0:0:
448,192,54314,1,0,0:0:0:0:
192,192,54421,1,0,0:0:0:0:
320,192,54421,1,0,0:0:0:0:
64,192,54528,1,0,0:0:0:0:
192,192,54528,1,0,0:0:0:0:
448,192,54635,1,0,0:0:0:0:
64,192,54743,1,0,0:0:0:0:
192,192,54743,1,0,0:0:0:0:
192,192,54850,1,0,0:0:0:0:
320,192,54850,1,0,0:0:0:0:
64,192,54903,1,0,0:0:0:0:
320,192,54957,1,0,0:0:0:0:
448,192,54957,1,0,0:0:0:0:
320,192,55100,1,0,0:0:0:0:
448,192,55100,1,0,0:0:0:0:
320,192,55243,1,0,0:0:0:0:
448,192,55243,1,0,0:0:0:0:
320,192,55385,1,0,0:0:0:0:
448,192,55385,1,0,0:0:0:0:
320,192,55528,1,0,0:0:0:0:
448,192,55528,1,0,0:0:0:0:
320,192,55671,1,0,0:0:0:0:
448,192,55671,1,0,0:0:0:0:
64,192,55814,1,0,0:0:0:0:
192,192,55814,1,0,0:0:0:0:
64,192,55957,1,0,0:0:0:0:
192,192,55957,1,0,0:0:0:0:
64,192,56100,1,0,0:0:0:0:
192,192,56100,1,0,0:0:0:0:
64,192,56243,1,0,0:0:0:0:
320,192,56243,1,0,0:0:0:0:
448,192,56243,1,0,0:0:0:0:
64,192,56564,1,0,0:0:0:0:
192,192,56564,1,0,0:0:0:0:
320,192,56564,1,0,0:0:0:0:
64,192,56671,1,0,0:0:0:0:
192,192,56671,1,0,0:0:0:0:
320,192,56671,1,0,0:0:0:0:
448,192,56671,1,0,0:0:0:0:
448,192,56778,1,0,0:0:0:0:
192,192,56885,1,0,0:0:0:0:
320,192,56885,1,0,0:0:0:0:
192,192,56993,1,0,0:0:0:0:
64,192,57100,1,0,0:0:0:0:
320,192,57100,1,0,0:0:0:0:
448,192,57100,1,0,0:0:0:0:
192,192,57207,1,0,0:0:0:0:
320,192,57314,1,0,0:0:0:0:
448,192,57314,1,0,0:0:0:0:
64,192,57421,1,0,0:0:0:0:
448,192,57421,1,0,0:0:0:0:
64,192,57528,1,0,0:0:0:0:
192,192,57528,1,0,0:0:0:0:
320,192,57528,1,0,0:0:0:0:
448,192,57635,1,0,0:0:0:0:
192,192,57743,1,0,0:0:0:0:
320,192,57743,1,0,0:0:0:0:
192,192,57850,1,0,0:0:0:0:
448,192,57850,1,0,0:0:0:0:
64,192,57957,1,0,0:0:0:0:
320,192,57957,1,0,0:0:0:0:
448,192,57957,1,0,0:0:0:0:
192,192,58064,1,0,0:0:0:0:
320,192,58171,1,0,0:0:0:0:
448,192,58171,1,0,0:0:0:0:
64,192,58278,1,0,0:0:0:0:
192,192,58278,1,0,0:0:0:0:
320,192,58278,1,0,0:0:0:0:
64,192,58385,1,0,0:0:0:0:
448,192,58385,1,0,0:0:0:0:
192,192,58493,1,0,0:0:0:0:
320,192,58600,1,0,0:0:0:0:
448,192,58600,1,0,0:0:0:0:
64,192,58707,1,0,0:0:0:0:
192,192,58707,1,0,0:0:0:0:
448,192,58707,1,0,0:0:0:0:
64,192,58814,1,0,0:0:0:0:
320,192,58814,1,0,0:0:0:0:
448,192,58814,1,0,0:0:0:0:
192,192,58921,1,0,0:0:0:0:
320,192,59028,1,0,0:0:0:0:
448,192,59028,1,0,0:0:0:0:
192,192,59136,1,0,0:0:0:0:
448,192,59136,1,0,0:0:0:0:
64,192,59243,1,0,0:0:0:0:
192,192,59243,1,0,0:0:0:0:
320,192,59243,1,0,0:0:0:0:
448,192,59350,1,0,0:0:0:0:
192,192,59457,1,0,0:0:0:0:
320,192,59457,1,0,0:0:0:0:
64,192,59564,1,0,0:0:0:0:
192,192,59564,1,0,0:0:0:0:
64,192,59671,1,0,0:0:0:0:
320,192,59671,1,0,0:0:0:0:
448,192,59671,1,0,0:0:0:0:
192,192,59778,1,0,0:0:0:0:
320,192,59886,1,0,0:0:0:0:
448,192,59886,1,0,0:0:0:0:
64,192,59993,1,0,0:0:0:0:
192,192,59993,1,0,0:0:0:0:
320,192,59993,1,0,0:0:0:0:
192,192,60100,1,0,0:0:0:0:
448,192,60100,1,0,0:0:0:0:
320,192,60207,1,0,0:0:0:0:
64,192,60314,1,0,0:0:0:0:
320,192,60314,1,0,0:0:0:0:
64,192,60421,1,0,0:0:0:0:
192,192,60421,1,0,0:0:0:0:
448,192,60421,1,0,0:0:0:0:
64,192,60528,1,0,0:0:0:0:
320,192,60528,1,0,0:0:0:0:
448,192,60528,1,0,0:0:0:0:
192,192,60636,1,0,0:0:0:0:
64,192,60743,1,0,0:0:0:0:
448,192,60743,1,0,0:0:0:0:
320,192,60850,1,0,0:0:0:0:
448,192,60850,1,0,0:0:0:0:
64,192,60957,1,0,0:0:0:0:
192,192,60957,1,0,0:0:0:0:
320,192,60957,1,0,0:0:0:0:
448,192,61064,1,0,0:0:0:0:
64,192,61171,1,0,0:0:0:0:
320,192,61171,1,0,0:0:0:0:
192,192,61278,1,0,0:0:0:0:
320,192,61278,1,0,0:0:0:0:
64,192,61386,1,0,0:0:0:0:
320,192,61386,1,0,0:0:0:0:
448,192,61386,1,0,0:0:0:0:
192,192,61493,1,0,0:0:0:0:
64,192,61600,1,0,0:0:0:0:
448,192,61600,1,0,0:0:0:0:
192,192,61707,1,0,0:0:0:0:
320,192,61707,1,0,0:0:0:0:
64,192,61814,1,0,0:0:0:0:
192,192,61814,1,0,0:0:0:0:
320,192,61814,1,0,0:0:0:0:
448,192,61921,1,0,0:0:0:0:
320,192,62028,1,0,0:0:0:0:
448,192,62028,1,0,0:0:0:0:
192,192,62136,1,0,0:0:0:0:
64,192,62243,1,0,0:0:0:0:
192,192,62350,1,0,0:0:0:0:
320,192,62457,1,0,0:0:0:0:
448,192,62457,1,0,0:0:0:0:
448,192,62564,1,0,0:0:0:0:
320,192,62671,1,0,0:0:0:0:
448,192,62671,1,0,0:0:0:0:
192,192,62778,1,0,0:0:0:0:
320,192,62778,1,0,0:0:0:0:
64,192,62886,1,0,0:0:0:0:
448,192,62886,1,0,0:0:0:0:
64,192,62993,1,0,0:0:0:0:
320,192,62993,1,0,0:0:0:0:
64,192,63100,1,0,0:0:0:0:
192,192,63100,1,0,0:0:0:0:
448,192,63100,1,0,0:0:0:0:
320,192,63207,1,0,0:0:0:0:
64,192,63314,1,0,0:0:0:0:
192,192,63421,1,0,0:0:0:0:
320,192,63421,1,0,0:0:0:0:
448,192,63421,1,0,0:0:0:0:
64,192,63528,1,0,0:0:0:0:
448,192,63528,1,0,0:0:0:0:
64,192,63636,1,0,0:0:0:0:
192,192,63743,1,0,0:0:0:0:
320,192,63743,1,0,0:0:0:0:
320,192,63850,1,0,0:0:0:0:
64,192,63957,1,0,0:0:0:0:
192,192,63957,1,0,0:0:0:0:
448,192,63957,1,0,0:0:0:0:
320,192,64064,1,0,0:0:0:0:
64,192,64171,1,0,0:0:0:0:
192,192,64171,1,0,0:0:0:0:
64,192,64278,1,0,0:0:0:0:
448,192,64278,1,0,0:0:0:0:
192,192,64386,1,0,0:0:0:0:
320,192,64386,1,0,0:0:0:0:
448,192,64386,1,0,0:0:0:0:
64,192,64493,1,0,0:0:0:0:
192,192,64600,1,0,0:0:0:0:
320,192,64600,1,0,0:0:0:0:
64,192,64707,1,0,0:0:0:0:
320,192,64707,1,0,0:0:0:0:
64,192,64814,1,0,0:0:0:0:
192,192,64814,1,0,0:0:0:0:
448,192,64814,1,0,0:0:0:0:
320,192,64921,1,0,0:0:0:0:
64,192,65028,1,0,0:0:0:0:
192,192,65028,1,0,0:0:0:0:
192,192,65136,1,0,0:0:0:0:
320,192,65136,1,0,0:0:0:0:
448,192,65136,1,0,0:0:0:0:
64,192,65243,1,0,0:0:0:0:
448,192,65243,1,0,0:0:0:0:
320,192,65350,1,0,0:0:0:0:
64,192,65457,1,0,0:0:0:0:
192,192,65457,1,0,0:0:0:0:
64,192,65564,1,0,0:0:0:0:
320,192,65564,1,0,0:0:0:0:
448,192,65564,1,0,0:0:0:0:
64,192,65671,1,0,0:0:0:0:
192,192,65671,1,0,0:0:0:0:
448,192,65671,1,0,0:0:0:0:
320,192,65778,1,0,0:0:0:0:
64,192,65886,1,0,0:0:0:0:
192,192,65886,1,0,0:0:0:0:
64,192,65993,1,0,0:0:0:0:
320,192,65993,1,0,0:0:0:0:
192,192,66100,1,0,0:0:0:0:
320,192,66100,1,0,0:0:0:0:
448,192,66100,1,0,0:0:0:0:
64,192,66207,1,0,0:0:0:0:
192,192,66314,1,0,0:0:0:0:
320,192,66314,1,0,0:0:0:0:
320,192,66421,1,0,0:0:0:0:
448,192,66421,1,0,0:0:0:0:
64,192,66528,1,0,0:0:0:0:
192,192,66528,1,0,0:0:0:0:
448,192,66528,1,0,0:0:0:0:
320,192,66636,1,0,0:0:0:0:
64,192,66743,1,0,0:0:0:0:
192,192,66743,1,0,0:0:0:0:
192,192,66850,1,0,0:0:0:0:
320,192,66850,1,0,0:0:0:0:
448,192,66850,1,0,0:0:0:0:
64,192,66957,1,0,0:0:0:0:
320,192,66957,1,0,0:0:0:0:
192,192,67064,1,0,0:0:0:0:
192,192,67171,1,0,0:0:0:0:
448,192,67171,1,0,0:0:0:0:
64,192,67278,1,0,0:0:0:0:
320,192,67278,1,0,0:0:0:0:
448,192,67278,1,0,0:0:0:0:
64,192,67386,1,0,0:0:0:0:
192,192,67386,1,0,0:0:0:0:
448,192,67386,1,0,0:0:0:0:
320,192,67493,1,0,0:0:0:0:
64,192,67600,1,0,0:0:0:0:
448,192,67600,1,0,0:0:0:0:
64,192,67707,1,0,0:0:0:0:
192,192,67707,1,0,0:0:0:0:
192,192,67814,1,0,0:0:0:0:
320,192,67814,1,0,0:0:0:0:
448,192,67814,1,0,0:0:0:0:
64,192,67921,1,0,0:0:0:0:
192,192,68028,1,0,0:0:0:0:
448,192,68028,1,0,0:0:0:0:
192,192,68136,1,0,0:0:0:0:
320,192,68136,1,0,0:0:0:0:
64,192,68243,1,0,0:0:0:0:
192,192,68243,1,0,0:0:0:0:
448,192,68243,1,0,0:0:0:0:
320,192,68350,1,0,0:0:0:0:
64,192,68457,1,0,0:0:0:0:
448,192,68457,1,0,0:0:0:0:
192,192,68564,1,0,0:0:0:0:
320,192,68564,1,0,0:0:0:0:
64,192,68671,1,0,0:0:0:0:
448,192,68725,1,0,0:0:0:0:
64,192,68957,1,0,0:0:0:0:
448,192,68993,1,0,0:0:0:0:
64,192,69243,1,0,0:0:0:0:
448,192,69314,1,0,0:0:0:0:
64,192,69529,1,0,0:0:0:0:
192,192,69529,1,0,0:0:0:0:
64,192,69743,1,0,0:0:0:0:
192,192,69743,1,0,0:0:0:0:
64,192,69957,1,0,0:0:0:0:
192,192,69957,1,0,0:0:0:0:
192,192,70171,1,0,0:0:0:0:
320,192,70171,1,0,0:0:0:0:
64,192,70386,1,0,0:0:0:0:
320,192,70386,1,0,0:0:0:0:
448,192,70386,1,0,0:0:0:0:
192,192,70493,1,0,0:0:0:0:
320,192,70600,1,0,0:0:0:0:
192,192,70707,1,0,0:0:0:0:
64,192,70814,1,0,0:0:0:0:
448,192,70814,1,0,0:0:0:0:
192,192,70921,1,0,0:0:0:0:
320,192,71029,1,0,0:0:0:0:
192,192,71136,1,0,0:0:0:0:
64,192,71243,1,0,0:0:0:0:
448,192,71243,1,0,0:0:0:0:
192,192,71350,1,0,0:0:0:0:
320,192,71457,1,0,0:0:0:0:
192,192,71564,1,0,0:0:0:0:
64,192,71671,1,0,0:0:0:0:
448,192,71671,1,0,0:0:0:0:
192,192,71779,1,0,0:0:0:0:
320,192,71886,1,0,0:0:0:0:
192,192,71993,1,0,0:0:0:0:
64,192,72100,1,0,0:0:0:0:
448,192,72100,1,0,0:0:0:0:
192,192,72207,1,0,0:0:0:0:
320,192,72314,1,0,0:0:0:0:
192,192,72421,1,0,0:0:0:0:
64,192,72529,1,0,0:0:0:0:
448,192,72529,1,0,0:0:0:0:
192,192,72636,1,0,0:0:0:0:
320,192,72743,1,0,0:0:0:0:
192,192,72850,1,0,0:0:0:0:
64,192,72957,1,0,0:0:0:0:
448,192,72957,1,0,0:0:0:0:
192,192,73064,1,0,0:0:0:0:
320,192,73171,1,0,0:0:0:0:
192,192,73279,1,0,0:0:0:0:
64,192,73386,1,0,0:0:0:0:
448,192,73386,1,0,0:0:0:0:
192,192,73493,1,0,0:0:0:0:
320,192,73600,1,0,0:0:0:0:
192,192,73707,1,0,0:0:0:0:
64,192,73814,1,0,0:0:0:0:
320,192,73814,1,0,0:0:0:0:
448,192,74029,1,0,0:0:0:0:
192,192,74136,1,0,0:0:0:0:
64,192,74243,1,0,0:0:0:0:
192,192,74350,1,0,0:0:0:0:
320,192,74457,1,0,0:0:0:0:
192,192,74671,1,0,0:0:0:0:
448,192,74671,1,0,0:0:0:0:
448,192,74886,1,0,0:0:0:0:
64,192,75100,1,0,0:0:0:0:
320,192,75314,1,0,0:0:0:0:
448,192,75314,1,0,0:0:0:0:
192,192,75529,1,0,0:0:0:0:
448,192,75529,1,0,0:0:0:0:
192,192,75743,1,0,0:0:0:0:
64,192,75850,1,0,0:0:0:0:
448,192,75850,1,0,0:0:0:0:
320,192,75957,1,0,0:0:0:0:
64,192,76064,1,0,0:0:0:0:
192,192,76064,1,0,0:0:0:0:
320,192,76171,1,0,0:0:0:0:
448,192,76171,1,0,0:0:0:0:
64,192,76386,1,0,0:0:0:0:
192,192,76386,1,0,0:0:0:0:
192,192,76600,1,0,0:0:0:0:
320,192,76600,1,0,0:0:0:0:
448,192,76600,1,0,0:0:0:0:
64,192,76814,1,0,0:0:0:0:
448,192,76814,1,0,0:0:0:0:
64,192,77028,1,0,0:0:0:0:
192,192,77028,1,0,0:0:0:0:
64,192,77243,1,0,0:0:0:0:
320,192,77243,1,0,0:0:0:0:
448,192,77350,1,0,0:0:0:0:
320,192,77457,1,0,0:0:0:0:
192,192,77564,1,0,0:0:0:0:
64,192,77671,1,0,0:0:0:0:
320,192,77671,1,0,0:0:0:0:
448,192,77778,1,0,0:0:0:0:
320,192,77886,1,0,0:0:0:0:
192,192,77993,1,0,0:0:0:0:
64,192,78100,1,0,0:0:0:0:
320,192,78100,1,0,0:0:0:0:
448,192,78207,1,0,0:0:0:0:
320,192,78314,1,0,0:0:0:0:
192,192,78421,1,0,0:0:0:0:
64,192,78528,1,0,0:0:0:0:
320,192,78528,1,0,0:0:0:0:
448,192,78636,1,0,0:0:0:0:
320,192,78743,1,0,0:0:0:0:
192,192,78850,1,0,0:0:0:0:
64,192,78957,1,0,0:0:0:0:
320,192,78957,1,0,0:0:0:0:
448,192,79064,1,0,0:0:0:0:
320,192,79171,1,0,0:0:0:0:
192,192,79278,1,0,0:0:0:0:
64,192,79386,1,0,0:0:0:0:
320,192,79386,1,0,0:0:0:0:
448,192,79493,1,0,0:0:0:0:
320,192,79600,1,0,0:0:0:0:
192,192,79707,1,0,0:0:0:0:
64,192,79814,1,0,0:0:0:0:
320,192,79814,1,0,0:0:0:0:
448,192,79921,1,0,0:0:0:0:
320,192,80028,1,0,0:0:0:0:
192,192,80136,1,0,0:0:0:0:
64,192,80243,1,0,0:0:0:0:
320,192,80243,1,0,0:0:0:0:
448,192,80350,1,0,0:0:0:0:
320,192,80457,1,0,0:0:0:0:
192,192,80564,1,0,0:0:0:0:
64,192,80671,1,0,0:0:0:0:
320,192,80671,1,0,0:0:0:0:
448,192,80886,1,0,0:0:0:0:
192,192,80993,1,0,0:0:0:0:
64,192,81100,1,0,0:0:0:0:
192,192,81207,1,0,0:0:0:0:
320,192,81314,1,0,0:0:0:0:
448,192,81314,1,0,0:0:0:0:
192,192,81528,1,0,0:0:0:0:
320,192,81528,1,0,0:0:0:0:
448,192,81743,1,0,0:0:0:0:
64,192,81957,1,0,0:0:0:0:
192,192,82171,1,0,0:0:0:0:
320,192,82171,1,0,0:0:0:0:
64,192,82386,1,0,0:0:0:0:
320,192,82386,1,0,0:0:0:0:
192,192,82600,1,0,0:0:0:0:
320,192,82600,1,0,0:0:0:0:
64,192,82707,1,0,0:0:0:0:
192,192,82814,1,0,0:0:0:0:
448,192,82814,1,0,0:0:0:0:
320,192,82921,1,0,0:0:0:0:
64,192,83028,1,0,0:0:0:0:
192,192,83028,1,0,0:0:0:0:
64,192,83243,1,0,0:0:0:0:
192,192,83243,1,0,0:0:0:0:
448,192,83243,1,0,0:0:0:0:
192,192,83457,1,0,0:0:0:0:
64,192,83671,1,0,0:0:0:0:
320,192,83671,1,0,0:0:0:0:
448,192,83671,1,0,0:0:0:0:
320,192,83885,1,0,0:0:0:0:
192,192,84100,1,0,0:0:0:0:
448,192,84100,1,0,0:0:0:0:
192,192,84243,1,0,0:0:0:0:
448,192,84243,1,0,0:0:0:0:
192,192,84385,1,0,0:0:0:0:
448,192,84385,1,0,0:0:0:0:
192,192,84528,1,0,0:0:0:0:
448,192,84528,1,0,0:0:0:0:
192,192,84671,1,0,0:0:0:0:
448,192,84671,1,0,0:0:0:0:
192,192,84814,1,0,0:0:0:0:
448,192,84814,1,0,0:0:0:0:
64,192,84957,1,0,0:0:0:0:
320,192,84957,1,0,0:0:0:0:
64,192,85100,1,0,0:0:0:0:
320,192,85100,1,0,0:0:0:0:
64,192,85243,1,0,0:0:0:0:
320,192,85243,1,0,0:0:0:0:
64,192,85385,1,0,0:0:0:0:
320,192,85385,1,0,0:0:0:0:
64,192,85528,1,0,0:0:0:0:
320,192,85528,1,0,0:0:0:0:
64,192,85671,1,0,0:0:0:0:
320,192,85671,1,0,0:0:0:0:
192,192,85814,1,0,0:0:0:0:
448,192,85814,1,0,0:0:0:0:
192,192,85957,1,0,0:0:0:0:
448,192,85957,1,0,0:0:0:0:
192,192,86100,1,0,0:0:0:0:
448,192,86100,1,0,0:0:0:0:
192,192,86243,1,0,0:0:0:0:
448,192,86243,1,0,0:0:0:0:
192,192,86386,1,0,0:0:0:0:
448,192,86386,1,0,0:0:0:0:
192,192,86528,1,0,0:0:0:0:
448,192,86528,1,0,0:0:0:0:
64,192,86671,1,0,0:0:0:0:
320,192,86671,1,0,0:0:0:0:
64,192,87100,1,0,0:0:0:0:
192,192,87100,1,0,0:0:0:0:
448,192,87100,1,0,0:0:0:0:
192,192,87528,1,0,0:0:0:0:
320,192,87528,1,0,0:0:0:0:
64,192,87636,1,0,0:0:0:0:
448,192,87743,1,0,0:0:0:0:
64,192,87850,1,0,0:0:0:0:
320,192,87957,1,0,0:0:0:0:
448,192,87957,1,0,0:0:0:0:
64,192,88064,1,0,0:0:0:0:
192,192,88171,1,0,0:0:0:0:
320,192,88171,1,0,0:0:0:0:
448,192,88278,1,0,0:0:0:0:
192,192,88386,1,0,0:0:0:0:
448,192,88386,1,0,0:0:0:0:
64,192,88493,1,0,0:0:0:0:
320,192,88600,1,0,0:0:0:0:
64,192,88707,1,0,0:0:0:0:
448,192,88707,1,0,0:0:0:0:
192,192,88814,1,0,0:0:0:0:
448,192,88814,1,0,0:0:0:0:
64,192,88921,1,0,0:0:0:0:
320,192,89028,1,0,0:0:0:0:
448,192,89028,1,0,0:0:0:0:
192,192,89135,1,0,0:0:0:0:
320,192,89135,1,0,0:0:0:0:
64,192,89243,1,0,0:0:0:0:
448,192,89243,1,0,0:0:0:0:
192,192,89350,1,0,0:0:0:0:
448,192,89350,1,0,0:0:0:0:
320,192,89457,1,0,0:0:0:0:
192,192,89564,1,0,0:0:0:0:
448,192,89564,1,0,0:0:0:0:
64,192,89671,1,0,0:0:0:0:
448,192,89671,1,0,0:0:0:0:
320,192,89778,1,0,0:0:0:0:
64,192,89885,1,0,0:0:0:0:
192,192,89885,1,0,0:0:0:0:
192,192,89993,1,0,0:0:0:0:
320,192,89993,1,0,0:0:0:0:
192,192,90100,1,0,0:0:0:0:
448,192,90100,1,0,0:0:0:0:
64,192,90207,1,0,0:0:0:0:
448,192,90207,1,0,0:0:0:0:
320,192,90314,1,0,0:0:0:0:
64,192,90421,1,0,0:0:0:0:
448,192,90421,1,0,0:0:0:0:
192,192,90528,1,0,0:0:0:0:
448,192,90528,1,0,0:0:0:0:
64,192,90635,1,0,0:0:0:0:
320,192,90743,1,0,0:0:0:0:
448,192,90743,1,0,0:0:0:0:
192,192,90850,1,0,0:0:0:0:
320,192,90850,1,0,0:0:0:0:
64,192,90957,1,0,0:0:0:0:
448,192,90957,1,0,0:0:0:0:
192,192,91064,1,0,0:0:0:0:
448,192,91064,1,0,0:0:0:0:
320,192,91171,1,0,0:0:0:0:
192,192,91278,1,0,0:0:0:0:
448,192,91278,1,0,0:0:0:0:
64,192,91385,1,0,0:0:0:0:
448,192,91385,1,0,0:0:0:0:
192,192,91493,1,0,0:0:0:0:
320,192,91493,1,0,0:0:0:0:
64,192,91600,1,0,0:0:0:0:
320,192,91600,1,0,0:0:0:0:
192,192,91707,1,0,0:0:0:0:
320,192,91707,1,0,0:0:0:0:
192,192,91814,1,0,0:0:0:0:
448,192,91814,1,0,0:0:0:0:
64,192,91921,1,0,0:0:0:0:
448,192,91921,1,0,0:0:0:0:
320,192,92028,1,0,0:0:0:0:
64,192,92135,1,0,0:0:0:0:
448,192,92135,1,0,0:0:0:0:
192,192,92243,1,0,0:0:0:0:
448,192,92243,1,0,0:0:0:0:
64,192,92350,1,0,0:0:0:0:
192,192,92350,1,0,0:0:0:0:
64,192,92457,1,0,0:0:0:0:
448,192,92457,1,0,0:0:0:0:
320,192,92564,1,0,0:0:0:0:
448,192,92564,1,0,0:0:0:0:
64,192,92671,1,0,0:0:0:0:
192,192,92671,1,0,0:0:0:0:
64,192,92778,1,0,0:0:0:0:
448,192,92778,1,0,0:0:0:0:
320,192,92885,1,0,0:0:0:0:
448,192,92885,1,0,0:0:0:0:
192,192,92993,1,0,0:0:0:0:
320,192,92993,1,0,0:0:0:0:
64,192,93100,1,0,0:0:0:0:
320,192,93100,1,0,0:0:0:0:
64,192,93207,1,0,0:0:0:0:
192,192,93207,1,0,0:0:0:0:
192,192,93314,1,0,0:0:0:0:
448,192,93314,1,0,0:0:0:0:
64,192,93421,1,0,0:0:0:0:
448,192,93421,1,0,0:0:0:0:
64,192,93528,1,0,0:0:0:0:
320,192,93528,1,0,0:0:0:0:
192,192,93635,1,0,0:0:0:0:
320,192,93635,1,0,0:0:0:0:
192,192,93743,1,0,0:0:0:0:
448,192,93743,1,0,0:0:0:0:
64,192,93850,1,0,0:0:0:0:
448,192,93850,1,0,0:0:0:0:
64,192,93957,1,0,0:0:0:0:
320,192,93957,1,0,0:0:0:0:
192,192,94064,1,0,0:0:0:0:
320,192,94064,1,0,0:0:0:0:
192,192,94171,1,0,0:0:0:0:
448,192,94171,1,0,0:0:0:0:
64,192,94278,1,0,0:0:0:0:
448,192,94278,1,0,0:0:0:0:
64,192,94385,1,0,0:0:0:0:
192,192,94385,1,0,0:0:0:0:
320,192,94385,1,0,0:0:0:0:
448,192,94385,1,0,0:0:0:0:
320,192,94493,1,0,0:0:0:0:
192,192,94600,1,0,0:0:0:0:
64,192,94707,1,0,0:0:0:0:
192,192,94814,1,0,0:0:0:0:
320,192,94814,1,0,0:0:0:0:
448,192,94814,1,0,0:0:0:0:
64,192,94921,1,0,0:0:0:0:
192,192,95028,1,0,0:0:0:0:
448,192,95028,1,0,0:0:0:0:
64,192,95135,1,0,0:0:0:0:
320,192,95135,1,0,0:0:0:0:
448,192,95135,1,0,0:0:0:0:
64,192,95243,1,0,0:0:0:0:
192,192,95243,1,0,0:0:0:0:
320,192,95243,1,0,0:0:0:0:
448,192,95350,1,0,0:0:0:0:
192,192,95457,1,0,0:0:0:0:
64,192,95564,1,0,0:0:0:0:
320,192,95564,1,0,0:0:0:0:
192,192,95671,1,0,0:0:0:0:
320,192,95671,1,0,0:0:0:0:
448,192,95671,1,0,0:0:0:0:
64,192,95778,1,0,0:0:0:0:
192,192,95778,1,0,0:0:0:0:
192,192,95885,1,0,0:0:0:0:
320,192,95885,1,0,0:0:0:0:
64,192,95992,1,0,0:0:0:0:
448,192,95992,1,0,0:0:0:0:
64,192,96100,1,0,0:0:0:0:
192,192,96100,1,0,0:0:0:0:
320,192,96100,1,0,0:0:0:0:
448,192,96207,1,0,0:0:0:0:
64,192,96314,1,0,0:0:0:0:
320,192,96314,1,0,0:0:0:0:
192,192,96421,1,0,0:0:0:0:
192,192,96528,1,0,0:0:0:0:
320,192,96528,1,0,0:0:0:0:
448,192,96528,1,0,0:0:0:0:
64,192,96635,1,0,0:0:0:0:
192,192,96742,1,0,0:0:0:0:
64,192,96850,1,0,0:0:0:0:
320,192,96850,1,0,0:0:0:0:
448,192,96850,1,0,0:0:0:0:
64,192,96957,1,0,0:0:0:0:
192,192,96957,1,0,0:0:0:0:
320,192,96957,1,0,0:0:0:0:
192,192,97064,1,0,0:0:0:0:
448,192,97064,1,0,0:0:0:0:
320,192,97171,1,0,0:0:0:0:
64,192,97278,1,0,0:0:0:0:
448,192,97278,1,0,0:0:0:0:
192,192,97385,1,0,0:0:0:0:
320,192,97385,1,0,0:0:0:0:
448,192,97385,1,0,0:0:0:0:
64,192,97492,1,0,0:0:0:0:
320,192,97492,1,0,0:0:0:0:
192,192,97600,1,0,0:0:0:0:
320,192,97600,1,0,0:0:0:0:
448,192,97707,1,0,0:0:0:0:
64,192,97814,1,0,0:0:0:0:
192,192,97814,1,0,0:0:0:0:
448,192,97814,1,0,0:0:0:0:
320,192,97921,1,0,0:0:0:0:
448,192,98028,1,0,0:0:0:0:
192,192,98135,1,0,0:0:0:0:
320,192,98135,1,0,0:0:0:0:
64,192,98242,1,0,0:0:0:0:
320,192,98242,1,0,0:0:0:0:
448,192,98242,1,0,0:0:0:0:
192,192,98350,1,0,0:0:0:0:
320,192,98457,1,0,0:0:0:0:
448,192,98457,1,0,0:0:0:0:
192,192,98564,1,0,0:0:0:0:
320,192,98564,1,0,0:0:0:0:
448,192,98564,1,0,0:0:0:0:
64,192,98671,1,0,0:0:0:0:
192,192,98671,1,0,0:0:0:0:
448,192,98671,1,0,0:0:0:0:
64,192,98778,1,0,0:0:0:0:
320,192,98778,1,0,0:0:0:0:
320,192,98885,1,0,0:0:0:0:
448,192,98885,1,0,0:0:0:0:
192,192,98992,1,0,0:0:0:0:
64,192,99100,1,0,0:0:0:0:
320,192,99100,1,0,0:0:0:0:
448,192,99100,1,0,0:0:0:0:
192,192,99207,1,0,0:0:0:0:
448,192,99207,1,0,0:0:0:0:
64,192,99314,1,0,0:0:0:0:
448,192,99314,1,0,0:0:0:0:
320,192,99421,1,0,0:0:0:0:
64,192,99528,1,0,0:0:0:0:
192,192,99528,1,0,0:0:0:0:
448,192,99528,1,0,0:0:0:0:
320,192,99635,1,0,0:0:0:0:
192,192,99742,1,0,0:0:0:0:
64,192,99850,1,0,0:0:0:0:
448,192,99850,1,0,0:0:0:0:
64,192,99957,1,0,0:0:0:0:
320,192,99957,1,0,0:0:0:0:
448,192,99957,1,0,0:0:0:0:
192,192,100064,1,0,0:0:0:0:
320,192,100171,1,0,0:0:0:0:
192,192,100278,1,0,0:0:0:0:
448,192,100278,1,0,0:0:0:0:
64,192,100385,1,0,0:0:0:0:
192,192,100385,1,0,0:0:0:0:
448,192,100385,1,0,0:0:0:0:
64,192,100492,1,0,0:0:0:0:
320,192,100492,1,0,0:0:0:0:
64,192,100600,1,0,0:0:0:0:
192,192,100707,1,0,0:0:0:0:
320,192,100707,1,0,0:0:0:0:
64,192,100814,1,0,0:0:0:0:
320,192,100814,1,0,0:0:0:0:
448,192,100814,1,0,0:0:0:0:
192,192,100921,1,0,0:0:0:0:
320,192,100921,1,0,0:0:0:0:
64,192,101028,1,0,0:0:0:0:
448,192,101028,1,0,0:0:0:0:
320,192,101135,1,0,0:0:0:0:
64,192,101242,1,0,0:0:0:0:
192,192,101242,1,0,0:0:0:0:
320,192,101242,1,0,0:0:0:0:
448,192,101350,1,0,0:0:0:0:
192,192,101457,1,0,0:0:0:0:
64,192,101564,1,0,0:0:0:0:
448,192,101564,1,0,0:0:0:0:
192,192,101671,1,0,0:0:0:0:
320,192,101671,1,0,0:0:0:0:
448,192,101671,1,0,0:0:0:0:
64,192,101778,1,0,0:0:0:0:
192,192,101885,1,0,0:0:0:0:
320,192,101885,1,0,0:0:0:0:
448,192,101992,1,0,0:0:0:0:
64,192,102100,1,0,0:0:0:0:
192,192,102100,1,0,0:0:0:0:
320,192,102100,1,0,0:0:0:0:
448,192,102207,1,0,0:0:0:0:
64,192,102314,1,0,0:0:0:0:
320,192,102314,1,0,0:0:0:0:
192,192,102421,1,0,0:0:0:0:
192,192,102528,1,0,0:0:0:0:
320,192,102528,1,0,0:0:0:0:
448,192,102528,1,0,0:0:0:0:
64,192,102635,1,0,0:0:0:0:
192,192,102742,1,0,0:0:0:0:
448,192,102742,1,0,0:0:0:0:
320,192,102849,1,0,0:0:0:0:
64,192,102957,1,0,0:0:0:0:
192,192,102957,1,0,0:0:0:0:
448,192,102957,1,0,0:0:0:0:
320,192,103064,1,0,0:0:0:0:
192,192,103171,1,0,0:0:0:0:
192,192,103278,1,0,0:0:0:0:
320,192,103278,1,0,0:0:0:0:
64,192,103385,1,0,0:0:0:0:
320,192,103385,1,0,0:0:0:0:
448,192,103385,1,0,0:0:0:0:
192,192,103492,1,0,0:0:0:0:
320,192,103599,1,0,0:0:0:0:
448,192,103599,1,0,0:0:0:0:
192,192,103707,1,0,0:0:0:0:
448,192,103707,1,0,0:0:0:0:
64,192,103814,1,0,0:0:0:0:
192,192,103814,1,0,0:0:0:0:
448,192,103814,1,0,0:0:0:0:
320,192,103921,1,0,0:0:0:0:
192,192,104028,1,0,0:0:0:0:
448,192,104028,1,0,0:0:0:0:
192,192,104135,1,0,0:0:0:0:
64,192,104242,1,0,0:0:0:0:
320,192,104242,1,0,0:0:0:0:
448,192,104242,1,0,0:0:0:0:
192,192,104349,1,0,0:0:0:0:
64,192,104457,1,0,0:0:0:0:
320,192,104457,1,0,0:0:0:0:
448,192,104564,1,0,0:0:0:0:
64,192,104671,1,0,0:0:0:0:
192,192,104671,1,0,0:0:0:0:
320,192,104671,1,0,0:0:0:0:
448,192,104778,1,0,0:0:0:0:
320,192,104885,1,0,0:0:0:0:
64,192,104992,1,0,0:0:0:0:
192,192,104992,1,0,0:0:0:0:
192,192,105099,1,0,0:0:0:0:
320,192,105099,1,0,0:0:0:0:
448,192,105099,1,0,0:0:0:0:
64,192,105207,1,0,0:0:0:0:
192,192,105314,1,0,0:0:0:0:
320,192,105314,1,0,0:0:0:0:
448,192,105421,1,0,0:0:0:0:
64,192,105528,1,0,0:0:0:0:
192,192,105528,1,0,0:0:0:0:
320,192,105528,1,0,0:0:0:0:
448,192,105635,1,0,0:0:0:0:
64,192,105742,1,0,0:0:0:0:
320,192,105742,1,0,0:0:0:0:
192,192,105849,1,0,0:0:0:0:
192,192,105957,1,0,0:0:0:0:
320,192,105957,1,0,0:0:0:0:
448,192,105957,1,0,0:0:0:0:
64,192,106064,1,0,0:0:0:0:
192,192,106171,1,0,0:0:0:0:
448,192,106171,1,0,0:0:0:0:
320,192,106278,1,0,0:0:0:0:
64,192,106385,1,0,0:0:0:0:
192,192,106385,1,0,0:0:0:0:
448,192,106385,1,0,0:0:0:0:
320,192,106492,1,0,0:0:0:0:
192,192,106599,1,0,0:0:0:0:
64,192,106707,1,0,0:0:0:0:
192,192,106707,1,0,0:0:0:0:
448,192,106707,1,0,0:0:0:0:
448,192,106814,1,0,0:0:0:0:
320,192,106921,1,0,0:0:0:0:
64,192,107028,1,0,0:0:0:0:
192,192,107028,1,0,0:0:0:0:
448,192,107028,1,0,0:0:0:0:
320,192,107135,1,0,0:0:0:0:
64,192,107242,1,0,0:0:0:0:
192,192,107242,1,0,0:0:0:0:
320,192,107242,1,0,0:0:0:0:
448,192,107349,1,0,0:0:0:0:
192,192,107457,1,0,0:0:0:0:
64,192,107564,1,0,0:0:0:0:
320,192,107564,1,0,0:0:0:0:
448,192,107564,1,0,0:0:0:0:
64,192,107671,1,0,0:0:0:0:
192,192,107671,1,0,0:0:0:0:
448,192,107778,1,0,0:0:0:0:
64,192,107885,1,0,0:0:0:0:
320,192,107885,1,0,0:0:0:0:
448,192,107885,1,0,0:0:0:0:
192,192,107992,1,0,0:0:0:0:
64,192,108099,1,0,0:0:0:0:
192,192,108099,1,0,0:0:0:0:
320,192,108099,1,0,0:0:0:0:
448,192,108207,1,0,0:0:0:0:
320,192,108314,1,0,0:0:0:0:
64,192,108421,1,0,0:0:0:0:
192,192,108421,1,0,0:0:0:0:
192,192,108528,1,0,0:0:0:0:
320,192,108528,1,0,0:0:0:0:
448,192,108528,1,0,0:0:0:0:
320,192,108635,1,0,0:0:0:0:
64,192,108742,1,0,0:0:0:0:
448,192,108742,1,0,0:0:0:0:
192,192,108849,1,0,0:0:0:0:
320,192,108849,1,0,0:0:0:0:
448,192,108849,1,0,0:0:0:0:
64,192,108957,1,0,0:0:0:0:
192,192,108957,1,0,0:0:0:0:
320,192,108957,1,0,0:0:0:0:
192,192,109064,1,0,0:0:0:0:
448,192,109064,1,0,0:0:0:0:
320,192,109171,1,0,0:0:0:0:
64,192,109278,1,0,0:0:0:0:
320,192,109278,1,0,0:0:0:0:
448,192,109278,1,0,0:0:0:0:
192,192,109385,1,0,0:0:0:0:
448,192,109385,1,0,0:0:0:0:
320,192,109492,1,0,0:0:0:0:
64,192,109599,1,0,0:0:0:0:
192,192,109599,1,0,0:0:0:0:
448,192,109599,1,0,0:0:0:0:
192,192,109706,1,0,0:0:0:0:
320,192,109706,1,0,0:0:0:0:
64,192,109814,1,0,0:0:0:0:
192,192,109814,1,0,0:0:0:0:
448,192,109814,1,0,0:0:0:0:
320,192,109921,1,0,0:0:0:0:
448,192,109921,1,0,0:0:0:0:
64,192,110028,1,0,0:0:0:0:
192,192,110135,1,0,0:0:0:0:
320,192,110135,1,0,0:0:0:0:
64,192,110242,1,0,0:0:0:0:
320,192,110242,1,0,0:0:0:0:
448,192,110242,1,0,0:0:0:0:
192,192,110349,1,0,0:0:0:0:
64,192,110456,1,0,0:0:0:0:
192,192,110564,1,0,0:0:0:0:
320,192,110564,1,0,0:0:0:0:
448,192,110564,1,0,0:0:0:0:
448,192,110671,1,0,0:0:0:0:
64,192,110778,1,0,0:0:0:0:
192,192,110778,1,0,0:0:0:0:
320,192,110778,1,0,0:0:0:0:
192,192,110885,1,0,0:0:0:0:
64,192,110992,1,0,0:0:0:0:
320,192,110992,1,0,0:0:0:0:
448,192,110992,1,0,0:0:0:0:
192,192,111099,1,0,0:0:0:0:
320,192,111099,1,0,0:0:0:0:
320,192,111206,1,0,0:0:0:0:
448,192,111206,1,0,0:0:0:0:
64,192,111314,1,0,0:0:0:0:
192,192,111314,1,0,0:0:0:0:
320,192,111314,1,0,0:0:0:0:
448,192,111421,1,0,0:0:0:0:
64,192,111528,1,0,0:0:0:0:
192,192,111528,1,0,0:0:0:0:
320,192,111528,1,0,0:0:0:0:
320,192,111635,1,0,0:0:0:0:
448,192,111742,1,0,0:0:0:0:
64,192,111849,1,0,0:0:0:0:
192,192,111849,1,0,0:0:0:0:
320,192,111849,1,0,0:0:0:0:
192,192,111956,1,0,0:0:0:0:
320,192,111956,1,0,0:0:0:0:
448,192,111956,1,0,0:0:0:0:
64,192,112064,1,0,0:0:0:0:
320,192,112171,1,0,0:0:0:0:
448,192,112171,1,0,0:0:0:0:
64,192,112278,1,0,0:0:0:0:
192,192,112278,1,0,0:0:0:0:
448,192,112278,1,0,0:0:0:0:
64,192,112385,1,0,0:0:0:0:
192,192,112385,1,0,0:0:0:0:
320,192,112385,1,0,0:0:0:0:
320,192,112492,1,0,0:0:0:0:
448,192,112492,1,0,0:0:0:0:
192,192,112599,1,0,0:0:0:0:
64,192,112706,1,0,0:0:0:0:
320,192,112706,1,0,0:0:0:0:
448,192,112706,1,0,0:0:0:0:
192,192,112814,1,0,0:0:0:0:
320,192,112814,1,0,0:0:0:0:
448,192,112921,1,0,0:0:0:0:
64,192,113028,1,0,0:0:0:0:
192,192,113028,1,0,0:0:0:0:
320,192,113028,1,0,0:0:0:0:
64,192,113135,1,0,0:0:0:0:
448,192,113135,1,0,0:0:0:0:
64,192,113242,1,0,0:0:0:0:
192,192,113242,1,0,0:0:0:0:
448,192,113242,1,0,0:0:0:0:
192,192,113349,1,0,0:0:0:0:
320,192,113456,1,0,0:0:0:0:
192,192,113564,1,0,0:0:0:0:
448,192,113564,1,0,0:0:0:0:
64,192,113671,1,0,0:0:0:0:
320,192,113671,1,0,0:0:0:0:
448,192,113671,1,0,0:0:0:0:
192,192,113778,1,0,0:0:0:0:
320,192,113885,1,0,0:0:0:0:
64,192,113992,1,0,0:0:0:0:
320,192,113992,1,0,0:0:0:0:
448,192,113992,1,0,0:0:0:0:
192,192,114099,1,0,0:0:0:0:
64,192,114206,1,0,0:0:0:0:
192,192,114206,1,0,0:0:0:0:
320,192,114206,1,0,0:0:0:0:
448,192,114314,1,0,0:0:0:0:
64,192,114421,1,0,0:0:0:0:
320,192,114421,1,0,0:0:0:0:
448,192,114421,1,0,0:0:0:0:
320,192,114528,1,0,0:0:0:0:
448,192,114528,1,0,0:0:0:0:
192,192,114635,1,0,0:0:0:0:
64,192,114742,1,0,0:0:0:0:
320,192,114742,1,0,0:0:0:0:
448,192,114742,1,0,0:0:0:0:
192,192,114849,1,0,0:0:0:0:
64,192,114956,1,0,0:0:0:0:
192,192,114956,1,0,0:0:0:0:
320,192,114956,1,0,0:0:0:0:
448,192,115064,1,0,0:0:0:0:
320,192,115171,1,0,0:0:0:0:
64,192,115278,1,0,0:0:0:0:
192,192,115278,1,0,0:0:0:0:
448,192,115278,1,0,0:0:0:0:
192,192,115385,1,0,0:0:0:0:
320,192,115385,1,0,0:0:0:0:
448,192,115385,1,0,0:0:0:0:
64,192,115492,1,0,0:0:0:0:
192,192,115599,1,0,0:0:0:0:
448,192,115599,1,0,0:0:0:0:
64,192,115706,1,0,0:0:0:0:
192,192,115706,1,0,0:0:0:0:
320,192,115706,1,0,0:0:0:0:
192,192,115814,1,0,0:0:0:0:
320,192,115814,1,0,0:0:0:0:
64,192,115921,1,0,0:0:0:0:
448,192,115921,1,0,0:0:0:0:
192,192,116028,1,0,0:0:0:0:
320,192,116028,1,0,0:0:0:0:
64,192,116135,1,0,0:0:0:0:
192,192,116135,1,0,0:0:0:0:
320,192,116135,1,0,0:0:0:0:
320,192,116242,1,0,0:0:0:0:
448,192,116242,1,0,0:0:0:0:
64,192,116349,1,0,0:0:0:0:
192,192,116456,1,0,0:0:0:0:
320,192,116456,1,0,0:0:0:0:
448,192,116456,1,0,0:0:0:0:
320,192,116563,1,0,0:0:0:0:
64,192,116671,1,0,0:0:0:0:
192,192,116671,1,0,0:0:0:0:
448,192,116671,1,0,0:0:0:0:
192,192,116778,1,0,0:0:0:0:
320,192,116885,1,0,0:0:0:0:
64,192,116992,1,0,0:0:0:0:
192,192,116992,1,0,0:0:0:0:
448,192,116992,1,0,0:0:0:0:
64,192,117099,1,0,0:0:0:0:
320,192,117099,1,0,0:0:0:0:
448,192,117099,1,0,0:0:0:0:
192,192,117206,1,0,0:0:0:0:
320,192,117313,1,0,0:0:0:0:
448,192,117313,1,0,0:0:0:0:
64,192,117421,1,0,0:0:0:0:
192,192,117421,1,0,0:0:0:0:
320,192,117421,1,0,0:0:0:0:
64,192,117528,1,0,0:0:0:0:
192,192,117528,1,0,0:0:0:0:
448,192,117528,1,0,0:0:0:0:
192,192,117635,1,0,0:0:0:0:
320,192,117635,1,0,0:0:0:0:
320,192,117742,1,0,0:0:0:0:
448,192,117742,1,0,0:0:0:0:
64,192,117849,1,0,0:0:0:0:
192,192,117849,1,0,0:0:0:0:
448,192,117849,1,0,0:0:0:0:
64,192,117956,1,0,0:0:0:0:
320,192,117956,1,0,0:0:0:0:
192,192,118063,1,0,0:0:0:0:
192,192,118171,1,0,0:0:0:0:
320,192,118171,1,0,0:0:0:0:
448,192,118278,1,0,0:0:0:0:
64,192,118385,1,0,0:0:0:0:
192,192,118385,1,0,0:0:0:0:
320,192,118385,1,0,0:0:0:0:
192,192,118492,1,0,0:0:0:0:
448,192,118599,1,0,0:0:0:0:
64,192,118706,1,0,0:0:0:0:
320,192,118706,1,0,0:0:0:0:
448,192,118706,1,0,0:0:0:0:
192,192,118813,1,0,0:0:0:0:
320,192,118813,1,0,0:0:0:0:
448,192,118813,1,0,0:0:0:0:
64,192,118921,1,0,0:0:0:0:
320,192,119028,1,0,0:0:0:0:
448,192,119028,1,0,0:0:0:0:
64,192,119135,1,0,0:0:0:0:
192,192,119135,1,0,0:0:0:0:
320,192,119135,1,0,0:0:0:0:
192,192,119242,1,0,0:0:0:0:
448,192,119242,1,0,0:0:0:0:
64,192,119349,1,0,0:0:0:0:
320,192,119349,1,0,0:0:0:0:
448,192,119349,1,0,0:0:0:0:
64,192,119456,1,0,0:0:0:0:
192,192,119456,1,0,0:0:0:0:
192,192,119563,1,0,0:0:0:0:
320,192,119563,1,0,0:0:0:0:
448,192,119563,1,0,0:0:0:0:
64,192,119671,1,0,0:0:0:0:
192,192,119671,1,0,0:0:0:0:
320,192,119778,1,0,0:0:0:0:
64,192,119885,1,0,0:0:0:0:
192,192,119885,1,0,0:0:0:0:
448,192,119885,1,0,0:0:0:0:
320,192,119992,1,0,0:0:0:0:
64,192,120099,1,0,0:0:0:0:
192,192,120099,1,0,0:0:0:0:
64,192,121599,1,0,0:0:0:0:
64,192,121813,1,0,0:0:0:0:
64,192,122099,1,0,0:0:0:0:
64,192,122671,1,0,0:0:0:0:
192,192,122671,1,0,0:0:0:0:
320,192,122671,1,0,0:0:0:0:
448,192,122671,1,0,0:0:0:0:
448,192,123313,1,0,0:0:0:0:
448,192,123528,1,0,0:0:0:0:
448,192,123813,1,0,0:0:0:0:
64,192,124385,1,0,0:0:0:0:
192,192,124385,1,0,0:0:0:0:
320,192,124385,1,0,0:0:0:0:
448,192,124385,1,0,0:0:0:0:
64,192,125028,1,0,0:0:0:0:
64,192,125242,1,0,0:0:0:0:
64,192,125528,1,0,0:0:0:0:
64,192,126099,1,0,0:0:0:0:
192,192,126099,1,0,0:0:0:0:
320,192,126099,1,0,0:0:0:0:
448,192,126099,1,0,0:0:0:0:
448,192,126742,1,0,0:0:0:0:
448,192,126956,1,0,0:0:0:0:
448,192,127242,1,0,0:0:0:0:
64,192,127814,1,0,0:0:0:0:
192,192,127814,1,0,0:0:0:0:
320,192,127814,1,0,0:0:0:0:
448,192,127814,1,0,0:0:0:0:
192,192,128456,1,0,0:0:0:0:
192,192,128671,1,0,0:0:0:0:
192,192,128956,1,0,0:0:0:0:
64,192,129528,1,0,0:0:0:0:
192,192,129528,1,0,0:0:0:0:
320,192,129528,1,0,0:0:0:0:
448,192,129528,1,0,0:0:0:0:
320,192,130171,1,0,0:0:0:0:
320,192,130385,1,0,0:0:0:0:
320,192,130671,1,0,0:0:0:0:
64,192,131242,1,0,0:0:0:0:
192,192,131242,1,0,0:0:0:0:
320,192,131242,1,0,0:0:0:0:
448,192,131242,1,0,0:0:0:0:
192,192,131885,1,0,0:0:0:0:
192,192,132099,1,0,0:0:0:0:
192,192,132385,1,0,0:0:0:0:
64,192,132956,1,0,0:0:0:0:
192,192,132956,1,0,0:0:0:0:
320,192,132956,1,0,0:0:0:0:
448,192,132956,1,0,0:0:0:0:
320,192,133599,1,0,0:0:0:0:
320,192,133813,1,0,0:0:0:0:
320,192,134099,1,0,0:0:0:0:
64,192,134670,1,0,0:0:0:0:
192,192,134670,1,0,0:0:0:0:
320,192,134670,1,0,0:0:0:0:
448,192,134670,1,0,0:0:0:0:
192,192,135528,1,0,0:0:0:0:
448,192,135528,1,0,0:0:0:0:
64,192,135635,1,0,0:0:0:0:
320,192,135742,1,0,0:0:0:0:
448,192,135849,1,0,0:0:0:0:
64,192,135956,1,0,0:0:0:0:
192,192,135956,1,0,0:0:0:0:
448,192,136063,1,0,0:0:0:0:
64,192,136170,1,0,0:0:0:0:
192,192,136278,1,0,0:0:0:0:
320,192,136385,1,0,0:0:0:0:
448,192,136385,1,0,0:0:0:0:
192,192,136492,1,0,0:0:0:0:
64,192,136599,1,0,0:0:0:0:
320,192,136706,1,0,0:0:0:0:
64,192,136813,1,0,0:0:0:0:
192,192,136813,1,0,0:0:0:0:
448,192,136920,1,0,0:0:0:0:
64,192,137028,1,0,0:0:0:0:
192,192,137135,1,0,0:0:0:0:
320,192,137242,1,0,0:0:0:0:
448,192,137242,1,0,0:0:0:0:
64,192,137349,1,0,0:0:0:0:
448,192,137456,1,0,0:0:0:0:
320,192,137563,1,0,0:0:0:0:
64,192,137670,1,0,0:0:0:0:
192,192,137670,1,0,0:0:0:0:
320,192,137778,1,0,0:0:0:0:
448,192,137885,1,0,0:0:0:0:
192,192,137992,1,0,0:0:0:0:
64,192,138099,1,0,0:0:0:0:
448,192,138099,1,0,0:0:0:0:
192,192,138206,1,0,0:0:0:0:
320,192,138313,1,0,0:0:0:0:
448,192,138420,1,0,0:0:0:0:
64,192,138528,1,0,0:0:0:0:
192,192,138528,1,0,0:0:0:0:
448,192,138635,1,0,0:0:0:0:
192,192,138742,1,0,0:0:0:0:
64,192,138849,1,0,0:0:0:0:
320,192,138956,1,0,0:0:0:0:
448,192,138956,1,0,0:0:0:0:
64,192,139063,1,0,0:0:0:0:
448,192,139170,1,0,0:0:0:0:
64,192,139278,1,0,0:0:0:0:
192,192,139385,1,0,0:0:0:0:
320,192,139385,1,0,0:0:0:0:
448,192,139492,1,0,0:0:0:0:
64,192,139599,1,0,0:0:0:0:
192,192,139706,1,0,0:0:0:0:
320,192,139813,1,0,0:0:0:0:
448,192,139813,1,0,0:0:0:0:
192,192,139920,1,0,0:0:0:0:
64,192,140028,1,0,0:0:0:0:
448,192,140135,1,0,0:0:0:0:
64,192,140242,1,0,0:0:0:0:
320,192,140242,1,0,0:0:0:0:
192,192,140349,1,0,0:0:0:0:
448,192,140456,1,0,0:0:0:0:
320,192,140563,1,0,0:0:0:0:
64,192,140670,1,0,0:0:0:0:
192,192,140670,1,0,0:0:0:0:
448,192,140778,1,0,0:0:0:0:
64,192,140885,1,0,0:0:0:0:
192,192,140992,1,0,0:0:0:0:
320,192,141099,1,0,0:0:0:0:
448,192,141099,1,0,0:0:0:0:
64,192,141206,1,0,0:0:0:0:
192,192,141313,1,0,0:0:0:0:
448,192,141420,1,0,0:0:0:0:
64,192,141528,1,0,0:0:0:0:
320,192,141528,1,0,0:0:0:0:
192,192,141635,1,0,0:0:0:0:
448,192,141742,1,0,0:0:0:0:
64,192,141849,1,0,0:0:0:0:
192,192,141956,1,0,0:0:0:0:
320,192,141956,1,0,0:0:0:0:
448,192,141956,1,0,0:0:0:0:
64,192,142278,1,0,0:0:0:0:
320,192,142278,1,0,0:0:0:0:
448,192,142278,1,0,0:0:0:0:
64,192,142492,1,0,0:0:0:0:
192,192,142492,1,0,0:0:0:0:
320,192,142492,1,0,0:0:0:0:
64,192,142706,1,0,0:0:0:0:
192,192,142813,1,0,0:0:0:0:
320,192,142813,1,0,0:0:0:0:
448,192,142813,1,0,0:0:0:0:
64,192,143242,1,0,0:0:0:0:
320,192,143242,1,0,0:0:0:0:
448,192,143242,1,0,0:0:0:0:
192,192,143456,1,0,0:0:0:0:
64,192,143563,1,0,0:0:0:0:
192,192,143670,1,0,0:0:0:0:
320,192,143670,1,0,0:0:0:0:
448,192,143670,1,0,0:0:0:0:
64,192,143992,1,0,0:0:0:0:
320,192,143992,1,0,0:0:0:0:
448,192,143992,1,0,0:0:0:0:
64,192,144206,1,0,0:0:0:0:
192,192,144206,1,0,0:0:0:0:
448,192,144206,1,0,0:0:0:0:
64,192,144420,1,0,0:0:0:0:
192,192,144527,1,0,0:0:0:0:
320,192,144527,1,0,0:0:0:0:
448,192,144527,1,0,0:0:0:0:
64,192,144956,1,0,0:0:0:0:
320,192,144956,1,0,0:0:0:0:
448,192,144956,1,0,0:0:0:0:
192,192,145170,1,0,0:0:0:0:
64,192,145277,1,0,0:0:0:0:
192,192,145385,1,0,0:0:0:0:
320,192,145385,1,0,0:0:0:0:
448,192,145385,1,0,0:0:0:0:
64,192,145706,1,0,0:0:0:0:
320,192,145706,1,0,0:0:0:0:
448,192,145706,1,0,0:0:0:0:
64,192,145920,1,0,0:0:0:0:
192,192,145920,1,0,0:0:0:0:
320,192,145920,1,0,0:0:0:0:
64,192,146135,1,0,0:0:0:0:
192,192,146242,1,0,0:0:0:0:
320,192,146242,1,0,0:0:0:0:
448,192,146242,1,0,0:0:0:0:
64,192,146670,1,0,0:0:0:0:
320,192,146670,1,0,0:0:0:0:
448,192,146670,1,0,0:0:0:0:
192,192,146885,1,0,0:0:0:0:
64,192,146992,1,0,0:0:0:0:
192,192,147099,1,0,0:0:0:0:
320,192,147099,1,0,0:0:0:0:
448,192,147099,1,0,0:0:0:0:
64,192,147527,1,0,0:0:0:0:
320,192,147527,1,0,0:0:0:0:
448,192,147527,1,0,0:0:0:0:
320,192,147956,1,0,0:0:0:0:
448,192,147956,1,0,0:0:0:0:
64,192,148385,1,0,0:0:0:0:
448,192,148385,1,0,0:0:0:0:
192,192,148813,1,0,0:0:0:0:
320,192,148813,1,0,0:0:0:0:
448,192,148813,1,0,0:0:0:0:
64,192,149135,1,0,0:0:0:0:
320,192,149135,1,0,0:0:0:0:
448,192,149135,1,0,0:0:0:0:
64,192,149349,1,0,0:0:0:0:
192,192,149349,1,0,0:0:0:0:
320,192,149349,1,0,0:0:0:0:
448,192,149456,1,0,0:0:0:0:
64,192,149563,1,0,0:0:0:0:
192,192,149563,1,0,0:0:0:0:
192,192,149670,1,0,0:0:0:0:
320,192,149670,1,0,0:0:0:0:
448,192,149670,1,0,0:0:0:0:
448,192,149884,1,0,0:0:0:0:
192,192,149992,1,0,0:0:0:0:
64,192,150099,1,0,0:0:0:0:
320,192,150099,1,0,0:0:0:0:
448,192,150099,1,0,0:0:0:0:
192,192,150313,1,0,0:0:0:0:
64,192,150420,1,0,0:0:0:0:
192,192,150527,1,0,0:0:0:0:
320,192,150527,1,0,0:0:0:0:
448,192,150527,1,0,0:0:0:0:
192,192,150742,1,0,0:0:0:0:
64,192,150849,1,0,0:0:0:0:
320,192,150849,1,0,0:0:0:0:
448,192,150849,1,0,0:0:0:0:
64,192,151063,1,0,0:0:0:0:
192,192,151063,1,0,0:0:0:0:
448,192,151063,1,0,0:0:0:0:
320,192,151170,1,0,0:0:0:0:
64,192,151277,1,0,0:0:0:0:
192,192,151277,1,0,0:0:0:0:
192,192,151384,1,0,0:0:0:0:
320,192,151384,1,0,0:0:0:0:
448,192,151384,1,0,0:0:0:0:
320,192,151599,1,0,0:0:0:0:
192,192,151706,1,0,0:0:0:0:
64,192,151813,1,0,0:0:0:0:
320,192,151813,1,0,0:0:0:0:
448,192,151813,1,0,0:0:0:0:
192,192,152027,1,0,0:0:0:0:
64,192,152134,1,0,0:0:0:0:
192,192,152242,1,0,0:0:0:0:
320,192,152242,1,0,0:0:0:0:
448,192,152242,1,0,0:0:0:0:
64,192,152563,1,0,0:0:0:0:
320,192,152563,1,0,0:0:0:0:
448,192,152563,1,0,0:0:0:0:
64,192,152777,1,0,0:0:0:0:
192,192,152777,1,0,0:0:0:0:
320,192,152777,1,0,0:0:0:0:
448,192,152884,1,0,0:0:0:0:
64,192,152992,1,0,0:0:0:0:
192,192,152992,1,0,0:0:0:0:
192,192,153099,1,0,0:0:0:0:
320,192,153099,1,0,0:0:0:0:
448,192,153099,1,0,0:0:0:0:
448,192,153313,1,0,0:0:0:0:
192,192,153420,1,0,0:0:0:0:
64,192,153527,1,0,0:0:0:0:
320,192,153527,1,0,0:0:0:0:
448,192,153527,1,0,0:0:0:0:
192,192,153742,1,0,0:0:0:0:
64,192,153849,1,0,0:0:0:0:
192,192,153956,1,0,0:0:0:0:
320,192,153956,1,0,0:0:0:0:
448,192,153956,1,0,0:0:0:0:
64,192,154384,1,0,0:0:0:0:
320,192,154384,1,0,0:0:0:0:
448,192,154384,1,0,0:0:0:0:
64,192,154599,1,0,0:0:0:0:
192,192,154706,1,0,0:0:0:0:
320,192,154813,1,0,0:0:0:0:
448,192,154813,1,0,0:0:0:0:
320,192,155027,1,0,0:0:0:0:
192,192,155134,1,0,0:0:0:0:
64,192,155242,1,0,0:0:0:0:
448,192,155242,1,0,0:0:0:0:
64,192,155456,1,0,0:0:0:0:
320,192,155456,1,0,0:0:0:0:
192,192,155670,1,0,0:0:0:0:
320,192,155670,1,0,0:0:0:0:
448,192,155670,1,0,0:0:0:0:
64,192,155992,1,0,0:0:0:0:
320,192,155992,1,0,0:0:0:0:
448,192,155992,1,0,0:0:0:0:
64,192,156206,1,0,0:0:0:0:
192,192,156206,1,0,0:0:0:0:
320,192,156206,1,0,0:0:0:0:
448,192,156313,1,0,0:0:0:0:
64,192,156420,1,0,0:0:0:0:
192,192,156420,1,0,0:0:0:0:
192,192,156527,1,0,0:0:0:0:
320,192,156527,1,0,0:0:0:0:
448,192,156527,1,0,0:0:0:0:
448,192,156741,1,0,0:0:0:0:
192,192,156849,1,0,0:0:0:0:
64,192,156956,1,0,0:0:0:0:
320,192,156956,1,0,0:0:0:0:
448,192,156956,1,0,0:0:0:0:
192,192,157170,1,0,0:0:0:0:
64,192,157277,1,0,0:0:0:0:
192,192,157384,1,0,0:0:0:0:
320,192,157384,1,0,0:0:0:0:
448,192,157384,1,0,0:0:0:0:
64,192,157706,1,0,0:0:0:0:
320,192,157706,1,0,0:0:0:0:
448,192,157706,1,0,0:0:0:0:
64,192,157920,1,0,0:0:0:0:
192,192,157920,1,0,0:0:0:0:
448,192,157920,1,0,0:0:0:0:
320,192,158027,1,0,0:0:0:0:
64,192,158134,1,0,0:0:0:0:
192,192,158134,1,0,0:0:0:0:
192,192,158241,1,0,0:0:0:0:
320,192,158241,1,0,0:0:0:0:
448,192,158241,1,0,0:0:0:0:
320,192,158456,1,0,0:0:0:0:
192,192,158563,1,0,0:0:0:0:
64,192,158670,1,0,0:0:0:0:
320,192,158670,1,0,0:0:0:0:
448,192,158670,1,0,0:0:0:0:
192,192,158884,1,0,0:0:0:0:
64,192,158991,1,0,0:0:0:0:
192,192,159099,1,0,0:0:0:0:
320,192,159099,1,0,0:0:0:0:
448,192,159099,1,0,0:0:0:0:
64,192,159420,1,0,0:0:0:0:
320,192,159420,1,0,0:0:0:0:
448,192,159420,1,0,0:0:0:0:
64,192,159634,1,0,0:0:0:0:
192,192,159634,1,0,0:0:0:0:
320,192,159634,1,0,0:0:0:0:
448,192,159741,1,0,0:0:0:0:
64,192,159849,1,0,0:0:0:0:
192,192,159849,1,0,0:0:0:0:
192,192,159956,1,0,0:0:0:0:
320,192,159956,1,0,0:0:0:0:
448,192,159956,1,0,0:0:0:0:
448,192,160170,1,0,0:0:0:0:
192,192,160277,1,0,0:0:0:0:
64,192,160384,1,0,0:0:0:0:
320,192,160384,1,0,0:0:0:0:
448,192,160384,1,0,0:0:0:0:
192,192,160599,1,0,0:0:0:0:
64,192,160706,1,0,0:0:0:0:
192,192,160813,1,0,0:0:0:0:
320,192,160813,1,0,0:0:0:0:
448,192,160813,1,0,0:0:0:0:
64,192,161241,1,0,0:0:0:0:
320,192,161241,1,0,0:0:0:0:
448,192,161241,1,0,0:0:0:0:
64,192,161456,1,0,0:0:0:0:
192,192,161563,1,0,0:0:0:0:
320,192,161670,1,0,0:0:0:0:
448,192,161670,1,0,0:0:0:0:
320,192,161884,1,0,0:0:0:0:
192,192,161991,1,0,0:0:0:0:
64,192,162099,1,0,0:0:0:0:
448,192,162099,1,0,0:0:0:0:
192,192,162206,1,0,0:0:0:0:
64,192,162313,1,0,0:0:0:0:
320,192,162313,1,0,0:0:0:0:
192,192,162420,1,0,0:0:0:0:
320,192,162527,1,0,0:0:0:0:
448,192,162527,1,0,0:0:0:0:
192,192,162634,1,0,0:0:0:0:
64,192,162741,1,0,0:0:0:0:
192,192,162849,1,0,0:0:0:0:
64,192,166384,1,0,0:0:0:0:
192,192,166384,1,0,0:0:0:0:
320,192,166384,1,0,0:0:0:0:
448,192,166384,1,0,0:0:0:0:
64,192,166491,1,0,0:0:0:0:
320,192,166491,1,0,0:0:0:0:
192,192,166599,1,0,0:0:0:0:
448,192,166706,1,0,0:0:0:0:
192,192,166813,1,0,0:0:0:0:
448,192,166813,1,0,0:0:0:0:
64,192,167027,1,0,0:0:0:0:
192,192,167027,1,0,0:0:0:0:
192,192,167241,1,0,0:0:0:0:
448,192,167241,1,0,0:0:0:0:
64,192,167456,1,0,0:0:0:0:
192,192,167456,1,0,0:0:0:0:
64,192,167670,1,0,0:0:0:0:
192,192,167670,1,0,0:0:0:0:
448,192,167670,1,0,0:0:0:0:
192,192,167991,1,0,0:0:0:0:
320,192,167991,1,0,0:0:0:0:
448,192,167991,1,0,0:0:0:0:
320,192,168206,1,0,0:0:0:0:
448,192,168206,1,0,0:0:0:0:
64,192,168313,1,0,0:0:0:0:
192,192,168420,1,0,0:0:0:0:
192,192,168527,1,0,0:0:0:0:
320,192,168527,1,0,0:0:0:0:
64,192,168741,1,0,0:0:0:0:
320,192,168741,1,0,0:0:0:0:
192,192,168956,1,0,0:0:0:0:
320,192,168956,1,0,0:0:0:0:
64,192,169170,1,0,0:0:0:0:
320,192,169170,1,0,0:0:0:0:
192,192,169384,1,0,0:0:0:0:
320,192,169384,1,0,0:0:0:0:
448,192,169384,1,0,0:0:0:0:
64,192,169706,1,0,0:0:0:0:
320,192,169706,1,0,0:0:0:0:
448,192,169706,1,0,0:0:0:0:
64,192,169920,1,0,0:0:0:0:
448,192,169920,1,0,0:0:0:0:
192,192,170027,1,0,0:0:0:0:
320,192,170134,1,0,0:0:0:0:
64,192,170241,1,0,0:0:0:0:
320,192,170241,1,0,0:0:0:0:
64,192,170456,1,0,0:0:0:0:
448,192,170456,1,0,0:0:0:0:
64,192,170670,1,0,0:0:0:0:
320,192,170670,1,0,0:0:0:0:
64,192,170884,1,0,0:0:0:0:
448,192,170884,1,0,0:0:0:0:
64,192,171098,1,0,0:0:0:0:
320,192,171098,1,0,0:0:0:0:
448,192,171098,1,0,0:0:0:0:
64,192,171420,1,0,0:0:0:0:
192,192,171420,1,0,0:0:0:0:
448,192,171420,1,0,0:0:0:0:
192,192,171634,1,0,0:0:0:0:
448,192,171634,1,0,0:0:0:0:
64,192,171741,1,0,0:0:0:0:
448,192,171848,1,0,0:0:0:0:
64,192,171956,1,0,0:0:0:0:
448,192,171956,1,0,0:0:0:0:
192,192,172170,1,0,0:0:0:0:
448,192,172170,1,0,0:0:0:0:
64,192,172384,1,0,0:0:0:0:
448,192,172384,1,0,0:0:0:0:
192,192,172598,1,0,0:0:0:0:
448,192,172598,1,0,0:0:0:0:
64,192,172813,1,0,0:0:0:0:
192,192,172813,1,0,0:0:0:0:
448,192,172813,1,0,0:0:0:0:
64,192,173134,1,0,0:0:0:0:
192,192,173134,1,0,0:0:0:0:
320,192,173134,1,0,0:0:0:0:
192,192,173348,1,0,0:0:0:0:
320,192,173348,1,0,0:0:0:0:
64,192,173456,1,0,0:0:0:0:
192,192,173563,1,0,0:0:0:0:
320,192,173563,1,0,0:0:0:0:
448,192,173563,1,0,0:0:0:0:
64,192,173884,1,0,0:0:0:0:
320,192,173884,1,0,0:0:0:0:
448,192,173884,1,0,0:0:0:0:
64,192,174098,1,0,0:0:0:0:
320,192,174098,1,0,0:0:0:0:
448,192,174098,1,0,0:0:0:0:
192,192,174206,1,0,0:0:0:0:
320,192,174313,1,0,0:0:0:0:
192,192,174527,1,0,0:0:0:0:
320,192,174527,1,0,0:0:0:0:
448,192,174527,1,0,0:0:0:0:
64,192,174848,1,0,0:0:0:0:
320,192,174848,1,0,0:0:0:0:
448,192,174848,1,0,0:0:0:0:
64,192,175063,1,0,0:0:0:0:
192,192,175063,1,0,0:0:0:0:
448,192,175170,1,0,0:0:0:0:
320,192,175277,1,0,0:0:0:0:
64,192,175384,1,0,0:0:0:0:
320,192,175384,1,0,0:0:0:0:
64,192,175598,1,0,0:0:0:0:
320,192,175598,1,0,0:0:0:0:
448,192,175598,1,0,0:0:0:0:
64,192,175813,1,0,0:0:0:0:
320,192,175813,1,0,0:0:0:0:
448,192,175813,1,0,0:0:0:0:
192,192,175920,1,0,0:0:0:0:
320,192,176027,1,0,0:0:0:0:
192,192,176241,1,0,0:0:0:0:
320,192,176241,1,0,0:0:0:0:
448,192,176241,1,0,0:0:0:0:
64,192,176563,1,0,0:0:0:0:
320,192,176563,1,0,0:0:0:0:
448,192,176563,1,0,0:0:0:0:
64,192,176777,1,0,0:0:0:0:
320,192,176777,1,0,0:0:0:0:
192,192,176884,1,0,0:0:0:0:
448,192,176991,1,0,0:0:0:0:
64,192,177098,1,0,0:0:0:0:
448,192,177098,1,0,0:0:0:0:
64,192,177313,1,0,0:0:0:0:
192,192,177313,1,0,0:0:0:0:
320,192,177313,1,0,0:0:0:0:
64,192,177527,1,0,0:0:0:0:
192,192,177527,1,0,0:0:0:0:
320,192,177527,1,0,0:0:0:0:
64,192,177955,1,0,0:0:0:0:
192,192,177955,1,0,0:0:0:0:
448,192,177955,1,0,0:0:0:0:
64,192,178277,1,0,0:0:0:0:
320,192,178277,1,0,0:0:0:0:
448,192,178277,1,0,0:0:0:0:
448,192,178384,1,0,0:0:0:0:
64,192,178491,1,0,0:0:0:0:
192,192,178491,1,0,0:0:0:0:
320,192,178491,1,0,0:0:0:0:
64,192,178705,1,0,0:0:0:0:
192,192,178705,1,0,0:0:0:0:
320,192,178705,1,0,0:0:0:0:
448,192,178705,1,0,0:0:0:0:
64,192,178813,1,0,0:0:0:0:
192,192,178813,1,0,0:0:0:0:
320,192,178813,1,0,0:0:0:0:
448,192,178813,1,0,0:0:0:0:
64,192,179027,1,0,0:0:0:0:
192,192,179027,1,0,0:0:0:0:
320,192,179027,1,0,0:0:0:0:
448,192,179027,1,0,0:0:0:0:
64,192,179241,1,0,0:0:0:0:
192,192,179241,1,0,0:0:0:0:
320,192,179241,1,0,0:0:0:0:
448,192,179241,1,0,0:0:0:0:
64,192,179455,1,0,0:0:0:0:
192,192,179455,1,0,0:0:0:0:
320,192,179455,1,0,0:0:0:0:
448,192,179455,1,0,0:0:0:0:
64,192,179670,1,0,0:0:0:0:
192,192,179670,1,0,0:0:0:0:
320,192,179670,1,0,0:0:0:0:
448,192,179670,1,0,0:0:0:0:
192,192,180098,1,0,0:0:0:0:
448,192,180098,1,0,0:0:0:0:
320,192,180134,1,0,0:0:0:0:
192,192,180205,1,0,0:0:0:0:
448,192,180313,1,0,0:0:0:0:
320,192,180384,1,0,0:0:0:0:
64,192,180455,1,0,0:0:0:0:
192,192,180527,1,0,0:0:0:0:
448,192,180527,1,0,0:0:0:0:
320,192,180563,1,0,0:0:0:0:
192,192,180634,1,0,0:0:0:0:
448,192,180741,1,0,0:0:0:0:
320,192,180813,1,0,0:0:0:0:
64,192,180884,1,0,0:0:0:0:
192,192,180956,1,0,0:0:0:0:
448,192,180956,1,0,0:0:0:0:
320,192,180991,1,0,0:0:0:0:
192,192,181063,1,0,0:0:0:0:
448,192,181170,1,0,0:0:0:0:
320,192,181241,1,0,0:0:0:0:
64,192,181313,1,0,0:0:0:0:
192,192,181384,1,0,0:0:0:0:
448,192,181384,1,0,0:0:0:0:
320,192,181420,1,0,0:0:0:0:
192,192,181491,1,0,0:0:0:0:
448,192,181598,1,0,0:0:0:0:
320,192,181670,1,0,0:0:0:0:
64,192,181741,1,0,0:0:0:0:
192,192,181813,1,0,0:0:0:0:
448,192,181813,1,0,0:0:0:0:
320,192,181848,1,0,0:0:0:0:
192,192,181920,1,0,0:0:0:0:
448,192,182027,1,0,0:0:0:0:
320,192,182099,1,0,0:0:0:0:
64,192,182170,1,0,0:0:0:0:
192,192,182241,1,0,0:0:0:0:
448,192,182241,1,0,0:0:0:0:
320,192,182277,1,0,0:0:0:0:
192,192,182349,1,0,0:0:0:0:
448,192,182456,1,0,0:0:0:0:
320,192,182527,1,0,0:0:0:0:
64,192,182599,1,0,0:0:0:0:
192,192,182670,1,0,0:0:0:0:
448,192,182670,1,0,0:0:0:0:
320,192,182706,1,0,0:0:0:0:
192,192,182777,1,0,0:0:0:0:
448,192,182884,1,0,0:0:0:0:
320,192,182956,1,0,0:0:0:0:
64,192,183027,1,0,0:0:0:0:
192,192,183099,1,0,0:0:0:0:
448,192,183099,1,0,0:0:0:0:
320,192,183134,1,0,0:0:0:0:
192,192,183206,1,0,0:0:0:0:
448,192,183313,1,0,0:0:0:0:
320,192,183384,1,0,0:0:0:0:
64,192,183456,1,0,0:0:0:0:
192,192,183527,1,0,0:0:0:0:
448,192,183527,1,0,0:0:0:0:
320,192,183563,1,0,0:0:0:0:
64,192,183634,1,0,0:0:0:0:
192,192,183706,1,0,0:0:0:0:
448,192,183742,1,0,0:0:0:0:
320,192,183813,1,0,0:0:0:0:
192,192,183884,1,0,0:0:0:0:
320,192,183956,1,0,0:0:0:0:
192,192,183992,1,0,0:0:0:0:
64,192,184063,1,0,0:0:0:0:
192,192,184134,1,0,0:0:0:0:
320,192,184170,1,0,0:0:0:0:
192,192,184242,1,0,0:0:0:0:
64,192,184313,1,0,0:0:0:0:
448,192,184385,1,0,0:0:0:0:
320,192,184420,1,0,0:0:0:0:
192,192,184492,1,0,0:0:0:0:
64,192,184563,1,0,0:0:0:0:
320,192,184599,1,0,0:0:0:0:
192,192,184670,1,0,0:0:0:0:
448,192,184742,1,0,0:0:0:0:
320,192,184813,1,0,0:0:0:0:
192,192,184849,1,0,0:0:0:0:
64,192,184920,1,0,0:0:0:0:
320,192,184992,1,0,0:0:0:0:
448,192,185027,1,0,0:0:0:0:
64,192,185099,1,0,0:0:0:0:
192,192,185170,1,0,0:0:0:0:
320,192,185242,1,0,0:0:0:0:
192,192,185277,1,0,0:0:0:0:
64,192,185349,1,0,0:0:0:0:
448,192,185420,1,0,0:0:0:0:
320,192,185456,1,0,0:0:0:0:
64,192,185528,1,0,0:0:0:0:
320,192,185670,1,0,0:0:0:0:
448,192,185670,1,0,0:0:0:0:
192,192,185885,1,0,0:0:0:0:
448,192,185885,1,0,0:0:0:0:
192,192,186099,1,0,0:0:0:0:
320,192,186099,1,0,0:0:0:0:
64,192,186313,1,0,0:0:0:0:
320,192,186313,1,0,0:0:0:0:
64,192,186528,1,0,0:0:0:0:
192,192,186528,1,0,0:0:0:0:
192,192,186742,1,0,0:0:0:0:
320,192,186742,1,0,0:0:0:0:
64,192,186956,1,0,0:0:0:0:
192,192,186956,1,0,0:0:0:0:
320,192,186956,1,0,0:0:0:0:
64,192,187278,1,0,0:0:0:0:
320,192,187278,1,0,0:0:0:0:
448,192,187278,1,0,0:0:0:0:
192,192,187599,1,0,0:0:0:0:
320,192,187599,1,0,0:0:0:0:
448,192,187599,1,0,0:0:0:0:
64,192,187813,1,0,0:0:0:0:
192,192,187921,1,0,0:0:0:0:
320,192,187921,1,0,0:0:0:0:
64,192,188135,1,0,0:0:0:0:
192,192,188242,1,0,0:0:0:0:
448,192,188242,1,0,0:0:0:0:
64,192,188456,1,0,0:0:0:0:
320,192,188563,1,0,0:0:0:0:
448,192,188563,1,0,0:0:0:0:
192,192,188778,1,0,0:0:0:0:
64,192,188885,1,0,0:0:0:0:
320,192,188885,1,0,0:0:0:0:
192,192,189099,1,0,0:0:0:0:
64,192,189206,1,0,0:0:0:0:
448,192,189206,1,0,0:0:0:0:
320,192,189421,1,0,0:0:0:0:
64,192,189528,1,0,0:0:0:0:
192,192,189528,1,0,0:0:0:0:
320,192,189742,1,0,0:0:0:0:
64,192,189849,1,0,0:0:0:0:
448,192,189849,1,0,0:0:0:0:
64,192,190064,1,0,0:0:0:0:
320,192,190171,1,0,0:0:0:0:
448,192,190171,1,0,0:0:0:0:
192,192,190314,1,0,0:0:0:0:
448,192,190314,1,0,0:0:0:0:
64,192,190456,1,0,0:0:0:0:
320,192,190456,1,0,0:0:0:0:
64,192,190635,1,0,0:0:0:0:
320,192,190635,1,0,0:0:0:0:
192,192,190778,1,0,0:0:0:0:
320,192,190778,1,0,0:0:0:0:
320,192,190921,1,0,0:0:0:0:
448,192,190921,1,0,0:0:0:0:
192,192,191099,1,0,0:0:0:0:
320,192,191099,1,0,0:0:0:0:
64,192,191242,1,0,0:0:0:0:
320,192,191242,1,0,0:0:0:0:
64,192,191385,1,0,0:0:0:0:
448,192,191385,1,0,0:0:0:0:
192,192,191528,1,0,0:0:0:0:
448,192,191528,1,0,0:0:0:0:
320,192,191671,1,0,0:0:0:0:
448,192,191671,1,0,0:0:0:0:
320,192,191992,1,0,0:0:0:0:
448,192,191992,1,0,0:0:0:0:
320,192,192207,1,0,0:0:0:0:
448,192,192207,1,0,0:0:0:0:
64,192,192421,1,0,0:0:0:0:
192,192,192421,1,0,0:0:0:0:
448,192,192421,1,0,0:0:0:0:
320,192,192742,1,0,0:0:0:0:
448,192,192742,1,0,0:0:0:0:
64,192,192957,1,0,0:0:0:0:
192,192,192957,1,0,0:0:0:0:
448,192,192957,1,0,0:0:0:0:
320,192,193171,1,0,0:0:0:0:
448,192,193171,1,0,0:0:0:0:
64,192,193385,1,0,0:0:0:0:
320,192,193385,1,0,0:0:0:0:
448,192,193385,1,0,0:0:0:0:
64,192,193707,1,0,0:0:0:0:
192,192,193707,1,0,0:0:0:0:
320,192,193707,1,0,0:0:0:0:
64,192,193814,1,0,0:0:0:0:
192,192,193814,1,0,0:0:0:0:
320,192,193814,1,0,0:0:0:0:
448,192,193814,1,0,0:0:0:0:
64,192,193921,1,0,0:0:0:0:
192,192,194028,1,0,0:0:0:0:
192,192,194135,1,0,0:0:0:0:
320,192,194135,1,0,0:0:0:0:
448,192,194135,1,0,0:0:0:0:
64,192,194457,1,0,0:0:0:0:
192,192,194457,1,0,0:0:0:0:
320,192,194457,1,0,0:0:0:0:
64,192,194671,1,0,0:0:0:0:
192,192,194671,1,0,0:0:0:0:
320,192,194671,1,0,0:0:0:0:
448,192,194778,1,0,0:0:0:0:
192,192,194885,1,0,0:0:0:0:
320,192,194992,1,0,0:0:0:0:
64,192,195099,1,0,0:0:0:0:
192,192,195099,1,0,0:0:0:0:
448,192,195099,1,0,0:0:0:0:
64,192,195421,1,0,0:0:0:0:
320,192,195421,1,0,0:0:0:0:
448,192,195421,1,0,0:0:0:0:
192,192,195635,1,0,0:0:0:0:
320,192,195742,1,0,0:0:0:0:
448,192,195849,1,0,0:0:0:0:
64,192,195957,1,0,0:0:0:0:
192,192,195957,1,0,0:0:0:0:
448,192,195957,1,0,0:0:0:0:
64,192,196171,1,0,0:0:0:0:
192,192,196171,1,0,0:0:0:0:
320,192,196171,1,0,0:0:0:0:
64,192,196385,1,0,0:0:0:0:
192,192,196385,1,0,0:0:0:0:
320,192,196385,1,0,0:0:0:0:
192,192,196599,1,0,0:0:0:0:
320,192,196707,1,0,0:0:0:0:
64,192,196814,1,0,0:0:0:0:
192,192,196814,1,0,0:0:0:0:
448,192,196814,1,0,0:0:0:0:
64,192,197135,1,0,0:0:0:0:
192,192,197135,1,0,0:0:0:0:
320,192,197135,1,0,0:0:0:0:
64,192,197349,1,0,0:0:0:0:
192,192,197457,1,0,0:0:0:0:
448,192,197564,1,0,0:0:0:0:
64,192,197671,1,0,0:0:0:0:
192,192,197671,1,0,0:0:0:0:
448,192,197671,1,0,0:0:0:0:
64,192,197885,1,0,0:0:0:0:
192,192,197885,1,0,0:0:0:0:
320,192,197885,1,0,0:0:0:0:
64,192,198099,1,0,0:0:0:0:
192,192,198099,1,0,0:0:0:0:
320,192,198099,1,0,0:0:0:0:
192,192,198314,1,0,0:0:0:0:
448,192,198421,1,0,0:0:0:0:
64,192,198528,1,0,0:0:0:0:
192,192,198528,1,0,0:0:0:0:
320,192,198528,1,0,0:0:0:0:
192,192,198849,1,0,0:0:0:0:
320,192,198849,1,0,0:0:0:0:
448,192,198849,1,0,0:0:0:0:
64,192,199064,1,0,0:0:0:0:
192,192,199064,1,0,0:0:0:0:
320,192,199064,1,0,0:0:0:0:
192,192,199278,1,0,0:0:0:0:
320,192,199278,1,0,0:0:0:0:
448,192,199278,1,0,0:0:0:0:
192,192,199385,1,0,0:0:0:0:
320,192,199385,1,0,0:0:0:0:
448,192,199385,1,0,0:0:0:0:
192,192,199599,1,0,0:0:0:0:
320,192,199599,1,0,0:0:0:0:
448,192,199599,1,0,0:0:0:0:
64,192,199814,1,0,0:0:0:0:
192,192,199814,1,0,0:0:0:0:
448,192,199814,1,0,0:0:0:0:
64,192,200028,1,0,0:0:0:0:
192,192,200028,1,0,0:0:0:0:
448,192,200028,1,0,0:0:0:0:
64,192,200242,1,0,0:0:0:0:
192,192,200242,1,0,0:0:0:0:
448,192,200242,1,0,0:0:0:0:
192,192,200671,1,0,0:0:0:0:
320,192,200671,1,0,0:0:0:0:
448,192,200671,1,0,0:0:0:0:
64,192,200778,1,0,0:0:0:0:
192,192,200885,1,0,0:0:0:0:
192,192,200992,1,0,0:0:0:0:
320,192,200992,1,0,0:0:0:0:
448,192,200992,1,0,0:0:0:0:
64,192,201314,1,0,0:0:0:0:
192,192,201314,1,0,0:0:0:0:
320,192,201314,1,0,0:0:0:0:
64,192,201528,1,0,0:0:0:0:
192,192,201528,1,0,0:0:0:0:
320,192,201528,1,0,0:0:0:0:
448,192,201635,1,0,0:0:0:0:
192,192,201742,1,0,0:0:0:0:
320,192,201849,1,0,0:0:0:0:
64,192,201956,1,0,0:0:0:0:
192,192,201956,1,0,0:0:0:0:
448,192,201956,1,0,0:0:0:0:
64,192,202278,1,0,0:0:0:0:
320,192,202278,1,0,0:0:0:0:
448,192,202278,1,0,0:0:0:0:
192,192,202492,1,0,0:0:0:0:
320,192,202599,1,0,0:0:0:0:
448,192,202706,1,0,0:0:0:0:
64,192,202814,1,0,0:0:0:0:
192,192,202814,1,0,0:0:0:0:
448,192,202814,1,0,0:0:0:0:
64,192,203028,1,0,0:0:0:0:
192,192,203028,1,0,0:0:0:0:
320,192,203028,1,0,0:0:0:0:
64,192,203242,1,0,0:0:0:0:
192,192,203242,1,0,0:0:0:0:
320,192,203242,1,0,0:0:0:0:
192,192,203456,1,0,0:0:0:0:
320,192,203564,1,0,0:0:0:0:
64,192,203671,1,0,0:0:0:0:
192,192,203671,1,0,0:0:0:0:
448,192,203671,1,0,0:0:0:0:
64,192,203992,1,0,0:0:0:0:
192,192,203992,1,0,0:0:0:0:
320,192,203992,1,0,0:0:0:0:
64,192,204206,1,0,0:0:0:0:
192,192,204314,1,0,0:0:0:0:
448,192,204421,1,0,0:0:0:0:
64,192,204528,1,0,0:0:0:0:
192,192,204528,1,0,0:0:0:0:
448,192,204528,1,0,0:0:0:0:
64,192,204742,1,0,0:0:0:0:
192,192,204742,1,0,0:0:0:0:
320,192,204742,1,0,0:0:0:0:
64,192,204956,1,0,0:0:0:0:
192,192,204956,1,0,0:0:0:0:
320,192,204956,1,0,0:0:0:0:
192,192,205171,1,0,0:0:0:0:
448,192,205278,1,0,0:0:0:0:
64,192,205385,1,0,0:0:0:0:
192,192,205385,1,0,0:0:0:0:
320,192,205385,1,0,0:0:0:0:
192,192,205706,1,0,0:0:0:0:
320,192,205706,1,0,0:0:0:0:
448,192,205706,1,0,0:0:0:0:
64,192,205921,1,0,0:0:0:0:
192,192,205921,1,0,0:0:0:0:
320,192,205921,1,0,0:0:0:0:
192,192,206135,1,0,0:0:0:0:
320,192,206135,1,0,0:0:0:0:
448,192,206135,1,0,0:0:0:0:
192,192,206242,1,0,0:0:0:0:
320,192,206242,1,0,0:0:0:0:
448,192,206242,1,0,0:0:0:0:
192,192,206456,1,0,0:0:0:0:
320,192,206456,1,0,0:0:0:0:
448,192,206456,1,0,0:0:0:0:
64,192,206671,1,0,0:0:0:0:
192,192,206671,1,0,0:0:0:0:
448,192,206671,1,0,0:0:0:0:
64,192,206885,1,0,0:0:0:0:
192,192,206885,1,0,0:0:0:0:
448,192,206885,1,0,0:0:0:0:
64,192,207099,1,0,0:0:0:0:
192,192,207099,1,0,0:0:0:0:
448,192,207099,1,0,0:0:0:0:
64,192,207528,1,0,0:0:0:0:
192,192,207528,1,0,0:0:0:0:
320,192,207528,1,0,0:0:0:0:
448,192,207528,1,0,0:0:0:0:
64,192,207635,1,0,0:0:0:0:
192,192,207742,1,0,0:0:0:0:
192,192,207849,1,0,0:0:0:0:
320,192,207849,1,0,0:0:0:0:
448,192,207849,1,0,0:0:0:0:
64,192,207956,1,0,0:0:0:0:
192,192,207956,1,0,0:0:0:0:
320,192,207956,1,0,0:0:0:0:
448,192,207956,1,0,0:0:0:0:
64,192,208171,1,0,0:0:0:0:
192,192,208171,1,0,0:0:0:0:
320,192,208171,1,0,0:0:0:0:
64,192,208385,1,0,0:0:0:0:
192,192,208385,1,0,0:0:0:0:
320,192,208385,1,0,0:0:0:0:
448,192,208385,1,0,0:0:0:0:
448,192,208492,1,0,0:0:0:0:
192,192,208599,1,0,0:0:0:0:
320,192,208706,1,0,0:0:0:0:
64,192,208813,1,0,0:0:0:0:
192,192,208813,1,0,0:0:0:0:
320,192,208813,1,0,0:0:0:0:
448,192,208813,1,0,0:0:0:0:
64,192,209135,1,0,0:0:0:0:
320,192,209135,1,0,0:0:0:0:
448,192,209135,1,0,0:0:0:0:
64,192,209242,1,0,0:0:0:0:
192,192,209242,1,0,0:0:0:0:
320,192,209242,1,0,0:0:0:0:
448,192,209242,1,0,0:0:0:0:
192,192,209349,1,0,0:0:0:0:
320,192,209456,1,0,0:0:0:0:
448,192,209563,1,0,0:0:0:0:
64,192,209671,1,0,0:0:0:0:
192,192,209671,1,0,0:0:0:0:
320,192,209671,1,0,0:0:0:0:
448,192,209671,1,0,0:0:0:0:
64,192,209885,1,0,0:0:0:0:
192,192,209885,1,0,0:0:0:0:
320,192,209885,1,0,0:0:0:0:
64,192,210099,1,0,0:0:0:0:
192,192,210099,1,0,0:0:0:0:
320,192,210099,1,0,0:0:0:0:
448,192,210099,1,0,0:0:0:0:
192,192,210313,1,0,0:0:0:0:
320,192,210421,1,0,0:0:0:0:
64,192,210528,1,0,0:0:0:0:
192,192,210528,1,0,0:0:0:0:
320,192,210528,1,0,0:0:0:0:
448,192,210528,1,0,0:0:0:0:
64,192,210849,1,0,0:0:0:0:
192,192,210849,1,0,0:0:0:0:
320,192,210849,1,0,0:0:0:0:
64,192,210956,1,0,0:0:0:0:
192,192,210956,1,0,0:0:0:0:
320,192,210956,1,0,0:0:0:0:
448,192,210956,1,0,0:0:0:0:
64,192,211063,1,0,0:0:0:0:
192,192,211171,1,0,0:0:0:0:
448,192,211278,1,0,0:0:0:0:
64,192,211385,1,0,0:0:0:0:
192,192,211385,1,0,0:0:0:0:
320,192,211385,1,0,0:0:0:0:
448,192,211385,1,0,0:0:0:0:
64,192,211599,1,0,0:0:0:0:
192,192,211599,1,0,0:0:0:0:
320,192,211599,1,0,0:0:0:0:
64,192,211813,1,0,0:0:0:0:
192,192,211813,1,0,0:0:0:0:
320,192,211813,1,0,0:0:0:0:
448,192,211813,1,0,0:0:0:0:
192,192,212028,1,0,0:0:0:0:
448,192,212135,1,0,0:0:0:0:
64,192,212242,1,0,0:0:0:0:
192,192,212242,1,0,0:0:0:0:
320,192,212242,1,0,0:0:0:0:
448,192,212242,1,0,0:0:0:0:
192,192,212563,1,0,0:0:0:0:
320,192,212563,1,0,0:0:0:0:
448,192,212563,1,0,0:0:0:0:
64,192,212671,1,0,0:0:0:0:
192,192,212671,1,0,0:0:0:0:
320,192,212671,1,0,0:0:0:0:
448,192,212671,1,0,0:0:0:0:
64,192,212778,1,0,0:0:0:0:
192,192,212778,1,0,0:0:0:0:
320,192,212778,1,0,0:0:0:0:
192,192,212992,1,0,0:0:0:0:
320,192,212992,1,0,0:0:0:0:
448,192,212992,1,0,0:0:0:0:
64,192,213099,1,0,0:0:0:0:
192,192,213099,1,0,0:0:0:0:
320,192,213099,1,0,0:0:0:0:
448,192,213099,1,0,0:0:0:0:
192,192,213313,1,0,0:0:0:0:
320,192,213313,1,0,0:0:0:0:
448,192,213313,1,0,0:0:0:0:
64,192,213528,1,0,0:0:0:0:
192,192,213528,1,0,0:0:0:0:
320,192,213528,1,0,0:0:0:0:
448,192,213528,1,0,0:0:0:0:
64,192,213742,1,0,0:0:0:0:
192,192,213742,1,0,0:0:0:0:
448,192,213742,1,0,0:0:0:0:
64,192,213956,1,0,0:0:0:0:
192,192,213956,1,0,0:0:0:0:
320,192,213956,1,0,0:0:0:0:
448,192,213956,1,0,0:0:0:0:
64,192,214385,1,0,0:0:0:0:
192,192,214385,1,0,0:0:0:0:
320,192,214385,1,0,0:0:0:0:
448,192,214385,1,0,0:0:0:0:
64,192,214492,1,0,0:0:0:0:
192,192,214599,1,0,0:0:0:0:
192,192,214706,1,0,0:0:0:0:
320,192,214706,1,0,0:0:0:0:
448,192,214706,1,0,0:0:0:0:
64,192,214813,1,0,0:0:0:0:
192,192,214813,1,0,0:0:0:0:
320,192,214813,1,0,0:0:0:0:
448,192,214813,1,0,0:0:0:0:
64,192,215028,1,0,0:0:0:0:
192,192,215028,1,0,0:0:0:0:
320,192,215028,1,0,0:0:0:0:
64,192,215242,1,0,0:0:0:0:
192,192,215242,1,0,0:0:0:0:
320,192,215242,1,0,0:0:0:0:
448,192,215242,1,0,0:0:0:0:
448,192,215349,1,0,0:0:0:0:
192,192,215456,1,0,0:0:0:0:
320,192,215563,1,0,0:0:0:0:
64,192,215670,1,0,0:0:0:0:
192,192,215670,1,0,0:0:0:0:
320,192,215670,1,0,0:0:0:0:
448,192,215670,1,0,0:0:0:0:
64,192,215992,1,0,0:0:0:0:
320,192,215992,1,0,0:0:0:0:
448,192,215992,1,0,0:0:0:0:
64,192,216099,1,0,0:0:0:0:
192,192,216099,1,0,0:0:0:0:
320,192,216099,1,0,0:0:0:0:
448,192,216099,1,0,0:0:0:0:
192,192,216206,1,0,0:0:0:0:
320,192,216313,1,0,0:0:0:0:
448,192,216420,1,0,0:0:0:0:
64,192,216528,1,0,0:0:0:0:
192,192,216528,1,0,0:0:0:0:
320,192,216528,1,0,0:0:0:0:
448,192,216528,1,0,0:0:0:0:
64,192,216742,1,0,0:0:0:0:
192,192,216742,1,0,0:0:0:0:
320,192,216742,1,0,0:0:0:0:
64,192,216956,1,0,0:0:0:0:
192,192,216956,1,0,0:0:0:0:
320,192,216956,1,0,0:0:0:0:
448,192,216956,1,0,0:0:0:0:
192,192,217170,1,0,0:0:0:0:
320,192,217278,1,0,0:0:0:0:
64,192,217385,1,0,0:0:0:0:
192,192,217385,1,0,0:0:0:0:
320,192,217385,1,0,0:0:0:0:
448,192,217385,1,0,0:0:0:0:
64,192,217706,1,0,0:0:0:0:
192,192,217706,1,0,0:0:0:0:
320,192,217706,1,0,0:0:0:0:
64,192,217813,1,0,0:0:0:0:
192,192,217813,1,0,0:0:0:0:
320,192,217813,1,0,0:0:0:0:
448,192,217813,1,0,0:0:0:0:
64,192,217920,1,0,0:0:0:0:
192,192,218028,1,0,0:0:0:0:
448,192,218135,1,0,0:0:0:0:
64,192,218242,1,0,0:0:0:0:
192,192,218242,1,0,0:0:0:0:
320,192,218242,1,0,0:0:0:0:
448,192,218242,1,0,0:0:0:0:
64,192,218456,1,0,0:0:0:0:
192,192,218456,1,0,0:0:0:0:
320,192,218456,1,0,0:0:0:0:
64,192,218670,1,0,0:0:0:0:
192,192,218670,1,0,0:0:0:0:
320,192,218670,1,0,0:0:0:0:
448,192,218670,1,0,0:0:0:0:
192,192,218885,1,0,0:0:0:0:
448,192,218992,1,0,0:0:0:0:
64,192,219099,1,0,0:0:0:0:
192,192,219099,1,0,0:0:0:0:
320,192,219099,1,0,0:0:0:0:
448,192,219099,1,0,0:0:0:0:
192,192,219420,1,0,0:0:0:0:
320,192,219420,1,0,0:0:0:0:
448,192,219420,1,0,0:0:0:0:
64,192,219528,1,0,0:0:0:0:
192,192,219528,1,0,0:0:0:0:
320,192,219528,1,0,0:0:0:0:
448,192,219528,1,0,0:0:0:0:
64,192,219635,1,0,0:0:0:0:
192,192,219635,1,0,0:0:0:0:
320,192,219635,1,0,0:0:0:0:
192,192,219849,1,0,0:0:0:0:
320,192,219849,1,0,0:0:0:0:
448,192,219849,1,0,0:0:0:0:
64,192,219956,1,0,0:0:0:0:
192,192,219956,1,0,0:0:0:0:
448,192,219956,1,0,0:0:0:0:
320,192,220028,1,0,0:0:0:0:
64,192,220099,1,0,0:0:0:0:
192,192,220170,1,0,0:0:0:0:
320,192,220170,1,0,0:0:0:0:
448,192,220170,1,0,0:0:0:0:
64,192,220242,1,0,0:0:0:0:
448,192,220313,1,0,0:0:0:0:
64,192,220385,1,0,0:0:0:0:
192,192,220385,1,0,0:0:0:0:
320,192,220385,1,0,0:0:0:0:
64,192,220599,1,0,0:0:0:0:
192,192,220599,1,0,0:0:0:0:
448,192,220599,1,0,0:0:0:0:
64,192,220813,1,0,0:0:0:0:
192,192,220813,1,0,0:0:0:0:
320,192,220813,1,0,0:0:0:0:
448,192,220813,1,0,0:0:0:0:
64,192,221242,1,0,0:0:0:0:
192,192,221242,1,0,0:0:0:0:
320,192,221242,1,0,0:0:0:0:
448,192,221242,1,0,0:0:0:0:
64,192,221349,1,0,0:0:0:0:
192,192,221456,1,0,0:0:0:0:
192,192,221563,1,0,0:0:0:0:
320,192,221563,1,0,0:0:0:0:
448,192,221563,1,0,0:0:0:0:
64,192,221885,1,0,0:0:0:0:
192,192,221885,1,0,0:0:0:0:
320,192,221885,1,0,0:0:0:0:
64,192,222099,1,0,0:0:0:0:
192,192,222099,1,0,0:0:0:0:
320,192,222099,1,0,0:0:0:0:
448,192,222206,1,0,0:0:0:0:
192,192,222313,1,0,0:0:0:0:
320,192,222421,1,0,0:0:0:0:
64,192,222528,1,0,0:0:0:0:
192,192,222528,1,0,0:0:0:0:
448,192,222528,1,0,0:0:0:0:
64,192,222849,1,0,0:0:0:0:
320,192,222849,1,0,0:0:0:0:
448,192,222849,1,0,0:0:0:0:
192,192,223063,1,0,0:0:0:0:
320,192,223171,1,0,0:0:0:0:
448,192,223278,1,0,0:0:0:0:
64,192,223385,1,0,0:0:0:0:
192,192,223385,1,0,0:0:0:0:
448,192,223385,1,0,0:0:0:0:
64,192,223599,1,0,0:0:0:0:
192,192,223599,1,0,0:0:0:0:
320,192,223599,1,0,0:0:0:0:
64,192,223813,1,0,0:0:0:0:
192,192,223813,1,0,0:0:0:0:
320,192,223813,1,0,0:0:0:0:
192,192,224028,1,0,0:0:0:0:
320,192,224135,1,0,0:0:0:0:
64,192,224242,1,0,0:0:0:0:
192,192,224242,1,0,0:0:0:0:
448,192,224242,1,0,0:0:0:0:
64,192,224563,1,0,0:0:0:0:
192,192,224563,1,0,0:0:0:0:
320,192,224563,1,0,0:0:0:0:
64,192,224778,1,0,0:0:0:0:
192,192,224885,1,0,0:0:0:0:
448,192,224992,1,0,0:0:0:0:
64,192,225099,1,0,0:0:0:0:
192,192,225099,1,0,0:0:0:0:
448,192,225099,1,0,0:0:0:0:
64,192,225313,1,0,0:0:0:0:
192,192,225313,1,0,0:0:0:0:
320,192,225313,1,0,0:0:0:0:
64,192,225528,1,0,0:0:0:0:
192,192,225528,1,0,0:0:0:0:
320,192,225528,1,0,0:0:0:0:
192,192,225742,1,0,0:0:0:0:
448,192,225849,1,0,0:0:0:0:
64,192,225956,1,0,0:0:0:0:
192,192,225956,1,0,0:0:0:0:
320,192,225956,1,0,0:0:0:0:
192,192,226278,1,0,0:0:0:0:
320,192,226278,1,0,0:0:0:0:
448,192,226278,1,0,0:0:0:0:
64,192,226492,1,0,0:0:0:0:
192,192,226492,1,0,0:0:0:0:
320,192,226492,1,0,0:0:0:0:
192,192,226706,1,0,0:0:0:0:
320,192,226706,1,0,0:0:0:0:
448,192,226706,1,0,0:0:0:0:
192,192,226813,1,0,0:0:0:0:
320,192,226813,1,0,0:0:0:0:
448,192,226813,1,0,0:0:0:0:
192,192,227028,1,0,0:0:0:0:
320,192,227028,1,0,0:0:0:0:
448,192,227028,1,0,0:0:0:0:
64,192,227242,1,0,0:0:0:0:
192,192,227242,1,0,0:0:0:0:
448,192,227242,1,0,0:0:0:0:
64,192,227456,1,0,0:0:0:0:
192,192,227456,1,0,0:0:0:0:
448,192,227456,1,0,0:0:0:0:
64,192,227670,1,0,0:0:0:0:
192,192,227670,1,0,0:0:0:0:
448,192,227670,1,0,0:0:0:0:
192,192,228099,1,0,0:0:0:0:
320,192,228099,1,0,0:0:0:0:
448,192,228099,1,0,0:0:0:0:
64,192,228206,1,0,0:0:0:0:
192,192,228313,1,0,0:0:0:0:
192,192,228420,1,0,0:0:0:0:
320,192,228420,1,0,0:0:0:0:
448,192,228420,1,0,0:0:0:0:
64,192,228742,1,0,0:0:0:0:
192,192,228742,1,0,0:0:0:0:
320,192,228742,1,0,0:0:0:0:
64,192,228956,1,0,0:0:0:0:
192,192,228956,1,0,0:0:0:0:
320,192,228956,1,0,0:0:0:0:
448,192,229063,1,0,0:0:0:0:
192,192,229170,1,0,0:0:0:0:
320,192,229278,1,0,0:0:0:0:
64,192,229385,1,0,0:0:0:0:
192,192,229385,1,0,0:0:0:0:
448,192,229385,1,0,0:0:0:0:
64,192,229706,1,0,0:0:0:0:
320,192,229706,1,0,0:0:0:0:
448,192,229706,1,0,0:0:0:0:
192,192,229920,1,0,0:0:0:0:
320,192,230028,1,0,0:0:0:0:
448,192,230135,1,0,0:0:0:0:
64,192,230242,1,0,0:0:0:0:
192,192,230242,1,0,0:0:0:0:
448,192,230242,1,0,0:0:0:0:
64,192,230456,1,0,0:0:0:0:
192,192,230456,1,0,0:0:0:0:
320,192,230456,1,0,0:0:0:0:
64,192,230670,1,0,0:0:0:0:
192,192,230670,1,0,0:0:0:0:
320,192,230670,1,0,0:0:0:0:
192,192,230885,1,0,0:0:0:0:
320,192,230992,1,0,0:0:0:0:
64,192,231099,1,0,0:0:0:0:
192,192,231099,1,0,0:0:0:0:
448,192,231099,1,0,0:0:0:0:
64,192,231420,1,0,0:0:0:0:
192,192,231420,1,0,0:0:0:0:
320,192,231420,1,0,0:0:0:0:
64,192,231635,1,0,0:0:0:0:
192,192,231742,1,0,0:0:0:0:
448,192,231849,1,0,0:0:0:0:
64,192,231956,1,0,0:0:0:0:
192,192,231956,1,0,0:0:0:0:
448,192,231956,1,0,0:0:0:0:
64,192,232170,1,0,0:0:0:0:
192,192,232170,1,0,0:0:0:0:
320,192,232170,1,0,0:0:0:0:
64,192,232385,1,0,0:0:0:0:
192,192,232385,1,0,0:0:0:0:
320,192,232385,1,0,0:0:0:0:
192,192,232599,1,0,0:0:0:0:
448,192,232706,1,0,0:0:0:0:
64,192,232813,1,0,0:0:0:0:
192,192,232813,1,0,0:0:0:0:
320,192,232813,1,0,0:0:0:0:
192,192,233135,1,0,0:0:0:0:
320,192,233135,1,0,0:0:0:0:
448,192,233135,1,0,0:0:0:0:
64,192,233349,1,0,0:0:0:0:
192,192,233349,1,0,0:0:0:0:
320,192,233349,1,0,0:0:0:0:
192,192,233563,1,0,0:0:0:0:
320,192,233563,1,0,0:0:0:0:
448,192,233563,1,0,0:0:0:0:
192,192,233670,1,0,0:0:0:0:
320,192,233670,1,0,0:0:0:0:
448,192,233670,1,0,0:0:0:0:
192,192,233885,1,0,0:0:0:0:
320,192,233885,1,0,0:0:0:0:
448,192,233885,1,0,0:0:0:0:
64,192,234099,1,0,0:0:0:0:
192,192,234099,1,0,0:0:0:0:
448,192,234099,1,0,0:0:0:0:
64,192,234313,1,0,0:0:0:0:
192,192,234313,1,0,0:0:0:0:
448,192,234313,1,0,0:0:0:0:
64,192,234527,1,0,0:0:0:0:
192,192,234527,1,0,0:0:0:0:
448,192,234527,1,0,0:0:0:0:
64,192,234956,1,0,0:0:0:0:
192,192,234956,1,0,0:0:0:0:
320,192,234956,1,0,0:0:0:0:
448,192,234956,1,0,0:0:0:0:
64,192,235063,1,0,0:0:0:0:
192,192,235170,1,0,0:0:0:0:
192,192,235277,1,0,0:0:0:0:
320,192,235277,1,0,0:0:0:0:
448,192,235277,1,0,0:0:0:0:
64,192,235599,1,0,0:0:0:0:
192,192,235599,1,0,0:0:0:0:
320,192,235599,1,0,0:0:0:0:
64,192,235813,1,0,0:0:0:0:
192,192,235813,1,0,0:0:0:0:
320,192,235813,1,0,0:0:0:0:
448,192,235920,1,0,0:0:0:0:
192,192,236027,1,0,0:0:0:0:
320,192,236135,1,0,0:0:0:0:
64,192,236242,1,0,0:0:0:0:
192,192,236242,1,0,0:0:0:0:
448,192,236242,1,0,0:0:0:0:
64,192,236563,1,0,0:0:0:0:
320,192,236563,1,0,0:0:0:0:
448,192,236563,1,0,0:0:0:0:
192,192,236777,1,0,0:0:0:0:
320,192,236885,1,0,0:0:0:0:
448,192,236992,1,0,0:0:0:0:
64,192,237099,1,0,0:0:0:0:
192,192,237099,1,0,0:0:0:0:
448,192,237099,1,0,0:0:0:0:
64,192,237313,1,0,0:0:0:0:
192,192,237313,1,0,0:0:0:0:
320,192,237313,1,0,0:0:0:0:
64,192,237527,1,0,0:0:0:0:
192,192,237527,1,0,0:0:0:0:
320,192,237527,1,0,0:0:0:0:
192,192,237742,1,0,0:0:0:0:
320,192,237849,1,0,0:0:0:0:
64,192,237956,1,0,0:0:0:0:
192,192,237956,1,0,0:0:0:0:
448,192,237956,1,0,0:0:0:0:
64,192,238277,1,0,0:0:0:0:
192,192,238277,1,0,0:0:0:0:
320,192,238277,1,0,0:0:0:0:
64,192,238492,1,0,0:0:0:0:
192,192,238599,1,0,0:0:0:0:
448,192,238706,1,0,0:0:0:0:
64,192,238813,1,0,0:0:0:0:
192,192,238813,1,0,0:0:0:0:
448,192,238813,1,0,0:0:0:0:
64,192,239027,1,0,0:0:0:0:
192,192,239027,1,0,0:0:0:0:
320,192,239027,1,0,0:0:0:0:
64,192,239242,1,0,0:0:0:0:
192,192,239242,1,0,0:0:0:0:
320,192,239242,1,0,0:0:0:0:
192,192,239456,1,0,0:0:0:0:
448,192,239563,1,0,0:0:0:0:
64,192,239670,1,0,0:0:0:0:
192,192,239670,1,0,0:0:0:0:
320,192,239670,1,0,0:0:0:0:
192,192,239992,1,0,0:0:0:0:
320,192,239992,1,0,0:0:0:0:
448,192,239992,1,0,0:0:0:0:
64,192,240206,1,0,0:0:0:0:
192,192,240206,1,0,0:0:0:0:
320,192,240206,1,0,0:0:0:0:
192,192,240420,1,0,0:0:0:0:
320,192,240420,1,0,0:0:0:0:
448,192,240420,1,0,0:0:0:0:
192,192,240527,1,0,0:0:0:0:
320,192,240527,1,0,0:0:0:0:
448,192,240527,1,0,0:0:0:0:
192,192,240742,1,0,0:0:0:0:
320,192,240742,1,0,0:0:0:0:
448,192,240742,1,0,0:0:0:0:
64,192,240956,1,0,0:0:0:0:
192,192,240956,1,0,0:0:0:0:
448,192,240956,1,0,0:0:0:0:
64,192,241170,1,0,0:0:0:0:
192,192,241170,1,0,0:0:0:0:
448,192,241170,1,0,0:0:0:0:
64,192,241384,1,0,0:0:0:0:
192,192,241384,1,0,0:0:0:0:
448,192,241384,1,0,0:0:0:0:
192,192,241813,1,0,0:0:0:0:
320,192,241813,1,0,0:0:0:0:
448,192,241813,1,0,0:0:0:0:
64,192,241920,1,0,0:0:0:0:
192,192,242027,1,0,0:0:0:0:
192,192,242134,1,0,0:0:0:0:
320,192,242134,1,0,0:0:0:0:
448,192,242134,1,0,0:0:0:0:
64,192,242456,1,0,0:0:0:0:
192,192,242456,1,0,0:0:0:0:
320,192,242456,1,0,0:0:0:0:
64,192,242670,1,0,0:0:0:0:
192,192,242670,1,0,0:0:0:0:
320,192,242670,1,0,0:0:0:0:
448,192,242777,1,0,0:0:0:0:
192,192,242884,1,0,0:0:0:0:
320,192,242992,1,0,0:0:0:0:
64,192,243099,1,0,0:0:0:0:
192,192,243099,1,0,0:0:0:0:
448,192,243099,1,0,0:0:0:0:
64,192,243420,1,0,0:0:0:0:
320,192,243420,1,0,0:0:0:0:
448,192,243420,1,0,0:0:0:0:
192,192,243634,1,0,0:0:0:0:
320,192,243742,1,0,0:0:0:0:
448,192,243849,1,0,0:0:0:0:
64,192,243956,1,0,0:0:0:0:
192,192,243956,1,0,0:0:0:0:
448,192,243956,1,0,0:0:0:0:
64,192,244170,1,0,0:0:0:0:
192,192,244170,1,0,0:0:0:0:
320,192,244170,1,0,0:0:0:0:
64,192,244384,1,0,0:0:0:0:
192,192,244384,1,0,0:0:0:0:
320,192,244384,1,0,0:0:0:0:
192,192,244599,1,0,0:0:0:0:
320,192,244706,1,0,0:0:0:0:
64,192,244813,1,0,0:0:0:0:
192,192,244813,1,0,0:0:0:0:
448,192,244813,1,0,0:0:0:0:
64,192,245134,1,0,0:0:0:0:
192,192,245134,1,0,0:0:0:0:
320,192,245134,1,0,0:0:0:0:
64,192,245349,1,0,0:0:0:0:
192,192,245456,1,0,0:0:0:0:
448,192,245563,1,0,0:0:0:0:
64,192,245670,1,0,0:0:0:0:
192,192,245670,1,0,0:0:0:0:
448,192,245670,1,0,0:0:0:0:
64,192,245884,1,0,0:0:0:0:
192,192,245884,1,0,0:0:0:0:
320,192,245884,1,0,0:0:0:0:
64,192,246099,1,0,0:0:0:0:
192,192,246099,1,0,0:0:0:0:
320,192,246099,1,0,0:0:0:0:
192,192,246313,1,0,0:0:0:0:
448,192,246420,1,0,0:0:0:0:
64,192,246527,1,0,0:0:0:0:
192,192,246527,1,0,0:0:0:0:
320,192,246527,1,0,0:0:0:0:
192,192,246849,1,0,0:0:0:0:
320,192,246849,1,0,0:0:0:0:
448,192,246849,1,0,0:0:0:0:
64,192,247063,1,0,0:0:0:0:
192,192,247063,1,0,0:0:0:0:
320,192,247063,1,0,0:0:0:0:
192,192,247277,1,0,0:0:0:0:
320,192,247277,1,0,0:0:0:0:
448,192,247277,1,0,0:0:0:0:
192,192,247384,1,0,0:0:0:0:
320,192,247384,1,0,0:0:0:0:
448,192,247384,1,0,0:0:0:0:
64,192,247455,1,0,0:0:0:0:
320,192,247527,1,0,0:0:0:0:
64,192,247598,1,0,0:0:0:0:
192,192,247598,1,0,0:0:0:0:
448,192,247598,1,0,0:0:0:0:
320,192,247670,1,0,0:0:0:0:
192,192,247741,1,0,0:0:0:0:
64,192,247812,1,0,0:0:0:0:
320,192,247812,1,0,0:0:0:0:
448,192,247812,1,0,0:0:0:0:
192,192,247919,1,0,0:0:0:0:
320,192,247973,1,0,0:0:0:0:
64,192,248026,1,0,0:0:0:0:
192,192,248026,1,0,0:0:0:0:
448,192,248026,1,0,0:0:0:0:
320,192,248133,1,0,0:0:0:0:
192,192,248187,1,0,0:0:0:0:
64,192,248241,1,0,0:0:0:0:
320,192,248241,1,0,0:0:0:0:
448,192,248241,1,0,0:0:0:0:
192,192,248455,1,0,0:0:0:0:
320,192,248455,1,0,0:0:0:0:
320,192,248669,1,0,0:0:0:0:
448,192,248669,1,0,0:0:0:0:
64,192,249312,1,0,0:0:0:0:
320,192,249312,1,0,0:0:0:0:
320,192,249526,1,0,0:0:0:0:
448,192,249526,1,0,0:0:0:0:
192,192,249954,1,0,0:0:0:0:
448,192,249954,1,0,0:0:0:0:
64,192,250276,1,0,0:0:0:0:
320,192,250276,1,0,0:0:0:0:
64,192,250597,1,0,0:0:0:0:
320,192,250597,1,0,0:0:0:0:
64,192,251669,1,0,0:0:0:0:
192,192,251669,1,0,0:0:0:0:
192,192,251883,1,0,0:0:0:0:
320,192,251883,1,0,0:0:0:0:
320,192,252097,1,0,0:0:0:0:
448,192,252097,1,0,0:0:0:0:
64,192,252740,1,0,0:0:0:0:
320,192,252740,1,0,0:0:0:0:
320,192,252954,1,0,0:0:0:0:
448,192,252954,1,0,0:0:0:0:
192,192,253383,1,0,0:0:0:0:
448,192,253383,1,0,0:0:0:0:
64,192,253704,1,0,0:0:0:0:
320,192,253704,1,0,0:0:0:0:
64,192,255097,1,0,0:0:0:0:
192,192,255097,1,0,0:0:0:0:
192,192,255311,1,0,0:0:0:0:
320,192,255311,1,0,0:0:0:0:
320,192,255526,1,0,0:0:0:0:
448,192,255526,1,0,0:0:0:0:
64,192,255847,1,0,0:0:0:0:
320,192,255847,1,0,0:0:0:0:
192,192,256169,1,0,0:0:0:0:
320,192,256169,1,0,0:0:0:0:
320,192,256383,1,0,0:0:0:0:
448,192,256383,1,0,0:0:0:0:
320,192,256597,1,0,0:0:0:0:
448,192,256597,1,0,0:0:0:0:
192,192,256811,1,0,0:0:0:0:
448,192,256811,1,0,0:0:0:0:
64,192,257026,1,0,0:0:0:0:
448,192,257026,1,0,0:0:0:0:
192,192,257240,1,0,0:0:0:0:
448,192,257240,1,0,0:0:0:0:
64,192,257561,1,0,0:0:0:0:
192,192,257561,1,0,0:0:0:0:
64,192,257883,1,0,0:0:0:0:
320,192,257883,1,0,0:0:0:0:
192,192,257990,1,0,0:0:0:0:
320,192,257990,1,0,0:0:0:0:
320,192,258097,1,0,0:0:0:0:
448,192,258097,1,0,0:0:0:0:
320,192,258311,1,0,0:0:0:0:
448,192,258311,1,0,0:0:0:0:
192,192,258526,1,0,0:0:0:0:
448,192,258526,1,0,0:0:0:0:
64,192,258740,1,0,0:0:0:0:
448,192,258740,1,0,0:0:0:0:
192,192,258954,1,0,0:0:0:0:
448,192,258954,1,0,0:0:0:0:
64,192,259276,1,0,0:0:0:0:
320,192,259276,1,0,0:0:0:0:
64,192,259597,1,0,0:0:0:0:
192,192,259597,1,0,0:0:0:0:
320,192,259811,1,0,0:0:0:0:
448,192,259811,1,0,0:0:0:0:
320,192,260026,1,0,0:0:0:0:
448,192,260026,1,0,0:0:0:0:
192,192,260240,1,0,0:0:0:0:
448,192,260240,1,0,0:0:0:0:
64,192,260454,1,0,0:0:0:0:
320,192,260454,1,0,0:0:0:0:
64,192,260669,1,0,0:0:0:0:
192,192,260669,1,0,0:0:0:0:
64,192,261954,1,0,0:0:0:0:
192,192,261954,1,0,0:0:0:0:
192,192,262169,1,0,0:0:0:0:
320,192,262169,1,0,0:0:0:0:
320,192,262383,1,0,0:0:0:0:
448,192,262383,1,0,0:0:0:0:
64,192,262490,1,0,0:0:0:0:
192,192,262597,1,0,0:0:0:0:
320,192,262704,1,0,0:0:0:0:
448,192,262811,1,0,0:0:0:0:
192,192,262919,1,0,0:0:0:0:
64,192,263026,1,0,0:0:0:0:
320,192,263026,1,0,0:0:0:0:
192,192,263133,1,0,0:0:0:0:
320,192,263240,1,0,0:0:0:0:
448,192,263240,1,0,0:0:0:0:
192,192,263347,1,0,0:0:0:0:
64,192,263454,1,0,0:0:0:0:
320,192,263562,1,0,0:0:0:0:
192,192,263669,1,0,0:0:0:0:
448,192,263669,1,0,0:0:0:0:
320,192,263776,1,0,0:0:0:0:
192,192,263883,1,0,0:0:0:0:
64,192,263990,1,0,0:0:0:0:
320,192,263990,1,0,0:0:0:0:
192,192,264097,1,0,0:0:0:0:
448,192,264204,1,0,0:0:0:0:
64,192,264312,1,0,0:0:0:0:
320,192,264312,1,0,0:0:0:0:
448,192,264419,1,0,0:0:0:0:
320,192,264526,1,0,0:0:0:0:
192,192,264633,1,0,0:0:0:0:
64,192,264740,1,0,0:0:0:0:
448,192,264847,1,0,0:0:0:0:
64,192,264955,1,0,0:0:0:0:
192,192,265062,1,0,0:0:0:0:
320,192,265169,1,0,0:0:0:0:
448,192,265276,1,0,0:0:0:0:
64,192,265383,1,0,0:0:0:0:
192,192,265383,1,0,0:0:0:0:
448,192,265490,1,0,0:0:0:0:
192,192,265597,1,0,0:0:0:0:
320,192,265597,1,0,0:0:0:0:
64,192,265705,1,0,0:0:0:0:
320,192,265812,1,0,0:0:0:0:
448,192,265812,1,0,0:0:0:0:
64,192,265919,1,0,0:0:0:0:
192,192,266026,1,0,0:0:0:0:
320,192,266133,1,0,0:0:0:0:
448,192,266240,1,0,0:0:0:0:
192,192,266348,1,0,0:0:0:0:
64,192,266455,1,0,0:0:0:0:
320,192,266455,1,0,0:0:0:0:
192,192,266562,1,0,0:0:0:0:
320,192,266669,1,0,0:0:0:0:
448,192,266669,1,0,0:0:0:0:
192,192,266776,1,0,0:0:0:0:
64,192,266883,1,0,0:0:0:0:
320,192,266991,1,0,0:0:0:0:
192,192,267098,1,0,0:0:0:0:
448,192,267098,1,0,0:0:0:0:
320,192,267205,1,0,0:0:0:0:
448,192,267312,1,0,0:0:0:0:
64,192,267419,1,0,0:0:0:0:
320,192,267419,1,0,0:0:0:0:
192,192,267526,1,0,0:0:0:0:
320,192,267633,1,0,0:0:0:0:
448,192,267741,1,0,0:0:0:0:
64,192,267848,1,0,0:0:0:0:
448,192,267955,1,0,0:0:0:0:
320,192,268062,1,0,0:0:0:0:
64,192,268169,1,0,0:0:0:0:
320,192,268276,1,0,0:0:0:0:
64,192,268384,1,0,0:0:0:0:
192,192,268491,1,0,0:0:0:0:
320,192,268598,1,0,0:0:0:0:
448,192,268705,1,0,0:0:0:0:
64,192,268812,1,0,0:0:0:0:
192,192,268812,1,0,0:0:0:0:
448,192,268919,1,0,0:0:0:0:
192,192,269026,1,0,0:0:0:0:
320,192,269026,1,0,0:0:0:0:
64,192,269134,1,0,0:0:0:0:
320,192,269241,1,0,0:0:0:0:
448,192,269241,1,0,0:0:0:0:
192,192,269348,1,0,0:0:0:0:
448,192,269455,1,0,0:0:0:0:
64,192,269562,1,0,0:0:0:0:
320,192,269562,1,0,0:0:0:0:
192,192,269669,1,0,0:0:0:0:
448,192,269777,1,0,0:0:0:0:
192,192,269884,1,0,0:0:0:0:
320,192,269884,1,0,0:0:0:0:
64,192,269991,1,0,0:0:0:0:
320,192,270098,1,0,0:0:0:0:
448,192,270098,1,0,0:0:0:0:
192,192,270205,1,0,0:0:0:0:
320,192,270312,1,0,0:0:0:0:
448,192,270312,1,0,0:0:0:0:
64,192,270420,1,0,0:0:0:0:
192,192,270527,1,0,0:0:0:0:
448,192,270527,1,0,0:0:0:0:
320,192,270634,1,0,0:0:0:0:
64,192,270741,1,0,0:0:0:0:
448,192,270741,1,0,0:0:0:0:
320,192,270848,1,0,0:0:0:0:
192,192,270955,1,0,0:0:0:0:
448,192,270955,1,0,0:0:0:0:
64,192,271062,1,0,0:0:0:0:
320,192,271170,1,0,0:0:0:0:
64,192,271277,1,0,0:0:0:0:
192,192,271277,1,0,0:0:0:0:
320,192,271384,1,0,0:0:0:0:
448,192,271491,1,0,0:0:0:0:
64,192,271598,1,0,0:0:0:0:
320,192,271598,1,0,0:0:0:0:
192,192,271705,1,0,0:0:0:0:
320,192,271705,1,0,0:0:0:0:
320,192,271813,1,0,0:0:0:0:
448,192,271813,1,0,0:0:0:0:
64,192,271920,1,0,0:0:0:0:
320,192,272027,1,0,0:0:0:0:
448,192,272027,1,0,0:0:0:0:
64,192,272134,1,0,0:0:0:0:
192,192,272241,1,0,0:0:0:0:
448,192,272241,1,0,0:0:0:0:
320,192,272348,1,0,0:0:0:0:
64,192,272455,1,0,0:0:0:0:
448,192,272455,1,0,0:0:0:0:
320,192,272563,1,0,0:0:0:0:
192,192,272670,1,0,0:0:0:0:
448,192,272670,1,0,0:0:0:0:
320,192,272777,1,0,0:0:0:0:
192,192,272884,1,0,0:0:0:0:
64,192,272991,1,0,0:0:0:0:
320,192,272991,1,0,0:0:0:0:
192,192,273098,1,0,0:0:0:0:
320,192,273206,1,0,0:0:0:0:
64,192,273313,1,0,0:0:0:0:
192,192,273313,1,0,0:0:0:0:
192,192,273420,1,0,0:0:0:0:
320,192,273527,1,0,0:0:0:0:
448,192,273527,1,0,0:0:0:0:
64,192,273634,1,0,0:0:0:0:
320,192,273741,1,0,0:0:0:0:
448,192,273741,1,0,0:0:0:0:
64,192,273849,1,0,0:0:0:0:
192,192,273956,1,0,0:0:0:0:
448,192,273956,1,0,0:0:0:0:
448,192,274063,1,0,0:0:0:0:
64,192,274170,1,0,0:0:0:0:
320,192,274170,1,0,0:0:0:0:
448,192,274277,1,0,0:0:0:0:
64,192,274384,1,0,0:0:0:0:
192,192,274384,1,0,0:0:0:0:
