osu file format v14

[General]
AudioFilename: audio.mp3
AudioLeadIn: 0
PreviewTime: 28763
Countdown: 0
SampleSet: Normal
StackLeniency: 0.2
Mode: 0
LetterboxInBreaks: 0
WidescreenStoryboard: 1

[Editor]
Bookmarks: 2782,8299,28849,40886
DistanceSpacing: 0.4
BeatDivisor: 4
GridSize: 32
TimelineZoom: 4.249998

[Metadata]
Title:eto pole hardbassa
TitleUnicode:это поле хардбасса
Artist:DJ Krahmal
ArtistUnicode:DJ Krahmal
Creator:StanR
Version:narkotikkk
Source:
Tags:mashup russian нейромонах феофан hardbass kkk HardCOREZ kizzvi Nyarlothotep Prince Railgun Kagam1neR1n JustRoxy orinel Hypnosoria bm95YXNpbmU]
BeatmapID:1429611
BeatmapSetID:662341

[Difficulty]
HPDrainRate:4
CircleSize:4
OverallDifficulty:9
ApproachRate:9.4
SliderMultiplier:3.59999990463257
SliderTickRate:1

[Events]
//Background and Video events
0,0,"L0-FDEmc6tc.jpg",0,0
//Break Periods
2,29049,31089
//Storyboard Layer 0 (Background)
//Storyboard Layer 1 (Fail)
//Storyboard Layer 2 (Pass)
//Storyboard Layer 3 (Foreground)
//Storyboard Sound Samples

[TimingPoints]
24,344.827586206897,4,1,0,55,1,0
7265,-66.6666666666667,4,1,0,55,0,0
11058,-200,4,1,0,55,0,0
12437,-66.6666666666667,4,1,0,55,0,0
13817,-200,4,1,0,55,0,0
15196,-66.6666666666667,4,1,0,55,0,0
16575,-200,4,1,0,55,0,0
17940,340.909090909091,4,1,0,55,1,1
22712,-100,4,1,0,40,0,1
23565,-50,4,1,0,55,0,1
28849,-100,4,1,0,55,0,0
31629,342.857142857143,4,1,0,55,1,1
31629,-50,4,1,0,55,0,1
33000,-100,4,1,0,55,0,1
34371,-50,4,1,0,55,0,1
38486,-100,4,1,0,55,0,1
39857,-50,4,1,0,55,0,1
41229,-100,4,1,0,55,0,0

[HitObjects]
125,97,2782,5,0,0:0:0:0:
148,109,3472,5,0,0:0:0:0:
168,127,4161,5,0,0:0:0:0:
183,150,4851,5,0,0:0:0:0:
192,178,5541,5,0,1:0:0:0:
204,263,5713,1,0,3:0:0:0:
169,286,5799,1,0,3:0:0:0:
128,292,5886,1,0,3:0:0:0:
314,247,6058,5,0,3:0:0:0:
303,297,6144,1,0,3:0:0:0:
274,341,6230,1,0,3:0:0:0:
365,167,6403,5,0,3:0:0:0:
411,206,6489,1,0,3:0:0:0:
441,263,6575,1,0,3:0:0:0:
368,71,6748,5,0,3:0:0:0:
444,67,6834,1,0,3:0:0:0:
512,102,6920,1,0,3:0:0:0:
511,121,7265,5,0,2:0:0:0:
451,175,7437,1,0,2:0:0:0:
374,201,7610,1,0,2:0:0:0:
293,197,7782,1,0,2:0:0:0:
215,171,7955,1,0,2:0:0:0:
149,123,8127,1,0,2:0:0:0:
108,52,8299,6,0,P|89:274|240:349,1,405.000004720688,0|0,0:0|2:0,0:0:0:0:
498,323,8644,2,0,P|360:147|198:195,1,405.000004720688,0|0,0:0|2:0,0:0:0:0:
331,309,8989,2,0,P|414:240|272:27,1,405.000004720688,0|0,0:0|2:0,0:0:0:0:
68,11,9334,2,0,P|142:201|340:86,1,405.000004720688,0|0,0:0|2:0,0:0:0:0:
207,62,9679,5,0,0:0:0:0:
311,336,9851,1,0,0:0:0:0:
295,37,10024,5,0,0:0:0:0:
186,363,10196,1,0,0:0:0:0:
426,162,10368,2,0,P|260:195|153:-25,1,405.000004720688,0|0,0:0|2:0,0:0:0:0:
235,57,10713,2,0,P|212:244|30:331,1,405.000004720688,0|0,0:0|2:0,0:0:0:0:
136,232,11058,6,0,L|129:268,1,22.4999994039536,0|0,0:0|2:0,0:0:0:0:
54,177,11230,2,0,L|45:215,1,22.4999994039536,0|0,0:0|2:0,0:0:0:0:
156,129,11403,2,0,L|148:170,1,22.4999994039536,0|0,0:0|2:0,0:0:0:0:
80,62,11575,2,0,L|74:98,1,22.4999994039536,0|0,0:0|2:0,0:0:0:0:
383,62,11748,6,0,L|350:69,1,22.4999994039536,0|0,0:0|2:0,0:0:0:0:
245,117,11920,2,0,L|285:126,1,22.4999994039536,0|0,0:0|2:0,0:0:0:0:
399,174,12092,2,0,L|361:187,1,22.4999994039536,0|0,0:0|2:0,0:0:0:0:
248,237,12265,2,0,L|288:253,1,22.4999994039536,0|0,0:0|2:0,0:0:0:0:
424,287,12437,5,0,0:0:0:0:
7,323,12610,1,0,0:0:0:0:
394,361,12782,2,0,P|308:213|495:111,1,405.000004720688
494,138,13127,5,0,0:0:0:0:
37,53,13299,1,0,0:0:0:0:
477,217,13472,2,0,P|282:328|142:162,1,405.000004720688
22,114,13817,6,0,L|16:151,1,22.4999994039536,0|0,0:0|2:0,0:0:0:0:
130,99,13989,2,0,L|126:138,1,22.4999994039536,0|0,0:0|2:0,0:0:0:0:
246,81,14161,2,0,L|240:121,1,22.4999994039536,0|0,0:0|2:0,0:0:0:0:
365,62,14334,2,0,L|359:96,1,22.4999994039536,0|0,0:0|2:0,0:0:0:0:
494,42,14506,5,0,0:0:0:0:
51,332,14679,1,0,0:0:0:0:
493,323,14851,5,0,0:0:0:0:
31,46,15024,1,0,0:0:0:0:
209,37,15196,6,0,P|219:174|6:328,1,405.000004720688,0|0,0:0|2:0,0:0:0:0:
303,347,15541,6,0,P|293:210|506:56,1,405.000004720688,0|0,0:0|2:0,0:0:0:0:
473,348,15886,6,0,P|304:252|67:280,1,405.000004720688,0|0,0:0|2:0,0:0:0:0:
39,36,16230,6,0,P|208:132|445:104,1,405.000004720688,0|0,0:0|2:0,0:0:0:0:
492,18,16575,5,0,0:0:0:0:
405,195,16748,1,0,0:0:0:0:
405,195,16834,1,0,0:0:0:0:
405,195,16920,1,0,0:0:0:0:
323,354,17092,1,0,0:0:0:0:
350,40,17265,1,0,0:0:0:0:
350,40,17610,6,0,P|393:73|343:56,1,134.999996423721,0|0,0:0|2:0,0:0:0:0:
241,64,17940,6,0,P|233:115|190:149,1,89.9999976158143,0|0,0:0|2:0,0:0:0:0:
128,207,18110,2,0,P|179:215|213:258,1,89.9999976158143,0|0,0:0|2:0,0:0:0:0:
271,320,18280,2,0,P|279:269|322:235,1,89.9999976158143,0|0,0:0|2:0,0:0:0:0:
384,177,18451,2,0,P|333:169|299:126,1,89.9999976158143,0|0,0:0|2:0,0:0:0:0:
149,67,18621,6,0,P|108:106|41:101,1,89.9999976158143,0|0,0:0|2:0,0:0:0:0:
131,299,18792,2,0,P|170:340|165:407,1,89.9999976158143,0|0,0:0|2:0,0:0:0:0:
363,317,18962,2,0,P|404:278|471:283,1,89.9999976158143,0|0,0:0|2:0,0:0:0:0:
381,85,19133,2,0,P|342:44|347:-23,1,89.9999976158143,0|0,0:0|2:0,0:0:0:0:
150,60,19303,5,0,0:0:0:0:
57,181,19474,1,0,0:0:0:0:
37,249,19559,1,0,0:0:0:0:
58,316,19644,1,0,0:0:0:0:
113,361,19729,1,0,0:0:0:0:
184,368,19814,1,0,0:0:0:0:
246,335,19900,1,0,0:0:0:0:
280,272,19985,1,0,0:0:0:0:
274,202,20070,1,0,0:0:0:0:
286,132,20155,1,0,0:0:0:0:
336,81,20240,1,0,0:0:0:0:
405,67,20325,1,0,0:0:0:0:
471,94,20410,1,0,0:0:0:0:
511,153,20495,1,0,0:0:0:0:
512,224,20581,1,0,0:0:0:0:
473,283,20666,1,0,0:0:0:0:
291,50,20837,5,0,0:0:0:0:
372,343,21008,1,0,0:0:0:0:
466,34,21178,1,0,0:0:0:0:
179,297,21349,1,0,0:0:0:0:
512,310,21519,1,0,0:0:0:0:
373,32,21690,1,0,0:0:0:0:
291,366,21860,1,0,0:0:0:0:
507,228,22030,5,0,0:0:0:0:
456,190,22115,1,0,0:0:0:0:
397,170,22200,1,0,0:0:0:0:
334,175,22285,1,0,0:0:0:0:
275,196,22370,1,0,0:0:0:0:
218,224,22456,1,0,0:0:0:0:
161,249,22541,1,0,0:0:0:0:
99,257,22626,1,0,0:0:0:0:
40,235,22712,6,0,L|11:216,8,22.4999994039536
99,156,22968,2,0,L|69:169,8,22.4999994039536
181,91,23224,2,0,L|165:120,4,22.4999994039536
237,170,23394,2,0,L|253:199,4,22.4999994039536
352,193,23565,5,0,0:0:0:0:
447,335,23735,1,0,0:0:0:0:
302,37,23905,1,0,0:0:0:0:
133,332,24076,1,0,0:0:0:0:
503,179,24246,1,0,0:0:0:0:
26,80,24417,1,0,0:0:0:0:
311,375,24587,1,0,0:0:0:0:
499,46,24758,2,0,P|368:258|-37:129,4,719.999980926514
134,139,26292,5,0,0:0:0:0:
480,287,26462,1,0,0:0:0:0:
278,16,26633,1,0,0:0:0:0:
182,376,26803,1,0,0:0:0:0:
492,103,26974,1,0,0:0:0:0:
187,51,27144,1,0,0:0:0:0:
347,375,27315,1,0,0:0:0:0:
96,305,27485,5,0,3:0:0:0:
163,273,27570,1,0,3:0:0:0:
240,267,27655,1,0,3:0:0:0:
311,284,27740,1,0,3:0:0:0:
370,327,27826,1,0,3:0:0:0:
412,248,27911,1,0,3:0:0:0:
409,159,27996,1,0,3:0:0:0:
361,84,28081,1,0,3:0:0:0:
283,43,28166,1,0,3:0:0:0:
194,47,28252,1,0,3:0:0:0:
119,96,28337,1,0,3:0:0:0:
80,176,28422,1,0,3:0:0:0:
85,264,28507,1,0,3:0:0:0:
135,338,28593,5,0,3:0:0:0:
161,229,28678,1,0,3:0:0:0:
135,115,28763,1,0,3:0:0:0:
39,36,28849,1,0,3:0:0:0:
111,77,31629,6,0,P|336:182|621:20,1,539.999985694885,0|0,0:0|2:0,0:0:0:0:
401,307,31971,2,0,P|176:202|-109:364,1,539.999985694885,0|0,0:0|2:0,0:0:0:0:
371,47,32314,2,0,P|266:272|428:557,1,539.999985694885,0|0,0:0|2:0,0:0:0:0:
141,337,32656,2,0,P|246:112|84:-173,1,539.999985694885,0|0,0:0|2:0,0:0:0:0:
475,43,33000,6,0,L|462:96,1,44.9999988079071,0|0,0:0|2:0,0:0:0:0:
332,38,33171,2,0,L|319:91,1,44.9999988079071,0|0,0:0|2:0,0:0:0:0:
192,35,33343,2,0,L|179:88,1,44.9999988079071,0|0,0:0|2:0,0:0:0:0:
49,30,33514,2,0,L|36:83,1,44.9999988079071,0|0,0:0|2:0,0:0:0:0:
486,189,33686,6,0,L|430:188,1,44.9999988079071,0|0,0:0|2:0,0:0:0:0:
40,191,33857,2,0,L|111:191,1,44.9999988079071,0|0,0:0|2:0,0:0:0:0:
510,318,34029,2,0,L|447:316,1,44.9999988079071,0|0,0:0|2:0,0:0:0:0:
10,315,34200,2,0,L|89:315,1,44.9999988079071,0|0,0:0|2:0,0:0:0:0:
325,312,34371,6,0,P|393:219|231:327,3,719.999980926514
451,291,35743,6,0,P|414:272|391:219,1,89.9999976158143,0|0,0:0|2:0,0:0:0:0:
451,93,35914,2,0,P|414:112|391:165,1,89.9999976158143,0|0,0:0|2:0,0:0:0:0:
315,269,36086,2,0,P|264:247|231:218,1,89.9999976158143,0|0,0:0|2:0,0:0:0:0:
315,115,36257,2,0,P|264:137|231:166,1,89.9999976158143,0|0,0:0|2:0,0:0:0:0:
135,227,36429,2,0,L|31:227,1,89.9999976158143,0|0,0:0|2:0,0:0:0:0:
135,157,36600,2,0,L|31:157,1,89.9999976158143,0|0,0:0|2:0,0:0:0:0:
100,365,36771,2,0,P|190:327|214:337,1,89.9999976158143,0|0,0:0|2:0,0:0:0:0:
100,19,36943,2,0,P|190:57|214:47,1,89.9999976158143,0|0,0:0|2:0,0:0:0:0:
507,72,37114,5,0,0:0:0:0:
6,239,37286,1,0,0:0:0:0:
470,370,37457,2,0,P|352:141|19:76,1,539.999985694885,0|0,0:0|2:0,0:0:0:0:
81,42,37800,5,0,0:0:0:0:
293,375,37971,1,0,0:0:0:0:
311,14,38143,2,0,P|153:322|-112:333,1,539.999985694885,0|0,0:0|2:0,0:0:0:0:
24,305,38486,6,0,L|46:234,1,44.9999988079071,0|0,0:0|2:0,0:0:0:0:
166,242,38657,2,0,L|191:166,1,44.9999988079071,0|0,0:0|2:0,0:0:0:0:
315,179,38829,2,0,L|337:108,1,44.9999988079071
455,118,39000,2,0,L|480:42,1,44.9999988079071
252,24,39171,6,0,L|305:74,1,44.9999988079071,0|0,0:0|2:0,0:0:0:0:
423,304,39343,2,0,L|369:253,1,44.9999988079071,0|0,0:0|2:0,0:0:0:0:
34,73,39514,2,0,L|87:123,1,44.9999988079071,0|0,0:0|2:0,0:0:0:0:
205,353,39686,2,0,L|151:302,1,44.9999988079071,0|0,0:0|2:0,0:0:0:0:
153,119,39857,6,0,L|691:75,1,539.999985694885
512,309,40200,2,0,L|153:265,1,539.999985694885,0|0,0:0|2:0,0:0:0:0:
155,42,40543,2,0,P|46:196|292:407,1,539.999985694885
357,342,40886,2,0,P|466:188|220:-23,1,539.999985694885
217,144,41229,5,0,0:0:0:0:
309,228,41400,1,0,0:0:0:0:
309,228,41486,1,0,0:0:0:0:
309,228,41571,1,0,0:0:0:0:
230,307,41743,1,0,0:0:0:0:
476,281,41914,1,0,0:0:0:0:
476,281,42771,5,0,0:0:0:0:
476,281,42942,1,0,0:0:0:0:
476,281,43114,1,0,0:0:0:0:
476,281,43285,1,0,0:0:0:0:
