osu file format v14

[General]
AudioFilename: audio.mp3
AudioLeadIn: 0
PreviewTime: 49600
Countdown: 0
SampleSet: Normal
StackLeniency: 0.7
Mode: 0
LetterboxInBreaks: 0
WidescreenStoryboard: 0

[Editor]
DistanceSpacing: 3
BeatDivisor: 4
GridSize: 16
TimelineZoom: 1.2

[Metadata]
Title:All I Do Is Win (Ookay x Benzi VIP Edit)
TitleUnicode:All I Do Is Win (Ookay x Benzi VIP Edit)
Artist:DJ Khaled x Badrapper
ArtistUnicode:DJ Khaled x Badrapper
Creator:Kolibri-
Version:Insane
Source:
Tags:
BeatmapID:1437039
BeatmapSetID:679582

[Difficulty]
HPDrainRate:7
CircleSize:4.2
OverallDifficulty:8
ApproachRate:9
SliderMultiplier:1.4
SliderTickRate:1

[Events]
//Background and Video events
0,0,"menu-background.jpg",0,0
//Break Periods
//Storyboard Layer 0 (Background)
//Storyboard Layer 1 (Fail)
//Storyboard Layer 2 (Pass)
//Storyboard Layer 3 (Foreground)
//Storyboard Sound Samples

[TimingPoints]
0,400,4,1,0,100,1,0
0,-133.333333333333,4,1,0,50,0,0
12800,-111.111111111111,4,1,0,70,0,0
25200,-100,4,1,0,70,0,0
28800,-133.333333333333,4,1,0,75,0,0
38800,-79.9999999999999,4,1,0,90,0,0

[HitObjects]
192,272,0,6,0,P|112:272|80:304,1,105.000004005432
192,272,800,2,0,P|139:211|94:208,1,105.000004005432
257,124,1600,6,0,P|210:102|160:112,1,105.000004005432
257,124,2400,2,0,P|242:74|201:43,1,105.000004005432
336,176,3200,6,0,P|395:229|440:227,1,105.000004005432
336,176,4000,2,0,P|336:256|368:288,1,105.000004005432
336,64,4800,6,0,P|336:144|368:176,1,105.000004005432
464,160,5600,2,0,P|464:80|432:48,1,105.000004005432
416,256,6400,6,0,P|336:256|304:224,1,105.000004005432
112,256,7200,2,0,P|192:256|224:224,1,105.000004005432
384,112,8000,6,0,P|304:112|272:144,1,105.000004005432
112,112,8800,2,0,P|192:112|224:144,1,105.000004005432
256,192,9600,12,0,11200,0:0:0:0:
144,112,12800,6,0,L|160:176,1,62.9999980773926
192,96,13200,2,0,L|208:160,1,62.9999980773926
240,80,13600,2,0,L|256:144,1,62.9999980773926
288,64,14000,2,0,L|304:128,1,62.9999980773926
336,48,14400,2,0,L|352:96,1,31.4999990386963
144,160,15200,5,0,0:0:0:0:
240,224,15400,1,0,0:0:0:0:
144,256,15600,1,0,0:0:0:0:
144,160,15800,1,0,0:0:0:0:
224,96,16000,2,0,L|288:128,1,62.9999980773926
304,96,16400,2,0,L|247:67,1,62.9999980773926
272,32,16800,2,0,L|336:64,1,62.9999980773926
448,112,17200,5,0,0:0:0:0:
384,32,17400,1,0,0:0:0:0:
336,128,17600,2,0,L|304:176,1,31.4999990386963
176,208,18400,5,0,0:0:0:0:
288,192,18600,1,0,0:0:0:0:
224,112,18800,1,0,0:0:0:0:
320,64,19000,5,0,0:0:0:0:
384,144,19200,1,0,0:0:0:0:
288,192,19400,1,0,0:0:0:0:
176,160,19600,1,0,0:0:0:0:
288,64,19800,1,0,0:0:0:0:
160,64,20000,1,0,0:0:0:0:
80,128,20200,1,0,0:0:0:0:
128,208,20400,1,0,0:0:0:0:
352,160,20800,5,0,0:0:0:0:
304,320,21000,1,0,0:0:0:0:
416,272,21200,1,0,0:0:0:0:
224,192,21400,1,0,0:0:0:0:
224,192,21600,6,0,L|160:128,1,62.9999980773926
112,80,22000,2,0,P|192:64|256:80,1,125.999996154785
384,112,25600,6,0,P|304:128|272:192,1,140
272,192,26200,1,0,0:0:0:0:
240,272,26400,6,0,P|160:256|144:208,1,140
144,176,27000,1,0,0:0:0:0:
176,80,27200,6,0,P|256:96|272:160,1,140
272,176,27800,1,0,0:0:0:0:
368,240,28000,5,0,0:0:0:0:
480,144,28200,1,0,0:0:0:0:
352,80,28400,1,0,0:0:0:0:
160,80,28600,1,0,0:0:0:0:
160,80,28800,6,0,P|160:144|192:176,1,105.000004005432
320,176,29600,2,0,P|320:96|288:64,1,105.000004005432
128,160,30400,2,0,P|176:224|208:224,1,105.000004005432
240,224,31000,1,0,0:0:0:0:
336,224,31200,1,0,0:0:0:0:
400,160,31400,1,0,0:0:0:0:
400,64,31600,1,0,0:0:0:0:
176,48,32000,6,0,P|128:80|160:128,1,105.000004005432
144,112,32600,1,0,0:0:0:0:
144,208,32800,6,0,P|176:256|224:224,1,105.000004005432
224,240,33400,1,0,0:0:0:0:
320,208,33600,6,0,P|368:176|336:128,1,105.000004005432
352,128,34200,1,0,0:0:0:0:
240,64,34400,5,0,0:0:0:0:
128,144,34600,1,0,0:0:0:0:
256,224,34800,1,0,0:0:0:0:
128,144,35000,1,0,0:0:0:0:
320,128,35200,2,0,P|384:144|400:192,1,105.000004005432
399,175,35800,5,0,0:0:0:0:
464,304,36000,2,0,P|416:336|368:304,1,105.000004005432
377,318,36600,5,0,0:0:0:0:
272,224,36800,2,0,P|231:192|192:224,1,105.000004005432
192,224,37400,5,0,0:0:0:0:
192,48,37600,2,0,P|224:32|256:48,1,52.5000020027161
288,80,38000,2,0,P|320:64|352:80,1,52.5000020027161
400,128,38400,1,0,0:0:0:0:
16,96,38800,6,0,L|112:144,1,87.5
224,192,39200,1,0,0:0:0:0:
96,320,39400,1,0,0:0:0:0:
80,336,39600,5,0,0:0:0:0:
64,352,39800,1,0,0:0:0:0:
48,368,40000,1,0,0:0:0:0:
368,16,40400,6,0,L|320:112,1,87.5
272,224,40800,1,0,0:0:0:0:
144,96,41000,1,0,0:0:0:0:
128,80,41200,5,0,0:0:0:0:
112,64,41400,1,0,0:0:0:0:
96,48,41600,1,0,0:0:0:0:
464,320,42000,6,0,L|368:272,1,87.5
256,224,42400,1,0,0:0:0:0:
384,96,42600,1,0,0:0:0:0:
400,80,42800,5,0,0:0:0:0:
416,64,43000,1,0,0:0:0:0:
432,48,43200,1,0,0:0:0:0:
128,320,43600,6,0,L|176:224,1,87.5
224,112,44000,1,0,0:0:0:0:
352,240,44200,1,0,0:0:0:0:
368,256,44400,5,0,0:0:0:0:
384,272,44600,1,0,0:0:0:0:
400,288,44800,1,0,0:0:0:0:
416,304,45000,5,0,0:0:0:0:
383,322,45100,1,0,0:0:0:0:
347,333,45200,1,0,0:0:0:0:
310,335,45300,1,0,0:0:0:0:
273,328,45400,1,0,0:0:0:0:
240,320,45500,5,0,0:0:0:0:
204,307,45600,1,0,0:0:0:0:
170,292,45700,1,0,0:0:0:0:
137,274,45800,1,0,0:0:0:0:
106,253,45900,1,0,0:0:0:0:
77,229,46000,1,0,0:0:0:0:
64,192,46100,5,0,0:0:0:0:
61,148,46200,1,0,0:0:0:0:
72,106,46300,1,0,0:0:0:0:
90,66,46400,1,0,0:0:0:0:
114,34,46500,1,0,0:0:0:0:
144,64,46600,1,0,0:0:0:0:
160,96,46700,1,0,0:0:0:0:
176,128,46800,2,0,L|208:176,11,43.75
224,192,48000,5,0,0:0:0:0:
237,218,48100,1,0,0:0:0:0:
251,243,48200,1,0,0:0:0:0:
267,268,48300,1,0,0:0:0:0:
284,292,48400,1,0,0:0:0:0:
303,314,48500,1,0,0:0:0:0:
325,333,48600,1,0,0:0:0:0:
350,348,48700,1,0,0:0:0:0:
378,358,48800,1,0,0:0:0:0:
407,363,48900,1,0,0:0:0:0:
436,364,49000,1,0,0:0:0:0:
465,361,49100,1,0,0:0:0:0:
496,352,49200,1,0,0:0:0:0:
416,96,49600,5,0,0:0:0:0:
272,64,50000,2,0,P|224:112|208:160,1,87.5
208,160,50300,2,0,P|272:208|320:160,1,131.25
320,192,50700,2,0,P|416:176|416:176,1,87.5
112,112,51200,2,0,L|112:288,1,175
128,304,51800,1,0,0:0:0:0:
176,288,52000,2,0,P|224:208|224:176,1,87.5
448,176,52400,2,0,L|336:176,1,87.5
80,144,52800,2,0,L|192:144,1,87.5
368,64,53200,2,0,L|352:192,4,87.5
