osu file format v14

[General]
AudioFilename: Circus Rave (Original Mix) - Sinoze Records.mp3
AudioLeadIn: 0
PreviewTime: 121988
Countdown: 0
SampleSet: Soft
StackLeniency: 0.7
Mode: 3
LetterboxInBreaks: 0
SpecialStyle: 0
WidescreenStoryboard: 1

[Editor]
Bookmarks: 15113,30113,45113,60113,67613,78863,93863,101363,108863,116363,123863,138863,153863,168863,183863,191363,198863,206363,213863,221363,228863,243863,258863,273863,281363,294488
DistanceSpacing: 0.5
BeatDivisor: 4
GridSize: 8
TimelineZoom: 1.6

[Metadata]
Title:Circus Rave (Original Mix)
TitleUnicode:Circus Rave (Original Mix)
Artist:DJ KAWAYAH
ArtistUnicode:DJ KAWAYAH
Creator:-[DaNieL_TH]-
Version:The EDM Show!! // 7K
Source:Thapster
Tags:Thapster sinoze EDM Shows KAWAYAH
BeatmapID:1930550
BeatmapSetID:603255

[Difficulty]
HPDrainRate:8.5
CircleSize:7
OverallDifficulty:8.5
ApproachRate:5
SliderMultiplier:1.4
SliderTickRate:1

[Events]
//Background and Video events
0,0,"Circus Rave.png",0,0
//Break Periods
2,20439,70133
//Storyboard Layer 0 (Background)
//Storyboard Layer 1 (Fail)
//Storyboard Layer 2 (Pass)
//Storyboard Layer 3 (Foreground)
//Storyboard Sound Samples

[TimingPoints]
83.651073877352,468.75,4,2,1,30,1,0
13207,-125,4,2,1,30,0,0
14613,-66.6666666666667,4,2,1,30,0,0
14731,-500,4,2,1,30,0,0
14848,-66.6666666666667,4,2,1,30,0,0
14965,-500,4,2,1,30,0,0
15082,-100,4,2,1,30,0,0
30082,-133.333333333333,4,2,1,30,0,0
45082,-117.647058823529,4,2,1,30,0,0
60082,-105.263157894737,4,2,1,30,0,0
67582,-100,4,2,1,30,0,0
71449,-99.009900990099,4,2,1,30,0,0
71567,-98.0392156862745,4,2,1,30,0,0
71684,-97.0873786407767,4,2,1,30,0,0
71801,-96.1538461538461,4,2,1,30,0,0
71918,-95.2380952380952,4,2,1,30,0,0
72035,-94.3396226415094,4,2,1,30,0,0
72152,-93.4579439252336,4,2,1,30,0,0
72270,-92.5925925925926,4,2,1,30,0,0
72387,-91.743119266055,4,2,1,30,0,0
72504,-90.9090909090909,4,2,1,30,0,0
72621,-90.0900900900901,4,2,1,30,0,0
72738,-89.2857142857143,4,2,1,30,0,0
72856,-88.4955752212389,4,2,1,30,0,0
72973,-87.719298245614,4,2,1,30,0,0
73090,-86.9565217391304,4,2,1,30,0,0
73207,-86.2068965517241,4,2,1,30,0,0
73324,-85.4700854700855,4,2,1,30,0,0
73442,-84.7457627118644,4,2,1,30,0,0
73559,-84.0336134453781,4,2,1,30,0,0
73676,-83.3333333333333,4,2,1,30,0,0
73793,-82.6446280991736,4,2,1,30,0,0
73910,-81.9672131147541,4,2,1,30,0,0
74027,-81.3008130081301,4,2,1,30,0,0
74145,-80.6451612903226,4,2,1,30,0,0
74262,-80,4,2,1,30,0,0
74613,-28.5714285714286,4,2,1,30,0,0
74731,-333.333333333333,4,2,1,30,0,0
74848,-28.5714285714286,4,2,1,30,0,0
74965,-333.333333333333,4,2,1,30,0,0
75082,-200,4,2,1,30,0,0
76957,-181.818181818182,4,2,1,30,0,0
77074,-166.666666666667,4,2,1,30,0,0
77192,-153.846153846154,4,2,1,30,0,0
77309,-142.857142857143,4,2,1,30,0,0
77426,-133.333333333333,4,2,1,30,0,0
77543,-125,4,2,1,30,0,0
77660,-117.647058823529,4,2,1,30,0,0
77777,-111.111111111111,4,2,1,30,0,0
77895,-105.263157894737,4,2,1,30,0,0
78012,-100,4,2,1,30,0,0
78129,-90.9090909090909,4,2,1,30,0,0
78246,-83.3333333333333,4,2,1,30,0,0
78363,-10,4,2,1,30,0,0
78422,-100,4,2,1,30,0,0
78832,-33.3333333333333,4,2,1,30,0,0
78871,-166.666666666667,4,2,1,30,0,0
79184,-33.3333333333333,4,2,1,30,0,0
79223,-166.666666666667,4,2,1,30,0,0
79535,-33.3333333333333,4,2,1,30,0,0
79574,-166.666666666667,4,2,1,30,0,0
79770,-33.3333333333333,4,2,1,30,0,0
79809,-166.666666666667,4,2,1,30,0,0
80004,-33.3333333333333,4,2,1,30,0,0
80043,-166.666666666667,4,2,1,30,0,0
80238,-33.3333333333333,4,2,1,30,0,0
80277,-166.666666666667,4,2,1,30,0,0
80473,-33.3333333333333,4,2,1,30,0,0
80512,-166.666666666667,4,2,1,30,0,0
80707,-33.3333333333333,4,2,1,30,0,0
80746,-166.666666666667,4,2,1,30,0,0
81059,-33.3333333333333,4,2,1,30,0,0
81098,-166.666666666667,4,2,1,30,0,0
81410,-33.3333333333333,4,2,1,30,0,0
81449,-166.666666666667,4,2,1,30,0,0
81645,-33.3333333333333,4,2,1,30,0,0
81684,-166.666666666667,4,2,1,30,0,0
81879,-33.3333333333333,4,2,1,30,0,0
81918,-166.666666666667,4,2,1,30,0,0
82113,-33.3333333333333,4,2,1,30,0,0
82152,-166.666666666667,4,2,1,30,0,0
82348,-33.3333333333333,4,2,1,30,0,0
82387,-166.666666666667,4,2,1,30,0,0
82582,-33.3333333333333,4,2,1,30,0,0
82621,-166.666666666667,4,2,1,30,0,0
82934,-33.3333333333333,4,2,1,30,0,0
82973,-166.666666666667,4,2,1,30,0,0
83285,-33.3333333333333,4,2,1,30,0,0
83324,-166.666666666667,4,2,1,30,0,0
83520,-33.3333333333333,4,2,1,30,0,0
83559,-166.666666666667,4,2,1,30,0,0
83754,-33.3333333333333,4,2,1,30,0,0
83793,-166.666666666667,4,2,1,30,0,0
83988,-33.3333333333333,4,2,1,30,0,0
84027,-166.666666666667,4,2,1,30,0,0
84223,-33.3333333333333,4,2,1,30,0,0
84262,-166.666666666667,4,2,1,30,0,0
84457,-33.3333333333333,4,2,1,30,0,0
84496,-166.666666666667,4,2,1,30,0,0
84809,-33.3333333333333,4,2,1,30,0,0
84848,-166.666666666667,4,2,1,30,0,0
85160,-33.3333333333333,4,2,1,30,0,0
85199,-166.666666666667,4,2,1,30,0,0
85395,-33.3333333333333,4,2,1,30,0,0
85434,-166.666666666667,4,2,1,30,0,0
85629,-33.3333333333333,4,2,1,30,0,0
85668,-166.666666666667,4,2,1,30,0,0
85863,-33.3333333333333,4,2,1,30,0,0
85902,-166.666666666667,4,2,1,30,0,0
86098,-33.3333333333333,4,2,1,30,0,0
86137,-166.666666666667,4,2,1,30,0,0
86332,-33.3333333333333,4,2,1,30,0,0
86371,-166.666666666667,4,2,1,30,0,0
86684,-33.3333333333333,4,2,1,30,0,0
86723,-166.666666666667,4,2,1,30,0,0
87035,-33.3333333333333,4,2,1,30,0,0
87074,-166.666666666667,4,2,1,30,0,0
87270,-33.3333333333333,4,2,1,30,0,0
87309,-166.666666666667,4,2,1,30,0,0
87504,-33.3333333333333,4,2,1,30,0,0
87543,-166.666666666667,4,2,1,30,0,0
87738,-33.3333333333333,4,2,1,30,0,0
87777,-166.666666666667,4,2,1,30,0,0
87973,-33.3333333333333,4,2,1,30,0,0
88012,-166.666666666667,4,2,1,30,0,0
88207,-33.3333333333333,4,2,1,30,0,0
88246,-166.666666666667,4,2,1,30,0,0
88559,-33.3333333333333,4,2,1,30,0,0
88598,-166.666666666667,4,2,1,30,0,0
88793,-100,4,2,1,30,0,0
88910,-33.3333333333333,4,2,1,30,0,0
88949,-166.666666666667,4,2,1,30,0,0
89145,-33.3333333333333,4,2,1,30,0,0
89184,-166.666666666667,4,2,1,30,0,0
89379,-33.3333333333333,4,2,1,30,0,0
89418,-166.666666666667,4,2,1,30,0,0
89613,-33.3333333333333,4,2,1,30,0,0
89652,-166.666666666667,4,2,1,30,0,0
89848,-33.3333333333333,4,2,1,30,0,0
89887,-166.666666666667,4,2,1,30,0,0
90082,-33.3333333333333,4,2,1,30,0,0
90121,-166.666666666667,4,2,1,30,0,0
90434,-33.3333333333333,4,2,1,30,0,0
90473,-166.666666666667,4,2,1,30,0,0
90785,-33.3333333333333,4,2,1,30,0,0
90824,-166.666666666667,4,2,1,30,0,0
91020,-33.3333333333333,4,2,1,30,0,0
91059,-166.666666666667,4,2,1,30,0,0
91254,-33.3333333333333,4,2,1,30,0,0
91293,-166.666666666667,4,2,1,30,0,0
91488,-33.3333333333333,4,2,1,30,0,0
91527,-166.666666666667,4,2,1,30,0,0
91723,-33.3333333333333,4,2,1,30,0,0
91762,-166.666666666667,4,2,1,30,0,0
91957,-33.3333333333333,4,2,1,30,0,0
91996,-166.666666666667,4,2,1,30,0,0
92309,-33.3333333333333,4,2,1,30,0,0
92348,-166.666666666667,4,2,1,30,0,0
92660,-33.3333333333333,4,2,1,30,0,0
92699,-166.666666666667,4,2,1,30,0,0
92895,-33.3333333333333,4,2,1,30,0,0
92934,-166.666666666667,4,2,1,30,0,0
93129,-33.3333333333333,4,2,1,30,0,0
93168,-166.666666666667,4,2,1,30,0,0
93363,-33.3333333333333,4,2,1,30,0,0
93402,-166.666666666667,4,2,1,30,0,0
93598,-33.3333333333333,4,2,1,30,0,0
93637,-166.666666666667,4,2,1,30,0,0
93832,-33.3333333333333,4,2,1,30,0,0
93871,-166.666666666667,4,2,1,30,0,0
94184,-33.3333333333333,4,2,1,30,0,0
94223,-166.666666666667,4,2,1,30,0,0
94535,-33.3333333333333,4,2,1,30,0,0
94574,-166.666666666667,4,2,1,30,0,0
94770,-33.3333333333333,4,2,1,30,0,0
94809,-166.666666666667,4,2,1,30,0,0
95004,-33.3333333333333,4,2,1,30,0,0
95043,-166.666666666667,4,2,1,30,0,0
95238,-33.3333333333333,4,2,1,30,0,0
95277,-166.666666666667,4,2,1,30,0,0
95473,-33.3333333333333,4,2,1,30,0,0
95512,-166.666666666667,4,2,1,30,0,0
95707,-33.3333333333333,4,2,1,30,0,0
95746,-166.666666666667,4,2,1,30,0,0
96059,-33.3333333333333,4,2,1,30,0,0
96098,-166.666666666667,4,2,1,30,0,0
96410,-33.3333333333333,4,2,1,30,0,0
96449,-166.666666666667,4,2,1,30,0,0
96645,-33.3333333333333,4,2,1,30,0,0
96684,-166.666666666667,4,2,1,30,0,0
96879,-33.3333333333333,4,2,1,30,0,0
96918,-166.666666666667,4,2,1,30,0,0
97113,-33.3333333333333,4,2,1,30,0,0
97152,-166.666666666667,4,2,1,30,0,0
97348,-33.3333333333333,4,2,1,30,0,0
97387,-166.666666666667,4,2,1,30,0,0
97582,-33.3333333333333,4,2,1,30,0,0
97621,-166.666666666667,4,2,1,30,0,0
97934,-33.3333333333333,4,2,1,30,0,0
97973,-166.666666666667,4,2,1,30,0,0
98285,-33.3333333333333,4,2,1,30,0,0
98324,-166.666666666667,4,2,1,30,0,0
98520,-33.3333333333333,4,2,1,30,0,0
98559,-166.666666666667,4,2,1,30,0,0
98754,-33.3333333333333,4,2,1,30,0,0
98793,-166.666666666667,4,2,1,30,0,0
98988,-33.3333333333333,4,2,1,30,0,0
99027,-166.666666666667,4,2,1,30,0,0
99223,-33.3333333333333,4,2,1,30,0,0
99262,-166.666666666667,4,2,1,30,0,0
99457,-33.3333333333333,4,2,1,30,0,0
99496,-166.666666666667,4,2,1,30,0,0
99809,-33.3333333333333,4,2,1,30,0,0
99848,-166.666666666667,4,2,1,30,0,0
100160,-33.3333333333333,4,2,1,30,0,0
100199,-166.666666666667,4,2,1,30,0,0
100395,-33.3333333333333,4,2,1,30,0,0
100434,-166.666666666667,4,2,1,30,0,0
100629,-33.3333333333333,4,2,1,30,0,0
100668,-166.666666666667,4,2,1,30,0,0
100863,-33.3333333333333,4,2,1,30,0,0
100902,-166.666666666667,4,2,1,30,0,0
101098,-33.3333333333333,4,2,1,30,0,0
101137,-166.666666666667,4,2,1,30,0,0
101332,-50,4,2,1,30,0,0
101449,-250,4,2,1,30,0,0
101567,-50,4,2,1,30,0,0
101684,-250,4,2,1,30,0,0
101801,-50,4,2,1,30,0,0
101918,-250,4,2,1,30,0,0
102035,-50,4,2,1,30,0,0
102152,-250,4,2,1,30,0,0
102270,-50,4,2,1,30,0,0
102387,-250,4,2,1,30,0,0
102504,-50,4,2,1,30,0,0
102621,-250,4,2,1,30,0,0
102738,-50,4,2,1,30,0,0
102856,-250,4,2,1,30,0,0
102973,-50,4,2,1,30,0,0
103090,-250,4,2,1,30,0,0
103207,-50,4,2,1,30,0,0
103324,-250,4,2,1,30,0,0
103442,-50,4,2,1,30,0,0
103559,-250,4,2,1,30,0,0
103676,-50,4,2,1,30,0,0
103793,-250,4,2,1,30,0,0
103910,-50,4,2,1,30,0,0
104027,-250,4,2,1,30,0,0
104145,-50,4,2,1,30,0,0
104262,-250,4,2,1,30,0,0
104379,-50,4,2,1,30,0,0
104496,-250,4,2,1,30,0,0
104613,-50,4,2,1,30,0,0
104731,-250,4,2,1,30,0,0
104848,-50,4,2,1,30,0,0
104965,-250,4,2,1,30,0,0
105082,-40,4,2,1,30,0,0
105111,-250,4,2,1,30,0,0
105199,-40,4,2,1,30,0,0
105229,-250,4,2,1,30,0,0
105317,-40,4,2,1,30,0,0
105346,-250,4,2,1,30,0,0
105434,-40,4,2,1,30,0,0
105463,-250,4,2,1,30,0,0
105551,-40,4,2,1,30,0,0
105580,-250,4,2,1,30,0,0
105668,-40,4,2,1,30,0,0
105697,-250,4,2,1,30,0,0
105785,-40,4,2,1,30,0,0
105815,-250,4,2,1,30,0,0
105902,-40,4,2,1,30,0,0
105932,-250,4,2,1,30,0,0
106020,-40,4,2,1,30,0,0
106049,-250,4,2,1,30,0,0
106137,-40,4,2,1,30,0,0
106166,-250,4,2,1,30,0,0
106254,-40,4,2,1,30,0,0
106283,-250,4,2,1,30,0,0
106371,-40,4,2,1,30,0,0
106401,-250,4,2,1,30,0,0
106488,-40,4,2,1,30,0,0
106518,-250,4,2,1,30,0,0
106606,-40,4,2,1,30,0,0
106635,-250,4,2,1,30,0,0
106723,-40,4,2,1,30,0,0
106752,-250,4,2,1,30,0,0
106840,-40,4,2,1,30,0,0
106869,-250,4,2,1,30,0,0
106957,-40,4,2,1,30,0,0
106986,-250,4,2,1,30,0,0
107074,-40,4,2,1,30,0,0
107104,-250,4,2,1,30,0,0
107192,-40,4,2,1,30,0,0
107221,-250,4,2,1,30,0,0
107309,-40,4,2,1,30,0,0
107338,-250,4,2,1,30,0,0
107426,-40,4,2,1,30,0,0
107455,-250,4,2,1,30,0,0
107543,-40,4,2,1,30,0,0
107572,-250,4,2,1,30,0,0
107660,-40,4,2,1,30,0,0
107690,-250,4,2,1,30,0,0
107777,-40,4,2,1,30,0,0
107807,-250,4,2,1,30,0,0
107895,-40,4,2,1,30,0,0
107924,-250,4,2,1,30,0,0
108012,-40,4,2,1,30,0,0
108041,-250,4,2,1,30,0,0
108129,-40,4,2,1,30,0,0
108158,-250,4,2,1,30,0,0
108246,-40,4,2,1,30,0,0
108276,-250,4,2,1,30,0,0
108363,-40,4,2,1,30,0,0
108481,-250,4,2,1,30,0,0
108598,-40,4,2,1,30,0,0
108715,-250,4,2,1,30,0,0
108832,-100,4,2,1,30,0,0
110238,-20,4,2,1,30,0,0
110277,-250,4,2,1,30,0,0
110707,-100,4,2,1,30,0,0
112113,-20,4,2,1,30,0,0
112152,-250,4,2,1,30,0,0
112582,-100,4,2,1,30,0,0
113988,-20,4,2,1,30,0,0
114027,-250,4,2,1,30,0,0
114457,-100,4,2,1,30,0,0
115863,-20,4,2,1,30,0,0
115902,-250,4,2,1,30,0,0
116332,-100,4,2,1,30,0,0
120082,-40,4,2,1,30,0,0
120111,-250,4,2,1,30,0,0
120199,-40,4,2,1,30,0,0
120229,-250,4,2,1,30,0,0
120317,-40,4,2,1,30,0,0
120346,-250,4,2,1,30,0,0
120434,-40,4,2,1,30,0,0
120463,-250,4,2,1,30,0,0
120551,-40,4,2,1,30,0,0
120580,-250,4,2,1,30,0,0
120668,-40,4,2,1,30,0,0
120697,-250,4,2,1,30,0,0
120785,-40,4,2,1,30,0,0
120815,-250,4,2,1,30,0,0
120902,-40,4,2,1,30,0,0
120932,-250,4,2,1,30,0,0
121020,-40,4,2,1,30,0,0
121049,-250,4,2,1,30,0,0
121137,-40,4,2,1,30,0,0
121166,-250,4,2,1,30,0,0
121254,-40,4,2,1,30,0,0
121283,-250,4,2,1,30,0,0
121371,-40,4,2,1,30,0,0
121401,-250,4,2,1,30,0,0
121488,-40,4,2,1,30,0,0
121518,-250,4,2,1,30,0,0
121606,-40,4,2,1,30,0,0
121635,-250,4,2,1,30,0,0
121723,-40,4,2,1,30,0,0
121752,-250,4,2,1,30,0,0
121840,-40,4,2,1,30,0,0
121869,-250,4,2,1,30,0,0
121957,-100,4,2,1,30,0,0
123363,-28.5714285714286,4,2,1,30,0,0
123481,-588.235294117647,4,2,1,30,0,0
123598,-28.5714285714286,4,2,1,30,0,0
123715,-588.235294117647,4,2,1,30,0,0
123833,-100,4,2,1,30,0,1
126410,-33.3333333333333,4,2,1,30,0,1
126449,-250,4,2,1,30,0,1
126645,-33.3333333333333,4,2,1,30,0,1
126684,-250,4,2,1,30,0,1
126879,-33.3333333333333,4,2,1,30,0,1
126918,-250,4,2,1,30,0,1
127113,-33.3333333333333,4,2,1,30,0,1
127152,-250,4,2,1,30,0,1
127348,-33.3333333333333,4,2,1,30,0,1
127387,-250,4,2,1,30,0,1
127582,-100,4,2,1,30,0,1
130863,-40,4,2,1,30,0,1
130981,-500,4,2,1,30,0,1
131098,-40,4,2,1,30,0,1
131215,-500,4,2,1,30,0,1
131332,-100,4,2,1,30,0,1
133910,-33.3333333333333,4,2,1,30,0,1
133949,-250,4,2,1,30,0,1
134145,-33.3333333333333,4,2,1,30,0,1
134184,-250,4,2,1,30,0,1
134379,-33.3333333333333,4,2,1,30,0,1
134418,-250,4,2,1,30,0,1
134613,-33.3333333333333,4,2,1,30,0,1
134652,-250,4,2,1,30,0,1
134848,-33.3333333333333,4,2,1,30,0,1
134887,-250,4,2,1,30,0,1
135082,-100,4,2,1,30,0,1
136958,-133.333333333333,4,2,1,30,0,0
138129,-40,4,2,1,30,0,0
138246,-500,4,2,1,30,0,0
138363,-40,4,2,1,30,0,0
138481,-500,4,2,1,30,0,0
138598,-40,4,2,1,30,0,0
138715,-500,4,2,1,30,0,0
138833,-100,4,2,1,30,0,1
141410,-33.3333333333333,4,2,1,30,0,1
141449,-250,4,2,1,30,0,1
141645,-33.3333333333333,4,2,1,30,0,1
141684,-250,4,2,1,30,0,1
141879,-33.3333333333333,4,2,1,30,0,1
141918,-250,4,2,1,30,0,1
142113,-33.3333333333333,4,2,1,30,0,1
142152,-250,4,2,1,30,0,1
142348,-33.3333333333333,4,2,1,30,0,1
142387,-250,4,2,1,30,0,1
142582,-100,4,2,1,30,0,1
145863,-40,4,2,1,30,0,1
145981,-500,4,2,1,30,0,1
146098,-40,4,2,1,30,0,1
146215,-500,4,2,1,30,0,1
146332,-100,4,2,1,30,0,1
148910,-33.3333333333333,4,2,1,30,0,1
148949,-250,4,2,1,30,0,1
149145,-33.3333333333333,4,2,1,30,0,1
149184,-250,4,2,1,30,0,1
149379,-33.3333333333333,4,2,1,30,0,1
149418,-250,4,2,1,30,0,1
149613,-33.3333333333333,4,2,1,30,0,1
149652,-250,4,2,1,30,0,1
149848,-33.3333333333333,4,2,1,30,0,1
149887,-250,4,2,1,30,0,1
150082,-100,4,2,1,30,0,1
153129,-66.6666666666667,4,2,1,30,0,1
153246,-500,4,2,1,30,0,1
153363,-66.6666666666667,4,2,1,30,0,1
153481,-500,4,2,1,30,0,1
153598,-66.6666666666667,4,2,1,30,0,1
153715,-500,4,2,1,30,0,1
153833,-133.333333333333,4,2,1,30,0,0
168832,-117.647058823529,4,2,1,30,0,0
183832,-105.263157894737,4,2,1,30,0,0
191332,-100,4,2,1,30,0,0
197777,-50,4,2,1,30,0,0
197807,-1000,4,2,1,30,0,0
197895,-50,4,2,1,30,0,0
197924,-1000,4,2,1,30,0,0
198012,-50,4,2,1,30,0,0
198041,-1000,4,2,1,30,0,0
198129,-50,4,2,1,30,0,0
198158,-1000,4,2,1,30,0,0
198246,-50,4,2,1,30,0,0
198276,-1000,4,2,1,30,0,0
198832,-100,4,2,1,30,0,0
198832,-33.3333333333333,4,2,1,30,0,0
198871,-166.666666666667,4,2,1,30,0,0
199184,-33.3333333333333,4,2,1,30,0,0
199223,-166.666666666667,4,2,1,30,0,0
199535,-33.3333333333333,4,2,1,30,0,0
199574,-166.666666666667,4,2,1,30,0,0
199770,-33.3333333333333,4,2,1,30,0,0
199809,-166.666666666667,4,2,1,30,0,0
200004,-33.3333333333333,4,2,1,30,0,0
200043,-166.666666666667,4,2,1,30,0,0
200238,-33.3333333333333,4,2,1,30,0,0
200277,-166.666666666667,4,2,1,30,0,0
200473,-33.3333333333333,4,2,1,30,0,0
200512,-166.666666666667,4,2,1,30,0,0
200707,-33.3333333333333,4,2,1,30,0,0
200746,-166.666666666667,4,2,1,30,0,0
201059,-33.3333333333333,4,2,1,30,0,0
201098,-166.666666666667,4,2,1,30,0,0
201410,-33.3333333333333,4,2,1,30,0,0
201449,-166.666666666667,4,2,1,30,0,0
201645,-33.3333333333333,4,2,1,30,0,0
201684,-166.666666666667,4,2,1,30,0,0
201879,-33.3333333333333,4,2,1,30,0,0
201918,-166.666666666667,4,2,1,30,0,0
202113,-33.3333333333333,4,2,1,30,0,0
202152,-166.666666666667,4,2,1,30,0,0
202348,-33.3333333333333,4,2,1,30,0,0
202387,-166.666666666667,4,2,1,30,0,0
202582,-33.3333333333333,4,2,1,30,0,0
202621,-166.666666666667,4,2,1,30,0,0
202934,-33.3333333333333,4,2,1,30,0,0
202973,-166.666666666667,4,2,1,30,0,0
203285,-33.3333333333333,4,2,1,30,0,0
203324,-166.666666666667,4,2,1,30,0,0
203520,-33.3333333333333,4,2,1,30,0,0
203559,-166.666666666667,4,2,1,30,0,0
203754,-33.3333333333333,4,2,1,30,0,0
203793,-166.666666666667,4,2,1,30,0,0
203988,-33.3333333333333,4,2,1,30,0,0
204027,-166.666666666667,4,2,1,30,0,0
204223,-33.3333333333333,4,2,1,30,0,0
204262,-166.666666666667,4,2,1,30,0,0
204457,-33.3333333333333,4,2,1,30,0,0
204496,-166.666666666667,4,2,1,30,0,0
204809,-33.3333333333333,4,2,1,30,0,0
204848,-166.666666666667,4,2,1,30,0,0
205160,-33.3333333333333,4,2,1,30,0,0
205199,-166.666666666667,4,2,1,30,0,0
205395,-33.3333333333333,4,2,1,30,0,0
205434,-166.666666666667,4,2,1,30,0,0
205629,-33.3333333333333,4,2,1,30,0,0
205668,-166.666666666667,4,2,1,30,0,0
205863,-33.3333333333333,4,2,1,30,0,0
205902,-166.666666666667,4,2,1,30,0,0
206098,-33.3333333333333,4,2,1,30,0,0
206137,-166.666666666667,4,2,1,30,0,0
206332,-66.6666666666667,4,2,1,30,0,0
206449,-250,4,2,1,30,0,0
206567,-66.6666666666667,4,2,1,30,0,0
206684,-250,4,2,1,30,0,0
206801,-66.6666666666667,4,2,1,30,0,0
206918,-250,4,2,1,30,0,0
207035,-66.6666666666667,4,2,1,30,0,0
207152,-250,4,2,1,30,0,0
207270,-66.6666666666667,4,2,1,30,0,0
207387,-250,4,2,1,30,0,0
207504,-66.6666666666667,4,2,1,30,0,0
207621,-250,4,2,1,30,0,0
207738,-66.6666666666667,4,2,1,30,0,0
207856,-250,4,2,1,30,0,0
207973,-66.6666666666667,4,2,1,30,0,0
208090,-250,4,2,1,30,0,0
208207,-66.6666666666667,4,2,1,30,0,0
208324,-250,4,2,1,30,0,0
208442,-66.6666666666667,4,2,1,30,0,0
208559,-250,4,2,1,30,0,0
208676,-66.6666666666667,4,2,1,30,0,0
208793,-250,4,2,1,30,0,0
208910,-66.6666666666667,4,2,1,30,0,0
209027,-250,4,2,1,30,0,0
209145,-66.6666666666667,4,2,1,30,0,0
209262,-250,4,2,1,30,0,0
209379,-66.6666666666667,4,2,1,30,0,0
209496,-250,4,2,1,30,0,0
209613,-66.6666666666667,4,2,1,30,0,0
209731,-250,4,2,1,30,0,0
209848,-66.6666666666667,4,2,1,30,0,0
209965,-250,4,2,1,30,0,0
210082,-66.6666666666667,4,2,1,30,0,0
210111,-250,4,2,1,30,0,0
210199,-66.6666666666667,4,2,1,30,0,0
210229,-250,4,2,1,30,0,0
210317,-66.6666666666667,4,2,1,30,0,0
210346,-250,4,2,1,30,0,0
210434,-66.6666666666667,4,2,1,30,0,0
210463,-250,4,2,1,30,0,0
210551,-66.6666666666667,4,2,1,30,0,0
210580,-250,4,2,1,30,0,0
210668,-66.6666666666667,4,2,1,30,0,0
210697,-250,4,2,1,30,0,0
210785,-66.6666666666667,4,2,1,30,0,0
210815,-250,4,2,1,30,0,0
210902,-66.6666666666667,4,2,1,30,0,0
210932,-250,4,2,1,30,0,0
211020,-66.6666666666667,4,2,1,30,0,0
211049,-250,4,2,1,30,0,0
211137,-66.6666666666667,4,2,1,30,0,0
211166,-250,4,2,1,30,0,0
211254,-66.6666666666667,4,2,1,30,0,0
211283,-250,4,2,1,30,0,0
211371,-66.6666666666667,4,2,1,30,0,0
211401,-250,4,2,1,30,0,0
211488,-66.6666666666667,4,2,1,30,0,0
211518,-250,4,2,1,30,0,0
211606,-66.6666666666667,4,2,1,30,0,0
211635,-250,4,2,1,30,0,0
211723,-66.6666666666667,4,2,1,30,0,0
211752,-250,4,2,1,30,0,0
211840,-66.6666666666667,4,2,1,30,0,0
211869,-250,4,2,1,30,0,0
211957,-66.6666666666667,4,2,1,30,0,0
211986,-250,4,2,1,30,0,0
212074,-66.6666666666667,4,2,1,30,0,0
212104,-250,4,2,1,30,0,0
212192,-66.6666666666667,4,2,1,30,0,0
212221,-250,4,2,1,30,0,0
212309,-66.6666666666667,4,2,1,30,0,0
212338,-250,4,2,1,30,0,0
212426,-66.6666666666667,4,2,1,30,0,0
212455,-250,4,2,1,30,0,0
212543,-66.6666666666667,4,2,1,30,0,0
212572,-250,4,2,1,30,0,0
212660,-66.6666666666667,4,2,1,30,0,0
212690,-250,4,2,1,30,0,0
212777,-66.6666666666667,4,2,1,30,0,0
212807,-250,4,2,1,30,0,0
212895,-66.6666666666667,4,2,1,30,0,0
212924,-250,4,2,1,30,0,0
213012,-66.6666666666667,4,2,1,30,0,0
213041,-250,4,2,1,30,0,0
213129,-66.6666666666667,4,2,1,30,0,0
213158,-250,4,2,1,30,0,0
213246,-66.6666666666667,4,2,1,30,0,0
213276,-250,4,2,1,30,0,0
213363,-66.6666666666667,4,2,1,30,0,0
213481,-250,4,2,1,30,0,0
213598,-66.6666666666667,4,2,1,30,0,0
213715,-250,4,2,1,30,0,0
213832,-100,4,2,1,30,0,0
215238,-20,4,2,1,30,0,0
215277,-250,4,2,1,30,0,0
215590,-100,4,2,1,30,0,0
217113,-20,4,2,1,30,0,0
217152,-250,4,2,1,30,0,0
217465,-100,4,2,1,30,0,0
218988,-20,4,2,1,30,0,0
219027,-250,4,2,1,30,0,0
219340,-100,4,2,1,30,0,0
220863,-20,4,2,1,30,0,0
220902,-250,4,2,1,30,0,0
221215,-100,4,2,1,30,0,0
225082,-40,4,2,1,30,0,0
225111,-250,4,2,1,30,0,0
225199,-40,4,2,1,30,0,0
225229,-250,4,2,1,30,0,0
225317,-40,4,2,1,30,0,0
225346,-250,4,2,1,30,0,0
225434,-40,4,2,1,30,0,0
225463,-250,4,2,1,30,0,0
225551,-40,4,2,1,30,0,0
225580,-250,4,2,1,30,0,0
225668,-40,4,2,1,30,0,0
225697,-250,4,2,1,30,0,0
225785,-40,4,2,1,30,0,0
225815,-250,4,2,1,30,0,0
225902,-40,4,2,1,30,0,0
225932,-250,4,2,1,30,0,0
226020,-40,4,2,1,30,0,0
226049,-250,4,2,1,30,0,0
226137,-40,4,2,1,30,0,0
226166,-250,4,2,1,30,0,0
226254,-40,4,2,1,30,0,0
226283,-250,4,2,1,30,0,0
226371,-40,4,2,1,30,0,0
226401,-250,4,2,1,30,0,0
226488,-40,4,2,1,30,0,0
226518,-250,4,2,1,30,0,0
226606,-40,4,2,1,30,0,0
226635,-250,4,2,1,30,0,0
226723,-40,4,2,1,30,0,0
226752,-250,4,2,1,30,0,0
226840,-40,4,2,1,30,0,0
226869,-250,4,2,1,30,0,0
226957,-100,4,2,1,30,0,0
228363,-28.5714285714286,4,2,1,30,0,0
228481,-588.235294117647,4,2,1,30,0,0
228598,-28.5714285714286,4,2,1,30,0,0
228715,-588.235294117647,4,2,1,30,0,0
228833,-100,4,2,1,30,0,1
231410,-33.3333333333333,4,2,1,30,0,1
231449,-250,4,2,1,30,0,1
231645,-33.3333333333333,4,2,1,30,0,1
231684,-250,4,2,1,30,0,1
231879,-33.3333333333333,4,2,1,30,0,1
231918,-250,4,2,1,30,0,1
232113,-33.3333333333333,4,2,1,30,0,1
232152,-250,4,2,1,30,0,1
232348,-33.3333333333333,4,2,1,30,0,1
232387,-250,4,2,1,30,0,1
232582,-100,4,2,1,30,0,1
235863,-40,4,2,1,30,0,1
235981,-500,4,2,1,30,0,1
236098,-40,4,2,1,30,0,1
236215,-500,4,2,1,30,0,1
236332,-100,4,2,1,30,0,1
238910,-33.3333333333333,4,2,1,30,0,1
238949,-250,4,2,1,30,0,1
239145,-33.3333333333333,4,2,1,30,0,1
239184,-250,4,2,1,30,0,1
239379,-33.3333333333333,4,2,1,30,0,1
239418,-250,4,2,1,30,0,1
239613,-33.3333333333333,4,2,1,30,0,1
239652,-250,4,2,1,30,0,1
239848,-33.3333333333333,4,2,1,30,0,1
239887,-250,4,2,1,30,0,1
240082,-100,4,2,1,30,0,1
241958,-133.333333333333,4,2,1,30,0,0
243129,-40,4,2,1,30,0,0
243246,-500,4,2,1,30,0,0
243363,-40,4,2,1,30,0,0
243481,-500,4,2,1,30,0,0
243598,-40,4,2,1,30,0,0
243715,-500,4,2,1,30,0,0
243833,-100,4,2,1,30,0,1
246410,-33.3333333333333,4,2,1,30,0,1
246449,-250,4,2,1,30,0,1
246645,-33.3333333333333,4,2,1,30,0,1
246684,-250,4,2,1,30,0,1
246879,-33.3333333333333,4,2,1,30,0,1
246918,-250,4,2,1,30,0,1
247113,-33.3333333333333,4,2,1,30,0,1
247152,-250,4,2,1,30,0,1
247348,-33.3333333333333,4,2,1,30,0,1
247387,-250,4,2,1,30,0,1
247582,-100,4,2,1,30,0,1
250863,-40,4,2,1,30,0,1
250981,-500,4,2,1,30,0,1
251098,-40,4,2,1,30,0,1
251215,-500,4,2,1,30,0,1
251332,-100,4,2,1,30,0,1
253910,-33.3333333333333,4,2,1,30,0,1
253949,-250,4,2,1,30,0,1
254145,-33.3333333333333,4,2,1,30,0,1
254184,-250,4,2,1,30,0,1
254379,-33.3333333333333,4,2,1,30,0,1
254418,-250,4,2,1,30,0,1
254613,-33.3333333333333,4,2,1,30,0,1
254652,-250,4,2,1,30,0,1
254848,-33.3333333333333,4,2,1,30,0,1
254887,-250,4,2,1,30,0,1
255082,-100,4,2,1,30,0,1
258129,-66.6666666666667,4,2,1,30,0,1
258246,-500,4,2,1,30,0,1
258363,-66.6666666666667,4,2,1,30,0,1
258481,-500,4,2,1,30,0,1
258598,-66.6666666666667,4,2,1,30,0,1
258715,-500,4,2,1,30,0,1
258833,-100,4,2,1,30,0,0
271957,-125,4,2,1,30,0,0
273363,-66.6666666666667,4,2,1,30,0,0
273481,-500,4,2,1,30,0,0
273598,-66.6666666666667,4,2,1,30,0,0
273715,-500,4,2,1,30,0,0
273832,-100,4,2,1,30,0,0
285082,-40,4,2,1,30,0,0
285111,-250,4,2,1,30,0,0
285199,-40,4,2,1,30,0,0
285229,-250,4,2,1,30,0,0
285317,-40,4,2,1,30,0,0
285346,-250,4,2,1,30,0,0
285434,-40,4,2,1,30,0,0
285463,-250,4,2,1,30,0,0
285551,-40,4,2,1,30,0,0
285580,-250,4,2,1,30,0,0
285668,-40,4,2,1,30,0,0
285697,-250,4,2,1,30,0,0
285785,-40,4,2,1,30,0,0
285815,-250,4,2,1,30,0,0
285902,-40,4,2,1,30,0,0
285932,-250,4,2,1,30,0,0
286020,-40,4,2,1,30,0,0
286049,-250,4,2,1,30,0,0
286137,-40,4,2,1,30,0,0
286166,-250,4,2,1,30,0,0
286254,-40,4,2,1,30,0,0
286283,-250,4,2,1,30,0,0
286371,-40,4,2,1,30,0,0
286401,-250,4,2,1,30,0,0
286488,-40,4,2,1,30,0,0
286518,-250,4,2,1,30,0,0
286606,-40,4,2,1,30,0,0
286635,-250,4,2,1,30,0,0
286723,-40,4,2,1,30,0,0
286752,-250,4,2,1,30,0,0
286840,-40,4,2,1,30,0,0
286869,-250,4,2,1,30,0,0
286957,-100,4,2,1,30,0,0
288129,-66.6666666666667,4,2,1,30,0,0
288246,-500,4,2,1,30,0,0
288363,-66.6666666666667,4,2,1,30,0,0
288481,-500,4,2,1,30,0,0
288598,-66.6666666666667,4,2,1,30,0,0
288715,-500,4,2,1,30,0,0
288832,-100,4,2,1,30,0,0
289770,-133.333333333333,4,2,1,30,0,0
290707,-200,4,2,1,30,0,0
290824,-204.081632653061,4,2,1,30,0,0
290942,-208.333333333333,4,2,1,30,0,0
291059,-212.765957446809,4,2,1,30,0,0
291176,-217.391304347826,4,2,1,30,0,0
291293,-222.222222222222,4,2,1,30,0,0
291410,-227.272727272727,4,2,1,30,0,0
291527,-232.558139534884,4,2,1,30,0,0
291645,-238.095238095238,4,2,1,30,0,0
291762,-243.90243902439,4,2,1,30,0,0
291879,-250,4,2,1,30,0,0
291996,-256.410256410256,4,2,1,30,0,0
292113,-263.157894736842,4,2,1,30,0,0
292231,-270.27027027027,4,2,1,30,0,0
292348,-277.777777777778,4,2,1,30,0,0
292465,-285.714285714286,4,2,1,30,0,0
292582,-294.117647058824,4,2,1,30,0,0
292699,-303.030303030303,4,2,1,30,0,0
292817,-312.5,4,2,1,30,0,0
292934,-322.58064516129,4,2,1,30,0,0
293051,-333.333333333333,4,2,1,30,0,0
293168,-344.827586206897,4,2,1,30,0,0
293285,-357.142857142857,4,2,1,30,0,0
293402,-370.37037037037,4,2,1,30,0,0
293520,-384.615384615385,4,2,1,30,0,0
293637,-400,4,2,1,30,0,0
293754,-416.666666666667,4,2,1,30,0,0
293871,-434.782608695652,4,2,1,30,0,0
293988,-454.545454545455,4,2,1,30,0,0
294106,-476.190476190476,4,2,1,30,0,0
294223,-500,4,2,1,30,0,0
294340,-526.315789473684,4,2,1,30,0,0
294457,-555.555555555556,4,2,1,30,0,0

[HitObjects]
109,192,83,5,0,0:0:0:0:
256,192,83,1,0,0:0:0:0:
402,192,83,1,0,0:0:0:0:
36,192,318,1,0,0:0:0:0:
329,192,318,1,0,0:0:0:0:
109,192,552,1,0,0:0:0:0:
182,192,552,1,0,0:0:0:0:
475,192,552,1,0,0:0:0:0:
36,192,786,1,0,0:0:0:0:
256,192,786,1,0,0:0:0:0:
329,192,1021,1,0,0:0:0:0:
475,192,1021,1,0,0:0:0:0:
182,192,1021,1,0,0:0:0:0:
36,192,1255,1,0,0:0:0:0:
182,192,1255,1,0,0:0:0:0:
256,192,1372,1,0,0:0:0:0:
402,192,1489,1,0,0:0:0:0:
109,192,1489,1,0,0:0:0:0:
329,192,1489,1,0,0:0:0:0:
256,192,1607,1,0,0:0:0:0:
36,192,1724,1,0,0:0:0:0:
182,192,1724,1,0,0:0:0:0:
402,192,1841,1,0,0:0:0:0:
329,192,1958,1,0,0:0:0:0:
475,192,1958,1,0,0:0:0:0:
109,192,1958,1,0,0:0:0:0:
256,192,2193,1,0,0:0:0:0:
36,192,2193,1,0,0:0:0:0:
182,192,2427,1,0,0:0:0:0:
109,192,2427,1,0,0:0:0:0:
402,192,2427,1,0,0:0:0:0:
256,192,2661,1,0,0:0:0:0:
475,192,2661,1,0,0:0:0:0:
36,192,2896,1,0,0:0:0:0:
182,192,2896,1,0,0:0:0:0:
329,192,2896,1,0,0:0:0:0:
109,192,3130,1,0,0:0:0:0:
256,192,3130,1,0,0:0:0:0:
36,192,3247,1,0,0:0:0:0:
109,192,3364,1,0,0:0:0:0:
329,192,3364,1,0,0:0:0:0:
402,192,3364,1,0,0:0:0:0:
256,192,3482,1,0,0:0:0:0:
36,192,3599,1,0,0:0:0:0:
329,192,3599,1,0,0:0:0:0:
109,192,3716,1,0,0:0:0:0:
182,192,3833,1,0,0:0:0:0:
256,192,3833,1,0,0:0:0:0:
402,192,3833,1,0,0:0:0:0:
329,192,4068,1,0,0:0:0:0:
36,192,4068,1,0,0:0:0:0:
109,192,4302,1,0,0:0:0:0:
182,192,4302,1,0,0:0:0:0:
402,192,4302,1,0,0:0:0:0:
256,192,4536,1,0,0:0:0:0:
329,192,4536,1,0,0:0:0:0:
36,192,4771,1,0,0:0:0:0:
182,192,4771,1,0,0:0:0:0:
475,192,4771,1,0,0:0:0:0:
256,192,5005,1,0,0:0:0:0:
402,192,5005,1,0,0:0:0:0:
109,192,5122,1,0,0:0:0:0:
182,192,5239,1,0,0:0:0:0:
329,192,5239,1,0,0:0:0:0:
475,192,5239,1,0,0:0:0:0:
402,192,5357,1,0,0:0:0:0:
329,192,5474,1,0,0:0:0:0:
36,192,5474,1,0,0:0:0:0:
256,192,5591,1,0,0:0:0:0:
109,192,5708,1,0,0:0:0:0:
182,192,5708,1,0,0:0:0:0:
402,192,5708,1,0,0:0:0:0:
36,192,5943,1,0,0:0:0:0:
256,192,5943,1,0,0:0:0:0:
329,192,6177,1,0,0:0:0:0:
475,192,6177,1,0,0:0:0:0:
109,192,6177,1,0,0:0:0:0:
182,192,6411,1,0,0:0:0:0:
402,192,6411,1,0,0:0:0:0:
36,192,6646,1,0,0:0:0:0:
256,192,6646,1,0,0:0:0:0:
329,192,6646,1,0,0:0:0:0:
109,192,6880,1,0,0:0:0:0:
402,192,6880,1,0,0:0:0:0:
329,192,6997,1,0,0:0:0:0:
182,192,7114,1,0,0:0:0:0:
36,192,7114,1,0,0:0:0:0:
256,192,7114,1,0,0:0:0:0:
402,192,7232,1,0,0:0:0:0:
109,192,7349,1,0,0:0:0:0:
329,192,7349,1,0,0:0:0:0:
182,192,7466,1,0,0:0:0:0:
256,192,7583,1,0,0:0:0:0:
402,192,7583,1,0,0:0:0:0:
475,192,7583,1,0,0:0:0:0:
36,192,7818,1,0,0:0:0:0:
329,192,7818,1,0,0:0:0:0:
182,192,8052,1,0,0:0:0:0:
109,192,8052,1,0,0:0:0:0:
402,192,8052,1,0,0:0:0:0:
475,192,8286,1,0,0:0:0:0:
256,192,8286,1,0,0:0:0:0:
109,192,8521,1,0,0:0:0:0:
36,192,8521,1,0,0:0:0:0:
329,192,8521,1,0,0:0:0:0:
402,192,8755,1,0,0:0:0:0:
109,192,8755,1,0,0:0:0:0:
329,192,8872,1,0,0:0:0:0:
36,192,8989,1,0,0:0:0:0:
182,192,8989,1,0,0:0:0:0:
256,192,8989,1,0,0:0:0:0:
402,192,9107,1,0,0:0:0:0:
109,192,9224,1,0,0:0:0:0:
329,192,9224,1,0,0:0:0:0:
256,192,9341,1,0,0:0:0:0:
182,192,9458,1,0,0:0:0:0:
475,192,9458,1,0,0:0:0:0:
402,192,9458,1,0,0:0:0:0:
36,192,9693,1,0,0:0:0:0:
329,192,9693,1,0,0:0:0:0:
256,192,9927,1,0,0:0:0:0:
109,192,9927,1,0,0:0:0:0:
182,192,9927,1,0,0:0:0:0:
475,192,10161,1,0,0:0:0:0:
329,192,10161,1,0,0:0:0:0:
36,192,10396,1,0,0:0:0:0:
402,192,10396,1,0,0:0:0:0:
182,192,10396,1,0,0:0:0:0:
475,192,10630,1,0,0:0:0:0:
256,192,10630,1,0,0:0:0:0:
402,192,10747,1,0,0:0:0:0:
109,192,10864,1,0,0:0:0:0:
329,192,10864,1,0,0:0:0:0:
36,192,10864,1,0,0:0:0:0:
182,192,10982,1,0,0:0:0:0:
475,192,11099,1,0,0:0:0:0:
256,192,11099,1,0,0:0:0:0:
402,192,11216,1,0,0:0:0:0:
182,192,11333,1,0,0:0:0:0:
329,192,11333,1,0,0:0:0:0:
109,192,11333,1,0,0:0:0:0:
475,192,11568,1,0,0:0:0:0:
256,192,11568,1,0,0:0:0:0:
36,192,11802,1,0,0:0:0:0:
182,192,11802,1,0,0:0:0:0:
402,192,11802,1,0,0:0:0:0:
329,192,12036,1,0,0:0:0:0:
109,192,12036,1,0,0:0:0:0:
182,192,12271,1,0,0:0:0:0:
256,192,12271,1,0,0:0:0:0:
475,192,12271,1,0,0:0:0:0:
402,192,12505,1,0,0:0:0:0:
36,192,12505,1,0,0:0:0:0:
109,192,12622,1,0,0:0:0:0:
182,192,12739,1,0,0:0:0:0:
329,192,12739,1,0,0:0:0:0:
475,192,12739,1,0,0:0:0:0:
402,192,12857,1,0,0:0:0:0:
329,192,12974,1,0,0:0:0:0:
109,192,12974,1,0,0:0:0:0:
256,192,13091,1,0,0:0:0:0:
36,192,13208,1,0,0:0:0:0:
182,192,13208,1,0,0:0:0:0:
475,192,13208,1,0,0:0:0:0:
256,192,13443,1,0,0:0:0:0:
402,192,13443,1,0,0:0:0:0:
36,192,13560,1,0,0:0:0:0:
402,192,13560,1,0,0:0:0:0:
109,192,13677,1,0,0:0:0:0:
329,192,13677,1,0,0:0:0:0:
182,192,13911,1,0,0:0:0:0:
475,192,13911,1,0,0:0:0:0:
182,192,14028,1,0,0:0:0:0:
402,192,14028,1,0,0:0:0:0:
256,192,14146,1,0,0:0:0:0:
36,192,14146,1,0,0:0:0:0:
109,192,14380,1,0,0:0:0:0:
329,192,14380,1,0,0:0:0:0:
109,192,14497,1,0,0:0:0:0:
402,192,14497,1,0,0:0:0:0:
402,192,14614,1,0,0:0:0:0:
182,192,14614,1,0,0:0:0:0:
36,192,14849,1,0,0:0:0:0:
329,192,14849,1,0,0:0:0:0:
109,192,15083,1,0,0:0:0:0:
256,192,15083,1,0,0:0:0:0:
475,192,15083,1,0,0:0:0:0:
402,192,15083,1,0,0:0:0:0:
329,192,15200,1,0,0:0:0:0:
36,192,15318,1,0,0:0:0:0:
256,192,15318,1,0,0:0:0:0:
182,192,15435,1,0,0:0:0:0:
109,192,15552,1,0,0:0:0:0:
256,192,15552,1,0,0:0:0:0:
475,192,15552,1,0,0:0:0:0:
402,192,15669,1,0,0:0:0:0:
36,192,15786,1,0,0:0:0:0:
182,192,15786,1,0,0:0:0:0:
329,192,15903,1,0,0:0:0:0:
109,192,16021,1,0,0:0:0:0:
256,192,16021,1,0,0:0:0:0:
475,192,16021,1,0,0:0:0:0:
402,192,16138,1,0,0:0:0:0:
182,192,16255,1,0,0:0:0:0:
329,192,16255,1,0,0:0:0:0:
109,192,16372,1,0,0:0:0:0:
256,192,16489,1,0,0:0:0:0:
36,192,16489,1,0,0:0:0:0:
402,192,16489,1,0,0:0:0:0:
329,192,16607,1,0,0:0:0:0:
475,192,16724,1,0,0:0:0:0:
182,192,16724,1,0,0:0:0:0:
256,192,16841,1,0,0:0:0:0:
109,192,16958,1,0,0:0:0:0:
36,192,16958,1,0,0:0:0:0:
329,192,16958,1,0,0:0:0:0:
256,192,17075,1,0,0:0:0:0:
109,192,17193,1,0,0:0:0:0:
402,192,17193,1,0,0:0:0:0:
329,192,17310,1,0,0:0:0:0:
182,192,17427,1,0,0:0:0:0:
36,192,17427,1,0,0:0:0:0:
256,192,17427,1,0,0:0:0:0:
329,192,17544,1,0,0:0:0:0:
475,192,17661,1,0,0:0:0:0:
109,192,17661,1,0,0:0:0:0:
182,192,17778,1,0,0:0:0:0:
256,192,17896,1,0,0:0:0:0:
329,192,17896,1,0,0:0:0:0:
36,192,17896,1,0,0:0:0:0:
475,192,18013,1,0,0:0:0:0:
402,192,18130,1,0,0:0:0:0:
109,192,18130,1,0,0:0:0:0:
182,192,18247,1,0,0:0:0:0:
329,192,18364,1,0,0:0:0:0:
256,192,18364,1,0,0:0:0:0:
475,192,18364,1,0,0:0:0:0:
109,192,18482,1,0,0:0:0:0:
36,192,18599,1,0,0:0:0:0:
402,192,18599,1,0,0:0:0:0:
182,192,18716,1,0,0:0:0:0:
256,192,18833,1,0,0:0:0:0:
329,192,18833,1,0,0:0:0:0:
475,192,18833,1,0,0:0:0:0:
402,192,18950,1,0,0:0:0:0:
109,192,19068,1,0,0:0:0:0:
329,192,19068,1,0,0:0:0:0:
36,192,19185,1,0,0:0:0:0:
182,192,19302,1,0,0:0:0:0:
402,192,19302,1,0,0:0:0:0:
475,192,19302,1,0,0:0:0:0:
329,192,19419,1,0,0:0:0:0:
256,192,19536,1,0,0:0:0:0:
109,192,19536,1,0,0:0:0:0:
329,192,19653,1,0,0:0:0:0:
475,192,19771,1,0,0:0:0:0:
182,192,19771,1,0,0:0:0:0:
36,192,19771,1,0,0:0:0:0:
256,192,19888,1,0,0:0:0:0:
329,192,20005,1,0,0:0:0:0:
109,192,20005,1,0,0:0:0:0:
402,192,20122,1,0,0:0:0:0:
256,192,20239,1,0,0:0:0:0:
182,192,20239,1,0,0:0:0:0:
36,192,20239,1,0,0:0:0:0:
329,192,20357,1,0,0:0:0:0:
475,192,20474,1,0,0:0:0:0:
109,192,20474,1,0,0:0:0:0:
182,192,20591,1,0,0:0:0:0:
329,192,20708,1,0,0:0:0:0:
256,192,20708,1,0,0:0:0:0:
36,192,20708,1,0,0:0:0:0:
109,192,20825,1,0,0:0:0:0:
402,192,20943,1,0,0:0:0:0:
182,192,20943,1,0,0:0:0:0:
329,192,21060,1,0,0:0:0:0:
475,192,21177,1,0,0:0:0:0:
256,192,21177,1,0,0:0:0:0:
36,192,21177,1,0,0:0:0:0:
109,192,21294,1,0,0:0:0:0:
182,192,21411,1,0,0:0:0:0:
402,192,21411,1,0,0:0:0:0:
329,192,21528,1,0,0:0:0:0:
256,192,21646,1,0,0:0:0:0:
182,192,21646,1,0,0:0:0:0:
475,192,21646,1,0,0:0:0:0:
402,192,21763,1,0,0:0:0:0:
36,192,21880,1,0,0:0:0:0:
329,192,21880,1,0,0:0:0:0:
109,192,21997,1,0,0:0:0:0:
182,192,22114,1,0,0:0:0:0:
402,192,22114,1,0,0:0:0:0:
475,192,22114,1,0,0:0:0:0:
329,192,22232,1,0,0:0:0:0:
109,192,22349,1,0,0:0:0:0:
256,192,22349,1,0,0:0:0:0:
329,192,22466,1,0,0:0:0:0:
182,192,22583,1,0,0:0:0:0:
475,192,22583,1,0,0:0:0:0:
36,192,22583,1,0,0:0:0:0:
329,192,22583,1,0,0:0:0:0:
402,192,22700,1,0,0:0:0:0:
109,192,22818,1,0,0:0:0:0:
475,192,22818,1,0,0:0:0:0:
329,192,22818,1,0,0:0:0:0:
256,192,22935,1,0,0:0:0:0:
182,192,23052,1,0,0:0:0:0:
36,192,23052,1,0,0:0:0:0:
402,192,23052,1,0,0:0:0:0:
329,192,23052,1,0,0:0:0:0:
109,192,23169,1,0,0:0:0:0:
182,192,23286,1,0,0:0:0:0:
475,192,23286,1,0,0:0:0:0:
329,192,23286,1,0,0:0:0:0:
256,192,23403,1,0,0:0:0:0:
182,192,23521,1,0,0:0:0:0:
36,192,23521,1,0,0:0:0:0:
329,192,23521,1,0,0:0:0:0:
402,192,23521,1,0,0:0:0:0:
475,192,23638,1,0,0:0:0:0:
109,192,23755,1,0,0:0:0:0:
182,192,23755,1,0,0:0:0:0:
402,192,23755,1,0,0:0:0:0:
329,192,23872,1,0,0:0:0:0:
475,192,23989,1,0,0:0:0:0:
402,192,23989,1,0,0:0:0:0:
36,192,23989,1,0,0:0:0:0:
256,192,23989,1,0,0:0:0:0:
109,192,24107,1,0,0:0:0:0:
182,192,24224,1,0,0:0:0:0:
329,192,24224,1,0,0:0:0:0:
402,192,24224,1,0,0:0:0:0:
256,192,24341,1,0,0:0:0:0:
475,192,24458,1,0,0:0:0:0:
329,192,24458,1,0,0:0:0:0:
182,192,24458,1,0,0:0:0:0:
109,192,24458,1,0,0:0:0:0:
36,192,24575,1,0,0:0:0:0:
256,192,24693,1,0,0:0:0:0:
109,192,24693,1,0,0:0:0:0:
402,192,24693,1,0,0:0:0:0:
329,192,24810,1,0,0:0:0:0:
182,192,24927,1,0,0:0:0:0:
256,192,24927,1,0,0:0:0:0:
36,192,24927,1,0,0:0:0:0:
475,192,24927,1,0,0:0:0:0:
109,192,25044,1,0,0:0:0:0:
475,192,25161,1,0,0:0:0:0:
402,192,25161,1,0,0:0:0:0:
256,192,25161,1,0,0:0:0:0:
182,192,25278,1,0,0:0:0:0:
36,192,25396,1,0,0:0:0:0:
109,192,25396,1,0,0:0:0:0:
329,192,25396,1,0,0:0:0:0:
402,192,25396,1,0,0:0:0:0:
182,192,25513,1,0,0:0:0:0:
256,192,25630,1,0,0:0:0:0:
402,192,25630,1,0,0:0:0:0:
475,192,25630,1,0,0:0:0:0:
329,192,25747,1,0,0:0:0:0:
109,192,25864,1,0,0:0:0:0:
256,192,25864,1,0,0:0:0:0:
36,192,25864,1,0,0:0:0:0:
402,192,25864,1,0,0:0:0:0:
329,192,25982,1,0,0:0:0:0:
109,192,26099,1,0,0:0:0:0:
182,192,26099,1,0,0:0:0:0:
475,192,26099,1,0,0:0:0:0:
256,192,26216,1,0,0:0:0:0:
36,192,26333,1,0,0:0:0:0:
182,192,26333,1,0,0:0:0:0:
329,192,26333,1,0,0:0:0:0:
402,192,26333,1,0,0:0:0:0:
329,192,26450,1,0,0:0:0:0:
475,192,26450,1,0,0:0:0:0:
256,192,26568,1,0,0:0:0:0:
109,192,26568,1,0,0:0:0:0:
475,192,26568,1,0,0:0:0:0:
182,192,26685,1,0,0:0:0:0:
36,192,26685,1,0,0:0:0:0:
256,192,26802,1,0,0:0:0:0:
402,192,26802,1,0,0:0:0:0:
475,192,26802,1,0,0:0:0:0:
109,192,26802,1,0,0:0:0:0:
182,192,26919,1,0,0:0:0:0:
402,192,26919,1,0,0:0:0:0:
329,192,27036,1,0,0:0:0:0:
256,192,27036,1,0,0:0:0:0:
36,192,27036,1,0,0:0:0:0:
109,192,27153,1,0,0:0:0:0:
475,192,27153,1,0,0:0:0:0:
402,192,27271,1,0,0:0:0:0:
329,192,27271,1,0,0:0:0:0:
182,192,27271,1,0,0:0:0:0:
36,192,27271,1,0,0:0:0:0:
182,192,27388,1,0,0:0:0:0:
256,192,27388,1,0,0:0:0:0:
329,192,27505,1,0,0:0:0:0:
475,192,27505,1,0,0:0:0:0:
109,192,27505,1,0,0:0:0:0:
109,192,27622,1,0,0:0:0:0:
402,192,27622,1,0,0:0:0:0:
182,192,27739,1,0,0:0:0:0:
36,192,27739,1,0,0:0:0:0:
256,192,27739,1,0,0:0:0:0:
329,192,27739,1,0,0:0:0:0:
402,192,27857,1,0,0:0:0:0:
109,192,27857,1,0,0:0:0:0:
475,192,27974,1,0,0:0:0:0:
329,192,27974,1,0,0:0:0:0:
182,192,27974,1,0,0:0:0:0:
329,192,28091,1,0,0:0:0:0:
109,192,28091,1,0,0:0:0:0:
36,192,71333,5,0,0:0:0:0:
256,192,71333,1,0,0:0:0:0:
402,192,71333,1,0,0:0:0:0:
182,192,71333,1,0,0:0:0:0:
109,192,71450,1,0,0:0:0:0:
329,192,71450,1,0,0:0:0:0:
256,192,71568,1,0,0:0:0:0:
402,192,71568,1,0,0:0:0:0:
475,192,71568,1,0,0:0:0:0:
36,192,71685,1,0,0:0:0:0:
182,192,71685,1,0,0:0:0:0:
109,192,71802,1,0,0:0:0:0:
256,192,71802,1,0,0:0:0:0:
329,192,71802,1,0,0:0:0:0:
475,192,71802,1,0,0:0:0:0:
36,192,71919,1,0,0:0:0:0:
182,192,71919,1,0,0:0:0:0:
329,192,72036,1,0,0:0:0:0:
256,192,72036,1,0,0:0:0:0:
402,192,72036,1,0,0:0:0:0:
475,192,72153,1,0,0:0:0:0:
109,192,72153,1,0,0:0:0:0:
182,192,72271,1,0,0:0:0:0:
256,192,72271,1,0,0:0:0:0:
402,192,72271,1,0,0:0:0:0:
36,192,72271,1,0,0:0:0:0:
329,192,72388,1,0,0:0:0:0:
475,192,72388,1,0,0:0:0:0:
109,192,72505,1,0,0:0:0:0:
256,192,72505,1,0,0:0:0:0:
36,192,72505,1,0,0:0:0:0:
182,192,72622,1,0,0:0:0:0:
402,192,72622,1,0,0:0:0:0:
256,192,72739,1,0,0:0:0:0:
329,192,72739,1,0,0:0:0:0:
475,192,72739,1,0,0:0:0:0:
109,192,72739,1,0,0:0:0:0:
36,192,72857,1,0,0:0:0:0:
402,192,72857,1,0,0:0:0:0:
182,192,72974,1,0,0:0:0:0:
329,192,72974,1,0,0:0:0:0:
109,192,72974,1,0,0:0:0:0:
256,192,73091,1,0,0:0:0:0:
402,192,73091,1,0,0:0:0:0:
475,192,73208,1,0,0:0:0:0:
36,192,73208,1,0,0:0:0:0:
329,192,73208,1,0,0:0:0:0:
182,192,73208,1,0,0:0:0:0:
182,192,73325,1,0,0:0:0:0:
402,192,73325,1,0,0:0:0:0:
36,192,73443,1,0,0:0:0:0:
402,192,73443,1,0,0:0:0:0:
256,192,73443,1,0,0:0:0:0:
256,192,73560,1,0,0:0:0:0:
109,192,73560,1,0,0:0:0:0:
36,192,73677,1,0,0:0:0:0:
329,192,73677,1,0,0:0:0:0:
475,192,73677,1,0,0:0:0:0:
402,192,73677,1,0,0:0:0:0:
109,192,73794,1,0,0:0:0:0:
182,192,73794,1,0,0:0:0:0:
256,192,73911,1,0,0:0:0:0:
402,192,73911,1,0,0:0:0:0:
475,192,73911,1,0,0:0:0:0:
402,192,74028,1,0,0:0:0:0:
182,192,74028,1,0,0:0:0:0:
36,192,74146,1,0,0:0:0:0:
109,192,74146,1,0,0:0:0:0:
256,192,74146,1,0,0:0:0:0:
475,192,74146,1,0,0:0:0:0:
256,192,74263,1,0,0:0:0:0:
402,192,74263,1,0,0:0:0:0:
402,192,74380,1,0,0:0:0:0:
182,192,74380,1,0,0:0:0:0:
36,192,74380,1,0,0:0:0:0:
36,192,74497,1,0,0:0:0:0:
329,192,74497,1,0,0:0:0:0:
109,192,74614,1,0,0:0:0:0:
182,192,74614,1,0,0:0:0:0:
256,192,74614,1,0,0:0:0:0:
475,192,74614,1,0,0:0:0:0:
402,192,74849,1,0,0:0:0:0:
109,192,74849,1,0,0:0:0:0:
182,192,74849,1,0,0:0:0:0:
329,192,74849,1,0,0:0:0:0:
36,192,75083,128,0,78247:0:0:0:0:
475,192,75083,128,0,78247:0:0:0:0:
109,192,75083,128,0,75552:0:0:0:0:
256,192,75083,128,0,75552:0:0:0:0:
402,192,75552,128,0,75903:0:0:0:0:
329,192,75552,128,0,75903:0:0:0:0:
182,192,75903,128,0,76138:0:0:0:0:
109,192,75903,128,0,76138:0:0:0:0:
329,192,76138,128,0,76255:0:0:0:0:
402,192,76138,128,0,76255:0:0:0:0:
109,192,76255,128,0,76489:0:0:0:0:
256,192,76255,128,0,76489:0:0:0:0:
182,192,76724,1,0,0:0:0:0:
402,192,76724,1,0,0:0:0:0:
109,192,76958,1,0,0:0:0:0:
182,192,77017,1,0,0:0:0:0:
256,192,77075,1,0,0:0:0:0:
109,192,77134,1,0,0:0:0:0:
329,192,77134,1,0,0:0:0:0:
182,192,77193,1,0,0:0:0:0:
402,192,77193,1,0,0:0:0:0:
256,192,77251,1,0,0:0:0:0:
329,192,77310,1,0,0:0:0:0:
109,192,77310,1,0,0:0:0:0:
402,192,77368,1,0,0:0:0:0:
182,192,77368,1,0,0:0:0:0:
256,192,77427,1,0,0:0:0:0:
109,192,77485,1,0,0:0:0:0:
329,192,77485,1,0,0:0:0:0:
182,192,77544,1,0,0:0:0:0:
402,192,77544,1,0,0:0:0:0:
256,192,77603,1,0,0:0:0:0:
329,192,77661,1,0,0:0:0:0:
109,192,77661,1,0,0:0:0:0:
402,192,77720,1,0,0:0:0:0:
182,192,77720,1,0,0:0:0:0:
256,192,77778,1,0,0:0:0:0:
329,192,77837,1,0,0:0:0:0:
109,192,77837,1,0,0:0:0:0:
402,192,77896,1,0,0:0:0:0:
182,192,77896,1,0,0:0:0:0:
256,192,77954,1,0,0:0:0:0:
109,192,78013,1,0,0:0:0:0:
329,192,78013,1,0,0:0:0:0:
182,192,78071,1,0,0:0:0:0:
402,192,78071,1,0,0:0:0:0:
256,192,78130,1,0,0:0:0:0:
329,192,78189,1,0,0:0:0:0:
402,192,78247,1,0,0:0:0:0:
109,192,78247,1,0,0:0:0:0:
182,192,78364,1,0,0:0:0:0:
329,192,78364,1,0,0:0:0:0:
256,192,78364,1,0,0:0:0:0:
