osu file format v14

[General]
AudioFilename: audio.mp3
AudioLeadIn: 0
PreviewTime: 190650
Countdown: 0
SampleSet: Normal
StackLeniency: 0.7
Mode: 1
LetterboxInBreaks: 0
WidescreenStoryboard: 0

[Editor]
DistanceSpacing: 0.5
BeatDivisor: 4
GridSize: 4
TimelineZoom: 3.299999

[Metadata]
Title:The Nightmare Connector
TitleUnicode:The Nightmare Connector
Artist:DJ Hidden
ArtistUnicode:DJ Hidden
Creator:KyouRekii87
Version:Night Terror Oni
Source:
Tags:dnb drum'n'bass hardcore gabber PRSPCT Recordings electronic instrumental english
BeatmapID:2315776
BeatmapSetID:1108044

[Difficulty]
HPDrainRate:5.5
CircleSize:5
OverallDifficulty:6.6
ApproachRate:5
SliderMultiplier:1.4
SliderTickRate:1

[Events]
//Background and Video events
0,0,"ganp855.jpg",0,0
//Break Periods
2,60564,64650
//Storyboard Layer 0 (Background)
//Storyboard Layer 1 (Fail)
//Storyboard Layer 2 (Pass)
//Storyboard Layer 3 (Foreground)
//Storyboard Layer 4 (Overlay)
//Storyboard Sound Samples

[TimingPoints]
22,342.857142857143,4,1,0,87,1,0
22,-66.6666666666667,4,1,0,87,0,0
1391,-222.222222222222,4,1,0,53,0,0
10991,-200,4,1,0,57,0,0
16477,-250,4,1,0,37,0,0
20591,-166.666666666667,4,1,0,47,0,0
20934,-166.666666666667,4,1,0,57,0,0
21277,-166.666666666667,4,1,0,67,0,0
21620,-166.666666666667,4,1,0,77,0,0
21962,-100,4,1,0,90,0,0
39448,-101.010101010101,4,1,0,90,0,0
39620,-103.092783505155,4,1,0,90,0,0
39705,-104.166666666667,4,1,0,90,0,0
39791,-105.263157894737,4,1,0,90,0,0
39962,-106.382978723404,4,1,0,90,0,0
40134,-107.52688172043,4,1,0,90,0,0
40391,-111.111111111111,4,1,0,90,0,0
40477,-112.359550561798,4,1,0,90,0,0
40991,-111.111111111111,4,1,0,90,0,0
41077,-109.89010989011,4,1,0,90,0,0
41162,-108.695652173913,4,1,0,90,0,0
41334,-107.52688172043,4,1,0,90,0,0
41420,-106.382978723404,4,1,0,90,0,0
41505,-105.263157894737,4,1,0,90,0,0
41677,-104.166666666667,4,1,0,90,0,0
41762,-103.092783505155,4,1,0,90,0,0
41848,-102.040816326531,4,1,0,90,0,0
41934,-101.010101010101,4,1,0,90,0,0
42020,-100,4,1,0,90,0,0
52134,-90.9090909090909,4,1,0,90,0,0
53505,-89.2857142857143,4,1,0,90,0,0
53620,-87.719298245614,4,1,0,90,0,0
53734,-86.2068965517241,4,1,0,90,0,0
53848,-84.7457627118644,4,1,0,90,0,0
53962,-83.3333333333333,4,1,0,90,0,0
54077,-81.9672131147541,4,1,0,90,0,0
54191,-80.6451612903226,4,1,0,90,0,0
54305,-79.3650793650794,4,1,0,90,0,0
54420,-78.125,4,1,0,90,0,0
54534,-76.9230769230769,4,1,0,90,0,0
54648,-75.7575757575758,4,1,0,90,0,0
54762,-74.6268656716418,4,1,0,90,0,0
54877,-73.5294117647059,4,1,0,90,0,0
54991,-73.5294117647059,4,1,0,50,0,0
56248,-133.333333333333,4,1,0,50,0,0
65848,-133.333333333333,4,1,0,90,0,0
76477,-76.9230769230769,4,1,0,90,0,0
76819,-133.333333333333,4,1,0,90,0,0
82477,-181.818181818182,4,1,0,50,0,0
87791,-100,4,1,0,90,0,0
98077,-100,4,1,0,50,0,0
98762,-100,4,1,0,90,0,0
102877,-99.009900990099,4,1,0,90,0,0
102962,-98.0392156862745,4,1,0,90,0,0
103048,-97.0873786407767,4,1,0,90,0,0
103134,-96.1538461538461,4,1,0,90,0,0
103220,-95.2380952380952,4,1,0,90,0,0
103305,-94.3396226415094,4,1,0,90,0,0
103391,-93.4579439252336,4,1,0,90,0,0
103477,-92.5925925925926,4,1,0,90,0,0
103562,-91.743119266055,4,1,0,90,0,0
103648,-90.9090909090909,4,1,0,90,0,0
103734,-90.0900900900901,4,1,0,90,0,0
103820,-89.2857142857143,4,1,0,90,0,0
103905,-88.4955752212389,4,1,0,90,0,0
103991,-87.719298245614,4,1,0,90,0,0
104077,-86.9565217391304,4,1,0,90,0,0
104248,-92.5925925925926,4,1,0,90,0,0
104591,-100,4,1,0,90,0,0
109048,-99.009900990099,4,1,0,90,0,0
109134,-98.0392156862745,4,1,0,90,0,0
109220,-97.0873786407767,4,1,0,90,0,0
109305,-96.1538461538461,4,1,0,90,0,0
109391,-95.2380952380952,4,1,0,90,0,0
109477,-94.3396226415094,4,1,0,90,0,0
109562,-93.4579439252336,4,1,0,90,0,0
109620,-92.5925925925926,4,1,0,90,0,0
109677,-91.743119266055,4,1,0,90,0,0
109734,-90.9090909090909,4,1,0,90,0,0
115562,-181.818181818182,4,1,0,50,0,0
120534,-90.9090909090909,4,1,0,90,0,0
120536,-90.9090909090909,4,1,0,90,0,1
142648,-90.9090909090909,4,1,0,90,0,1
142650,-90.9090909090909,4,1,0,90,0,0
142991,-102.040816326531,4,1,0,50,0,0
143334,-108.695652173913,4,1,0,50,0,0
143677,-116.279069767442,4,1,0,50,0,0
144019,-125,4,1,0,50,0,0
144362,-135.135135135135,4,1,0,50,0,0
144705,-147.058823529412,4,1,0,50,0,0
145048,-156.25,4,1,0,50,0,0
145391,-166.666666666667,4,1,0,50,0,0
148134,-100,4,1,0,90,0,0
158762,-101.010101010101,4,1,0,70,0,0
158848,-102.040816326531,4,1,0,70,0,0
159105,-105.263157894737,4,1,0,90,0,0
169220,-106.382978723404,4,1,0,90,0,0
169277,-108.695652173913,4,1,0,70,0,0
169391,-111.111111111111,4,1,0,60,0,0
169505,-113.636363636364,4,1,0,60,0,0
169620,-116.279069767442,4,1,0,60,0,0
170077,-111.111111111111,4,1,0,80,0,0
181048,-100,4,1,0,85,0,0
187905,-99.009900990099,4,1,0,85,0,0
188077,-98.0392156862745,4,1,0,85,0,0
188248,-97.0873786407767,4,1,0,85,0,0
188420,-96.1538461538461,4,1,0,85,0,0
188762,-95.2380952380952,4,1,0,85,0,0
188934,-94.3396226415094,4,1,0,85,0,0
189105,-93.4579439252336,4,1,0,85,0,0
189448,-200,4,1,0,45,0,0
192020,-90.9090909090909,4,1,0,92,0,0
192022,-90.9090909090909,4,1,0,92,0,1
197220,-93.4579439252336,4,1,0,92,0,1
197277,-96.1538461538461,4,1,0,92,0,1
197334,-99.009900990099,4,1,0,92,0,1
197505,-90.9090909090909,4,1,0,92,0,1
202305,-90.9090909090909,4,1,0,92,0,1
202307,-90.9090909090909,4,1,0,92,0,0
202991,-90.9090909090909,4,1,0,92,0,0
202993,-90.9090909090909,4,1,0,92,0,1
207791,-89.2857142857143,4,1,0,92,0,1
207848,-88.4955752212389,4,1,0,92,0,1
207905,-87.719298245614,4,1,0,92,0,1
207962,-86.9565217391304,4,1,0,92,0,1
208020,-86.2068965517241,4,1,0,92,0,1
208077,-85.4700854700855,4,1,0,92,0,1
208134,-84.7457627118644,4,1,0,92,0,1
208191,-84.0336134453781,4,1,0,92,0,1
208248,-83.3333333333333,4,1,0,92,0,1
208305,-82.6446280991736,4,1,0,92,0,1
208362,-81.9672131147541,4,1,0,92,0,1
208420,-81.3008130081301,4,1,0,92,0,1
208477,-80.6451612903226,4,1,0,92,0,1
208648,-90.9090909090909,4,1,0,92,0,1
213962,-90.9090909090909,4,1,0,92,0,1
213964,-90.9090909090909,4,1,0,92,0,0
214305,-102.040816326531,4,1,0,45,0,0
214562,-106.463845942556,4,1,0,45,0,0
214820,-111.287811425029,4,1,0,45,0,0
214991,-114.754041924242,4,1,0,45,0,0
215334,-122.377600982937,4,1,0,45,0,0
215677,-131.086166870069,4,1,0,45,0,0
215934,-138.476728293427,4,1,0,45,0,0
216191,-146.750431813146,4,1,0,45,0,0
216362,-152.838361205956,4,1,0,45,0,0
216705,-166.666666666667,4,1,0,45,0,0
219448,-158.730158730159,4,1,0,45,0,0
220820,-151.515151515152,4,1,0,48,0,0
222191,-142.857142857143,4,1,0,51,0,0
223562,-133.333333333333,4,1,0,54,0,0
225277,-125,4,1,0,57,0,0
230762,-125,4,1,0,37,0,0
231791,-125,4,1,0,47,0,0
233162,-125,4,1,0,57,0,0
234534,-125,4,1,0,67,0,0
235905,-222.222222222222,4,1,0,35,0,0
247220,-133.333333333333,4,1,0,65,0,0
255448,-126.582278481013,4,1,0,65,0,0
255877,-125,4,1,0,65,0,0
255962,-123.456790123457,4,1,0,65,0,0
256048,-121.951219512195,4,1,0,65,0,0
256134,-120.481927710843,4,1,0,65,0,0
256820,-114.942528735632,4,1,0,65,0,0
257505,-109.89010989011,4,1,0,65,0,0
257848,-109.89010989011,4,1,0,42,0,0
259220,-200,4,1,0,42,0,0
260591,-181.818181818182,4,1,0,45,0,0
261962,-166.666666666667,4,1,0,48,0,0
263334,-153.846153846154,4,1,0,50,0,0
263677,-153.846153846154,4,1,0,52,0,0
263762,-153.284190421884,4,1,0,53,0,0
263848,-152.726317493578,4,1,0,53,0,0
264020,-151.62266576906,4,1,0,54,0,0
264191,-150.534623716128,4,1,0,54,0,0
264362,-149.462309342142,4,1,0,55,0,0
264534,-148.405163906083,4,1,0,55,0,0
264705,-147.362867799298,4,1,0,56,0,0
264877,-146.335110329356,4,1,0,56,0,0
265048,-145.321589411288,4,1,0,57,0,0
265220,-144.32180298342,4,1,0,57,0,0
265391,-143.335884712081,4,1,0,58,0,0
265562,-142.363345424727,4,1,0,58,0,0
265734,-141.403914625973,4,1,0,59,0,0
265905,-140.457329063431,4,1,0,59,0,0
266077,-139.523332486892,4,1,0,60,0,0
266248,-138.601483313074,4,1,0,60,0,0
266420,-137.691925332423,4,1,0,61,0,0
266591,-136.794227283609,4,1,0,62,0,0
266762,-135.908158702675,4,1,0,62,0,0
266934,-135.033495058449,4,1,0,63,0,0
267105,-134.169837547161,4,1,0,63,0,0
267277,-133.317335253103,4,1,0,64,0,0
267448,-132.475597994849,4,1,0,64,0,0
267620,-131.644423147302,4,1,0,65,0,0
267791,-130.823613138877,4,1,0,65,0,0
267962,-130.012975294934,4,1,0,66,0,0
268134,-129.212154728971,4,1,0,66,0,0
268305,-128.421304066974,4,1,0,67,0,0
268477,-127.640075409757,4,1,0,67,0,0
268648,-126.868294217724,4,1,0,68,0,0
268820,-126.105790147355,4,1,0,68,0,0
268991,-125.352396925858,4,1,0,69,0,0
269162,-124.607796959071,4,1,0,69,0,0
269248,-124.238881551893,4,1,0,70,0,0
269334,-123.872144127717,4,1,0,71,0,0
269505,-123.145126531618,4,1,0,71,0,0
269677,-122.426593014828,4,1,0,72,0,0
269848,-121.71639592883,4,1,0,72,0,0
270020,-121.014391031381,4,1,0,73,0,0
270191,-120.320292618952,4,1,0,73,0,0
270362,-119.634254158188,4,1,0,74,0,0
270534,-118.955994608914,4,1,0,74,0,0
270705,-118.285382410727,4,1,0,75,0,0
270877,-117.622288953267,4,1,0,75,0,0
271048,-116.966451682328,4,1,0,76,0,0
271220,-116.318022779722,4,1,0,76,0,0
271391,-115.676743653395,4,1,0,77,0,0
271562,-115.04249669828,4,1,0,77,0,0
271734,-114.415166874521,4,1,0,78,0,0
271905,-113.794641637915,4,1,0,78,0,0
272077,-113.180682773787,4,1,0,79,0,0
272248,-112.573440097984,4,1,0,80,0,0
272420,-111.972678666405,4,1,0,80,0,0
272591,-111.378295266088,4,1,0,81,0,0
272762,-110.790188864035,4,1,0,81,0,0
272934,-110.208260549961,4,1,0,82,0,0
273105,-109.632293288311,4,1,0,82,0,0
273277,-109.062433880899,4,1,0,83,0,0
273448,-108.498468001632,4,1,0,83,0,0
273620,-107.940304693892,4,1,0,84,0,0
273791,-107.387854863166,4,1,0,84,0,0
273962,-106.840917079696,4,1,0,85,0,0
274134,-106.299635285951,4,1,0,85,0,0
274305,-105.763810373949,4,1,0,86,0,0
274477,-105.233360237996,4,1,0,86,0,0
274648,-104.708204411357,4,1,0,87,0,0
274734,-104.447587156289,4,1,0,87,0,0
274820,-104.166666666667,4,1,0,88,0,0
279791,-95.2380952380952,4,1,0,90,0,0
296591,-93.4579439252336,4,1,0,90,0,0
297962,-91.743119266055,4,1,0,90,0,0
299848,-90.9090909090909,4,1,0,90,0,0
299934,-90.0900900900901,4,1,0,90,0,0
300020,-89.2857142857143,4,1,0,90,0,0
300105,-88.4955752212389,4,1,0,90,0,0
300191,-87.719298245614,4,1,0,90,0,0
300277,-86.9565217391304,4,1,0,90,0,0
300362,-86.2068965517241,4,1,0,90,0,0
300448,-85.4700854700855,4,1,0,90,0,0
300534,-84.7457627118644,4,1,0,90,0,0
300620,-84.0336134453781,4,1,0,90,0,0
300705,-83.3333333333333,4,1,0,90,0,0
300791,-82.6446280991736,4,1,0,90,0,0
300877,-81.9672131147541,4,1,0,90,0,0
300962,-81.3008130081301,4,1,0,90,0,0
301048,-80.6451612903226,4,1,0,90,0,0
301134,-80,4,1,0,90,0,0
301220,-79.3650793650794,4,1,0,90,0,0
301305,-78.7401574803149,4,1,0,90,0,0
301391,-78.125,4,1,0,90,0,0
301477,-77.5193798449612,4,1,0,90,0,0
301562,-76.9230769230769,4,1,0,90,0,0
301648,-76.3358778625954,4,1,0,90,0,0
301734,-76.3358778625954,4,1,0,70,0,0
303105,-100,4,1,0,50,0,0
304477,-100,4,1,0,30,0,0
305848,-100,4,1,0,10,0,0

[HitObjects]
160,288,22,5,4,0:0:0:0:
352,96,2764,1,8,0:0:0:0:
352,96,5507,1,8,0:0:0:0:
352,96,8250,1,8,0:0:0:0:
160,288,10993,1,4,0:0:0:0:
352,96,11336,1,8,0:0:0:0:
160,96,11507,1,0,0:0:0:0:
352,96,11679,1,8,0:0:0:0:
160,96,12364,1,0,0:0:0:0:
352,96,12707,1,8,0:0:0:0:
352,96,12879,1,8,0:0:0:0:
160,96,13050,1,0,0:0:0:0:
352,96,13736,1,8,0:0:0:0:
352,96,14079,1,8,0:0:0:0:
160,96,14250,1,0,0:0:0:0:
352,96,14421,1,8,0:0:0:0:
160,96,15107,1,0,0:0:0:0:
160,96,15450,1,0,0:0:0:0:
352,96,15621,1,8,0:0:0:0:
160,96,15793,1,0,0:0:0:0:
352,96,16479,1,8,0:0:0:0:
352,96,16993,1,8,0:0:0:0:
160,96,17164,1,0,0:0:0:0:
352,96,17507,1,8,0:0:0:0:
352,96,17850,1,8,0:0:0:0:
352,96,18364,1,8,0:0:0:0:
160,96,18536,1,0,0:0:0:0:
352,96,18879,1,8,0:0:0:0:
352,96,19222,1,8,0:0:0:0:
256,192,19393,12,0,21793,0:0:0:0:
160,288,21964,5,4,0:0:0:0:
352,96,22307,1,8,0:0:0:0:
352,96,22479,1,8,0:0:0:0:
160,96,22564,1,0,0:0:0:0:
202,218,22736,1,0,0:0:0:0:
160,96,22822,1,0,0:0:0:0:
352,96,22993,1,8,0:0:0:0:
160,96,23336,1,0,0:0:0:0:
160,96,23507,1,0,0:0:0:0:
352,96,23679,1,8,0:0:0:0:
352,96,23850,1,8,0:0:0:0:
160,96,23936,1,0,0:0:0:0:
352,96,24107,1,8,0:0:0:0:
160,96,24193,1,0,0:0:0:0:
160,96,24279,1,0,0:0:0:0:
352,96,24364,1,8,0:0:0:0:
160,288,24707,1,4,0:0:0:0:
352,96,25050,1,8,0:0:0:0:
352,96,25222,1,8,0:0:0:0:
160,96,25307,1,0,0:0:0:0:
202,218,25479,1,0,0:0:0:0:
160,96,25564,1,0,0:0:0:0:
352,96,25736,1,8,0:0:0:0:
160,96,26079,1,0,0:0:0:0:
160,96,26250,1,0,0:0:0:0:
352,96,26422,1,8,0:0:0:0:
352,96,26593,1,8,0:0:0:0:
160,96,26679,1,0,0:0:0:0:
160,96,26850,1,0,0:0:0:0:
160,96,26936,1,8,0:0:0:0:
160,96,27022,1,0,0:0:0:0:
352,96,27107,1,8,0:0:0:0:
160,288,27450,1,4,0:0:0:0:
352,96,27793,1,8,0:0:0:0:
269,164,27964,1,8,0:0:0:0:
160,96,28050,1,0,0:0:0:0:
202,218,28222,1,0,0:0:0:0:
269,164,28307,1,0,0:0:0:0:
352,96,28478,1,8,0:0:0:0:
160,96,28822,1,0,0:0:0:0:
160,96,28993,1,0,0:0:0:0:
343,223,29079,1,0,0:0:0:0:
352,96,29164,1,8,0:0:0:0:
352,96,29336,1,8,0:0:0:0:
160,96,29422,1,0,0:0:0:0:
352,96,29593,1,8,0:0:0:0:
160,96,29679,1,0,0:0:0:0:
160,96,29764,1,0,0:0:0:0:
352,96,29850,1,8,0:0:0:0:
160,288,30193,1,4,0:0:0:0:
352,96,30536,1,8,0:0:0:0:
352,96,30707,1,8,0:0:0:0:
160,96,30793,1,0,0:0:0:0:
202,218,30964,1,0,0:0:0:0:
202,218,31050,1,0,0:0:0:0:
352,96,31222,1,8,0:0:0:0:
160,96,31564,1,0,0:0:0:0:
160,96,31736,1,0,0:0:0:0:
160,96,31822,1,0,0:0:0:0:
352,96,31907,1,8,0:0:0:0:
160,96,32079,1,8,0:0:0:0:
352,96,32164,1,0,0:0:0:0:
352,96,32336,1,8,0:0:0:0:
352,96,32422,1,8,0:0:0:0:
352,96,32507,1,8,0:0:0:0:
352,96,32593,1,8,0:0:0:0:
352,96,32679,1,8,0:0:0:0:
352,96,32764,1,8,0:0:0:0:
352,96,32850,1,8,0:0:0:0:
160,96,32936,1,4,0:0:0:0:
352,96,33279,1,8,0:0:0:0:
352,96,33450,1,8,0:0:0:0:
160,96,33536,1,0,0:0:0:0:
269,164,33707,1,0,0:0:0:0:
160,96,33793,1,0,0:0:0:0:
352,96,33964,1,8,0:0:0:0:
352,96,34136,1,8,0:0:0:0:
352,96,34222,1,8,0:0:0:0:
160,96,34307,1,0,0:0:0:0:
160,96,34479,1,0,0:0:0:0:
352,96,34650,1,8,0:0:0:0:
352,96,34822,1,8,0:0:0:0:
160,96,34907,1,0,0:0:0:0:
352,96,35079,1,8,0:0:0:0:
160,96,35164,1,0,0:0:0:0:
160,96,35250,1,0,0:0:0:0:
352,96,35336,1,8,0:0:0:0:
160,288,35679,1,4,0:0:0:0:
352,96,36022,1,8,0:0:0:0:
352,96,36193,1,8,0:0:0:0:
160,96,36279,1,0,0:0:0:0:
269,164,36450,1,0,0:0:0:0:
160,96,36536,1,0,0:0:0:0:
352,96,36707,1,8,0:0:0:0:
160,96,36879,1,0,0:0:0:0:
352,96,36964,1,8,0:0:0:0:
160,96,37050,1,0,0:0:0:0:
160,96,37222,1,0,0:0:0:0:
160,96,37307,1,0,0:0:0:0:
352,96,37393,1,8,0:0:0:0:
352,96,37564,1,8,0:0:0:0:
160,96,37650,1,0,0:0:0:0:
160,96,37822,1,0,0:0:0:0:
352,96,37907,1,8,0:0:0:0:
160,96,37993,1,0,0:0:0:0:
352,96,38079,1,8,0:0:0:0:
160,288,38422,1,4,0:0:0:0:
352,96,38764,1,8,0:0:0:0:
352,96,38936,1,8,0:0:0:0:
160,96,39022,1,0,0:0:0:0:
160,96,39193,1,0,0:0:0:0:
160,96,39279,1,0,0:0:0:0:
352,96,39450,1,8,0:0:0:0:
160,96,39622,1,0,0:0:0:0:
160,96,39707,1,0,0:0:0:0:
160,96,39793,1,0,0:0:0:0:
160,96,39964,1,0,0:0:0:0:
352,96,40136,1,8,0:0:0:0:
160,96,40393,1,0,0:0:0:0:
160,96,40479,1,0,0:0:0:0:
160,96,40650,1,0,0:0:0:0:
160,96,40736,1,0,0:0:0:0:
285,226,40822,1,0,0:0:0:0:
285,226,40907,1,0,0:0:0:0:
160,96,40993,1,0,0:0:0:0:
258,171,41079,1,0,0:0:0:0:
352,96,41164,1,8,0:0:0:0:
352,96,41336,1,8,0:0:0:0:
352,96,41422,1,8,0:0:0:0:
352,96,41507,1,8,0:0:0:0:
352,96,41679,1,8,0:0:0:0:
352,96,41764,1,8,0:0:0:0:
352,96,41850,1,8,0:0:0:0:
352,96,41936,1,8,0:0:0:0:
352,96,42022,1,8,0:0:0:0:
352,96,42193,1,8,0:0:0:0:
352,96,42279,1,8,0:0:0:0:
352,96,42364,1,8,0:0:0:0:
352,96,42450,1,8,0:0:0:0:
160,96,42536,1,0,0:0:0:0:
160,96,42622,1,0,0:0:0:0:
352,96,42707,1,8,0:0:0:0:
160,96,42793,1,0,0:0:0:0:
352,96,42879,1,8,0:0:0:0:
352,96,42964,1,8,0:0:0:0:
352,96,43050,1,8,0:0:0:0:
352,96,43136,1,8,0:0:0:0:
160,96,43222,1,0,0:0:0:0:
160,288,43907,1,4,0:0:0:0:
160,96,44250,1,0,0:0:0:0:
352,96,44422,1,8,0:0:0:0:
352,96,44507,1,8,0:0:0:0:
160,96,44593,1,0,0:0:0:0:
160,96,44936,1,0,0:0:0:0:
160,96,45279,1,0,0:0:0:0:
160,96,45622,1,0,0:0:0:0:
352,96,45793,1,8,0:0:0:0:
352,96,45879,1,8,0:0:0:0:
160,96,45964,1,0,0:0:0:0:
160,96,46222,1,0,0:0:0:0:
352,96,46307,1,8,0:0:0:0:
352,96,46479,1,8,0:0:0:0:
160,96,46650,1,0,0:0:0:0:
160,96,46993,1,0,0:0:0:0:
352,96,47164,1,8,0:0:0:0:
352,96,47250,1,8,0:0:0:0:
160,96,47336,1,0,0:0:0:0:
160,96,47679,1,0,0:0:0:0:
160,96,48022,1,0,0:0:0:0:
160,96,48364,1,0,0:0:0:0:
352,96,48536,1,8,0:0:0:0:
352,96,48622,1,8,0:0:0:0:
160,96,48707,1,0,0:0:0:0:
160,96,48964,1,0,0:0:0:0:
352,96,49050,1,8,0:0:0:0:
352,96,49222,1,8,0:0:0:0:
160,96,49393,1,0,0:0:0:0:
160,96,49736,1,0,0:0:0:0:
352,96,49907,1,8,0:0:0:0:
352,96,49993,1,8,0:0:0:0:
160,96,50079,1,0,0:0:0:0:
160,96,50422,1,0,0:0:0:0:
160,96,50764,1,0,0:0:0:0:
160,96,51107,1,0,0:0:0:0:
352,96,51279,1,8,0:0:0:0:
352,96,51364,1,8,0:0:0:0:
160,96,51450,1,0,0:0:0:0:
160,96,51707,1,0,0:0:0:0:
352,96,51793,1,8,0:0:0:0:
352,96,51964,1,8,0:0:0:0:
160,96,52136,1,0,0:0:0:0:
160,96,52222,1,0,0:0:0:0:
160,96,52307,1,0,0:0:0:0:
160,96,52393,1,0,0:0:0:0:
352,96,52479,1,8,0:0:0:0:
352,96,52564,1,8,0:0:0:0:
160,96,52650,1,0,0:0:0:0:
160,96,52736,1,0,0:0:0:0:
352,96,52822,1,8,0:0:0:0:
160,96,52907,1,0,0:0:0:0:
160,96,52993,1,0,0:0:0:0:
160,96,53079,1,0,0:0:0:0:
352,96,53164,1,8,0:0:0:0:
352,96,53250,1,8,0:0:0:0:
160,96,53336,1,0,0:0:0:0:
160,96,53422,1,0,0:0:0:0:
352,96,53507,1,8,0:0:0:0:
160,96,53622,1,0,0:0:0:0:
160,96,53736,1,0,0:0:0:0:
352,96,53850,1,8,0:0:0:0:
160,96,53964,1,0,0:0:0:0:
352,96,54079,1,0,0:0:0:0:
160,96,54193,1,8,0:0:0:0:
160,96,54307,1,8,0:0:0:0:
352,96,54422,1,0,0:0:0:0:
160,96,54536,1,8,0:0:0:0:
352,96,54650,1,8,0:0:0:0:
352,96,54764,1,8,0:0:0:0:
160,288,54879,1,4,0:0:0:0:
256,192,54993,12,0,60364,0:0:0:0:
160,288,65850,5,4,0:0:0:0:
160,96,66108,1,0,0:0:0:0:
160,96,66450,1,0,0:0:0:0:
160,96,66793,1,0,0:0:0:0:
160,96,67136,1,0,0:0:0:0:
352,96,67222,1,8,0:0:0:0:
352,96,67393,1,8,0:0:0:0:
352,96,67564,1,8,0:0:0:0:
352,96,67736,1,8,0:0:0:0:
160,96,67907,1,0,0:0:0:0:
160,96,68022,1,0,0:0:0:0:
160,96,68136,1,0,0:0:0:0:
160,96,68250,1,0,0:0:0:0:
160,96,68364,1,0,0:0:0:0:
160,96,68479,1,0,0:0:0:0:
160,96,68593,1,0,0:0:0:0:
352,96,68806,1,8,0:0:0:0:
352,96,69064,1,8,0:0:0:0:
352,96,69321,1,8,0:0:0:0:
352,96,69578,1,8,0:0:0:0:
352,96,69835,1,8,0:0:0:0:
160,96,70092,1,0,0:0:0:0:
160,96,70349,1,0,0:0:0:0:
160,96,70606,1,0,0:0:0:0:
352,96,70864,1,8,0:0:0:0:
160,288,71336,1,4,0:0:0:0:
160,96,71593,1,0,0:0:0:0:
160,96,71936,1,0,0:0:0:0:
160,96,72279,1,0,0:0:0:0:
160,96,72622,1,0,0:0:0:0:
352,96,72707,1,8,0:0:0:0:
352,96,72879,1,8,0:0:0:0:
352,96,73050,1,8,0:0:0:0:
352,96,73222,1,8,0:0:0:0:
160,96,73393,1,0,0:0:0:0:
160,96,73507,1,0,0:0:0:0:
160,96,73622,1,0,0:0:0:0:
352,96,73736,1,8,0:0:0:0:
352,96,73850,1,8,0:0:0:0:
352,96,73964,1,8,0:0:0:0:
160,96,74079,1,0,0:0:0:0:
352,96,74293,1,0,0:0:0:0:
352,96,74550,1,0,0:0:0:0:
160,96,74807,1,8,0:0:0:0:
160,96,75064,1,8,0:0:0:0:
160,96,75321,1,8,0:0:0:0:
352,96,75579,1,0,0:0:0:0:
352,96,75836,1,0,0:0:0:0:
160,96,76093,1,0,0:0:0:0:
160,96,76350,1,0,0:0:0:0:
352,288,76479,1,12,0:0:0:0:
160,288,76822,1,4,0:0:0:0:
160,96,77078,1,0,0:0:0:0:
160,96,77421,1,0,0:0:0:0:
160,96,77764,1,0,0:0:0:0:
160,96,78107,1,0,0:0:0:0:
352,96,78193,1,8,0:0:0:0:
352,96,78364,1,8,0:0:0:0:
352,96,78536,1,8,0:0:0:0:
352,96,78707,1,8,0:0:0:0:
160,96,78879,1,0,0:0:0:0:
160,96,78993,1,0,0:0:0:0:
160,96,79107,1,0,0:0:0:0:
160,96,79222,1,0,0:0:0:0:
160,96,79336,1,0,0:0:0:0:
160,96,79450,1,0,0:0:0:0:
160,96,79564,1,0,0:0:0:0:
160,96,79779,1,8,0:0:0:0:
160,96,80036,1,8,0:0:0:0:
352,96,80293,1,8,0:0:0:0:
352,96,80550,1,8,0:0:0:0:
352,96,80807,1,8,0:0:0:0:
160,96,81064,1,0,0:0:0:0:
160,96,81321,1,0,0:0:0:0:
160,96,81579,1,0,0:0:0:0:
352,96,81836,1,8,0:0:0:0:
160,288,82307,1,4,0:0:0:0:
352,96,82993,1,8,0:0:0:0:
352,96,83679,1,8,0:0:0:0:
352,96,84364,1,8,0:0:0:0:
352,96,85050,1,8,0:0:0:0:
160,288,87793,5,4,0:0:0:0:
160,96,88136,1,0,0:0:0:0:
160,96,88479,1,0,0:0:0:0:
160,96,88822,1,0,0:0:0:0:
352,96,89164,1,8,0:0:0:0:
352,96,89336,1,8,0:0:0:0:
352,96,89507,1,8,0:0:0:0:
352,96,89679,1,8,0:0:0:0:
160,96,89850,1,0,0:0:0:0:
160,96,89964,1,0,0:0:0:0:
160,96,90079,1,0,0:0:0:0:
352,96,90193,1,8,0:0:0:0:
352,96,90307,1,8,0:0:0:0:
352,96,90422,1,8,0:0:0:0:
160,96,90536,1,0,0:0:0:0:
352,96,90707,1,8,0:0:0:0:
160,96,90793,1,0,0:0:0:0:
352,96,90964,1,8,0:0:0:0:
160,96,91050,1,0,0:0:0:0:
352,96,91222,1,8,0:0:0:0:
160,96,91307,1,0,0:0:0:0:
352,96,91479,1,8,0:0:0:0:
160,96,91564,1,0,0:0:0:0:
352,96,91736,1,8,0:0:0:0:
160,96,91822,1,0,0:0:0:0:
352,96,91993,1,8,0:0:0:0:
160,96,92079,1,0,0:0:0:0:
352,96,92250,1,8,0:0:0:0:
160,96,92336,1,0,0:0:0:0:
352,96,92507,1,8,0:0:0:0:
160,96,92593,1,0,0:0:0:0:
352,96,92764,1,8,0:0:0:0:
160,96,92850,1,0,0:0:0:0:
352,96,93022,1,8,0:0:0:0:
160,96,93107,1,0,0:0:0:0:
160,96,93279,1,0,0:0:0:0:
160,96,93622,1,0,0:0:0:0:
352,96,93793,1,8,0:0:0:0:
352,96,93879,1,8,0:0:0:0:
160,96,93964,1,0,0:0:0:0:
160,96,94307,1,0,0:0:0:0:
352,96,94650,1,8,0:0:0:0:
160,96,94822,1,8,0:0:0:0:
160,96,94879,1,0,0:0:0:0:
160,96,94936,1,0,0:0:0:0:
352,96,94993,1,8,0:0:0:0:
352,96,95164,1,8,0:0:0:0:
352,96,95336,1,0,0:0:0:0:
160,96,95450,1,0,0:0:0:0:
160,96,95564,1,0,0:0:0:0:
352,96,95679,1,8,0:0:0:0:
352,96,95793,1,8,0:0:0:0:
352,96,95907,1,8,0:0:0:0:
160,96,96022,1,0,0:0:0:0:
249,95,96279,1,0,0:0:0:0:
249,95,96364,1,8,0:0:0:0:
290,182,96536,1,0,0:0:0:0:
290,182,96707,1,8,0:0:0:0:
290,182,96793,1,0,0:0:0:0:
290,182,96879,1,0,0:0:0:0:
290,182,96936,1,0,0:0:0:0:
290,182,96993,1,0,0:0:0:0:
290,182,97050,1,8,0:0:0:0:
290,182,97222,1,8,0:0:0:0:
290,182,97307,1,0,0:0:0:0:
290,182,97479,1,8,0:0:0:0:
290,182,97564,1,0,0:0:0:0:
290,182,97622,1,0,0:0:0:0:
290,182,97679,1,0,0:0:0:0:
290,182,97736,1,8,0:0:0:0:
290,182,97822,1,0,0:0:0:0:
290,182,97993,1,8,0:0:0:0:
160,96,98764,1,0,0:0:0:0:
160,96,98936,1,0,0:0:0:0:
160,96,99107,1,0,0:0:0:0:
160,96,99450,1,0,0:0:0:0:
160,96,99622,1,0,0:0:0:0:
160,96,99707,1,0,0:0:0:0:
160,96,99793,1,0,0:0:0:0:
352,96,100136,1,8,0:0:0:0:
352,96,100307,1,8,0:0:0:0:
352,96,100479,1,8,0:0:0:0:
352,96,100650,1,8,0:0:0:0:
160,96,100822,1,0,0:0:0:0:
160,96,100936,1,0,0:0:0:0:
160,96,101050,1,0,0:0:0:0:
352,96,101164,1,8,0:0:0:0:
352,96,101279,1,8,0:0:0:0:
352,96,101393,1,8,0:0:0:0:
160,96,101507,1,0,0:0:0:0:
352,96,101636,1,8,0:0:0:0:
160,96,101764,1,0,0:0:0:0:
352,96,101893,1,8,0:0:0:0:
160,96,102022,1,0,0:0:0:0:
352,96,102150,1,8,0:0:0:0:
160,96,102279,1,0,0:0:0:0:
352,96,102407,1,8,0:0:0:0:
160,96,102536,1,0,0:0:0:0:
352,96,102664,1,8,0:0:0:0:
160,96,102793,1,0,0:0:0:0:
352,96,102879,1,8,0:0:0:0:
352,96,102964,1,8,0:0:0:0:
160,96,103050,1,0,0:0:0:0:
352,96,103136,1,8,0:0:0:0:
352,96,103222,1,8,0:0:0:0:
160,96,103307,1,0,0:0:0:0:
352,96,103393,1,8,0:0:0:0:
352,96,103479,1,8,0:0:0:0:
160,96,103564,1,0,0:0:0:0:
352,96,103650,1,8,0:0:0:0:
352,96,103736,1,8,0:0:0:0:
160,96,103822,1,0,0:0:0:0:
352,96,103907,1,8,0:0:0:0:
352,96,103993,1,8,0:0:0:0:
160,96,104079,1,0,0:0:0:0:
160,96,104250,1,0,0:0:0:0:
160,96,104593,1,0,0:0:0:0:
352,96,104764,1,8,0:0:0:0:
352,96,104850,1,8,0:0:0:0:
160,96,104936,1,0,0:0:0:0:
160,96,105279,1,0,0:0:0:0:
352,96,105622,1,8,0:0:0:0:
160,96,105793,1,8,0:0:0:0:
352,96,105964,1,8,0:0:0:0:
352,96,106136,1,8,0:0:0:0:
352,96,106307,1,8,0:0:0:0:
160,96,106422,1,0,0:0:0:0:
160,96,106536,1,0,0:0:0:0:
352,96,106650,1,8,0:0:0:0:
352,96,106764,1,8,0:0:0:0:
352,96,106879,1,8,0:0:0:0:
160,96,106993,1,0,0:0:0:0:
160,96,107164,1,0,0:0:0:0:
160,96,107222,1,0,0:0:0:0:
160,96,107279,1,0,0:0:0:0:
352,96,107336,1,8,0:0:0:0:
160,96,107507,1,0,0:0:0:0:
352,96,107679,1,8,0:0:0:0:
160,96,107764,1,0,0:0:0:0:
352,96,107821,1,8,0:0:0:0:
352,96,107878,1,8,0:0:0:0:
160,96,107936,1,0,0:0:0:0:
352,96,108022,1,8,0:0:0:0:
352,96,108279,1,8,0:0:0:0:
160,96,108407,1,0,0:0:0:0:
352,96,108536,1,8,0:0:0:0:
160,96,108664,1,0,0:0:0:0:
352,96,108793,1,8,0:0:0:0:
160,96,108922,1,0,0:0:0:0:
352,96,109050,1,8,0:0:0:0:
160,96,109136,1,0,0:0:0:0:
160,96,109222,1,0,0:0:0:0:
160,96,109307,1,0,0:0:0:0:
352,96,109393,1,8,0:0:0:0:
352,96,109479,1,8,0:0:0:0:
160,96,109564,1,0,0:0:0:0:
160,96,109622,1,0,0:0:0:0:
160,96,109679,1,0,0:0:0:0:
352,96,109736,1,8,0:0:0:0:
160,96,109907,1,0,0:0:0:0:
160,96,109993,1,0,0:0:0:0:
352,96,110079,1,8,0:0:0:0:
160,96,110164,1,0,0:0:0:0:
352,96,110250,1,8,0:0:0:0:
160,96,110422,1,0,0:0:0:0:
352,96,110507,1,8,0:0:0:0:
160,96,110593,1,0,0:0:0:0:
160,96,110650,1,0,0:0:0:0:
160,96,110707,1,0,0:0:0:0:
352,96,110764,1,8,0:0:0:0:
160,96,110936,1,0,0:0:0:0:
352,96,111022,1,8,0:0:0:0:
160,96,111107,1,0,0:0:0:0:
160,96,111193,1,0,0:0:0:0:
352,96,111279,1,8,0:0:0:0:
160,96,111450,1,0,0:0:0:0:
352,96,111536,1,8,0:0:0:0:
160,96,111622,1,0,0:0:0:0:
352,96,111707,1,8,0:0:0:0:
160,96,111793,1,0,0:0:0:0:
160,96,111879,1,0,0:0:0:0:
352,96,111964,1,8,0:0:0:0:
160,96,112050,1,0,0:0:0:0:
352,96,112136,1,8,0:0:0:0:
352,96,112222,1,8,0:0:0:0:
160,96,112307,1,0,0:0:0:0:
160,96,112364,1,0,0:0:0:0:
160,96,112422,1,0,0:0:0:0:
352,96,112479,1,8,0:0:0:0:
160,96,112650,1,0,0:0:0:0:
160,96,112736,1,0,0:0:0:0:
352,96,112822,1,8,0:0:0:0:
160,96,112907,1,0,0:0:0:0:
352,96,112993,1,8,0:0:0:0:
160,96,113164,1,0,0:0:0:0:
352,96,113250,1,8,0:0:0:0:
160,96,113336,1,0,0:0:0:0:
160,96,113393,1,0,0:0:0:0:
160,96,113450,1,0,0:0:0:0:
352,96,113507,1,8,0:0:0:0:
160,96,113679,1,0,0:0:0:0:
352,96,113764,1,8,0:0:0:0:
160,96,113850,1,0,0:0:0:0:
160,96,113936,1,0,0:0:0:0:
352,96,114022,1,8,0:0:0:0:
160,96,114193,1,0,0:0:0:0:
352,96,114279,1,8,0:0:0:0:
160,96,114364,1,0,0:0:0:0:
352,96,114450,1,8,0:0:0:0:
160,96,114536,1,0,0:0:0:0:
160,96,114593,1,0,0:0:0:0:
160,96,114650,1,0,0:0:0:0:
352,96,114707,1,8,0:0:0:0:
352,96,114793,1,8,0:0:0:0:
352,96,114879,1,8,0:0:0:0:
352,96,114964,1,8,0:0:0:0:
352,96,115050,1,8,0:0:0:0:
352,96,115136,1,8,0:0:0:0:
160,96,115222,1,0,0:0:0:0:
352,96,116250,1,8,0:0:0:0:
352,96,116593,1,8,0:0:0:0:
352,96,117622,1,8,0:0:0:0:
352,96,117964,1,8,0:0:0:0:
352,96,118307,1,8,0:0:0:0:
352,96,118393,1,8,0:0:0:0:
352,96,118479,1,8,0:0:0:0:
160,96,118650,1,0,0:0:0:0:
352,96,118993,1,8,0:0:0:0:
352,96,119079,1,8,0:0:0:0:
160,96,119164,1,0,0:0:0:0:
160,96,119336,1,0,0:0:0:0:
352,96,119679,1,8,0:0:0:0:
160,96,119764,1,0,0:0:0:0:
352,96,119850,1,8,0:0:0:0:
160,96,120022,1,0,0:0:0:0:
352,96,120193,1,8,0:0:0:0:
352,96,120364,1,8,0:0:0:0:
160,96,120536,1,0,0:0:0:0:
160,96,120707,1,0,0:0:0:0:
352,96,121050,1,8,0:0:0:0:
352,96,121136,1,8,0:0:0:0:
160,96,121222,1,0,0:0:0:0:
160,96,121393,1,0,0:0:0:0:
352,96,121564,1,8,0:0:0:0:
160,96,121650,1,0,0:0:0:0:
160,96,121736,1,0,0:0:0:0:
352,96,121907,1,8,0:0:0:0:
352,96,121993,1,8,0:0:0:0:
160,96,122079,1,0,0:0:0:0:
352,96,122250,1,8,0:0:0:0:
160,96,122336,1,0,0:0:0:0:
352,96,122422,1,8,0:0:0:0:
160,96,122593,1,0,0:0:0:0:
160,96,122679,1,0,0:0:0:0:
352,96,122764,1,8,0:0:0:0:
160,96,122936,1,0,0:0:0:0:
352,96,123022,1,8,0:0:0:0:
352,96,123107,1,8,0:0:0:0:
160,96,123279,1,0,0:0:0:0:
352,96,123364,1,8,0:0:0:0:
160,96,123450,1,0,0:0:0:0:
160,96,123793,1,0,0:0:0:0:
160,96,124136,1,0,0:0:0:0:
352,96,124222,1,8,0:0:0:0:
160,96,124307,1,0,0:0:0:0:
160,96,124393,1,0,0:0:0:0:
352,96,124479,1,8,0:0:0:0:
352,96,124564,1,8,0:0:0:0:
160,96,124736,1,0,0:0:0:0:
352,96,124822,1,8,0:0:0:0:
352,96,124907,1,8,0:0:0:0:
160,96,124993,1,0,0:0:0:0:
352,96,125164,1,8,0:0:0:0:
160,96,125250,1,0,0:0:0:0:
160,96,125336,1,0,0:0:0:0:
160,96,125422,1,0,0:0:0:0:
352,96,125507,1,8,0:0:0:0:
352,96,125679,1,8,0:0:0:0:
160,96,125764,1,0,0:0:0:0:
160,96,125850,1,0,0:0:0:0:
352,96,125936,1,8,0:0:0:0:
352,96,126022,1,8,0:0:0:0:
160,96,126193,1,0,0:0:0:0:
352,96,126536,1,8,0:0:0:0:
352,96,126622,1,8,0:0:0:0:
160,96,126707,1,0,0:0:0:0:
160,96,126879,1,0,0:0:0:0:
160,96,127050,1,0,0:0:0:0:
160,96,127222,1,0,0:0:0:0:
352,96,127393,1,8,0:0:0:0:
160,96,127479,1,0,0:0:0:0:
160,96,127564,1,0,0:0:0:0:
352,96,127736,1,8,0:0:0:0:
160,96,127822,1,0,0:0:0:0:
352,96,127907,1,8,0:0:0:0:
160,96,128079,1,0,0:0:0:0:
160,96,128164,1,0,0:0:0:0:
352,96,128250,1,8,0:0:0:0:
160,96,128422,1,0,0:0:0:0:
352,96,128507,1,8,0:0:0:0:
352,96,128593,1,8,0:0:0:0:
160,96,128764,1,0,0:0:0:0:
352,96,128850,1,8,0:0:0:0:
160,96,128936,1,0,0:0:0:0:
160,96,129279,1,0,0:0:0:0:
160,96,129622,1,0,0:0:0:0:
160,96,129707,1,0,0:0:0:0:
352,96,129793,1,8,0:0:0:0:
160,96,129879,1,0,0:0:0:0:
352,96,129964,1,8,0:0:0:0:
352,96,130136,1,8,0:0:0:0:
160,96,130222,1,0,0:0:0:0:
352,96,130307,1,8,0:0:0:0:
352,96,130393,1,8,0:0:0:0:
160,96,130479,1,0,0:0:0:0:
160,96,130564,1,0,0:0:0:0:
352,96,130650,1,8,0:0:0:0:
319,171,130736,1,0,0:0:0:0:
319,171,130779,1,0,0:0:0:0:
319,171,130822,1,0,0:0:0:0:
319,171,130907,1,8,0:0:0:0:
319,171,130993,1,0,0:0:0:0:
235,183,131036,1,0,0:0:0:0:
319,171,131079,1,0,0:0:0:0:
319,171,131164,1,8,0:0:0:0:
319,171,131250,1,0,0:0:0:0:
319,171,131336,1,8,0:0:0:0:
352,96,131507,1,8,0:0:0:0:
160,96,131593,1,8,0:0:0:0:
352,96,131679,1,0,0:0:0:0:
352,96,132022,1,8,0:0:0:0:
352,96,132107,1,8,0:0:0:0:
160,96,132193,1,0,0:0:0:0:
160,96,132364,1,0,0:0:0:0:
352,96,132536,1,8,0:0:0:0:
160,96,132622,1,0,0:0:0:0:
352,96,132707,1,8,0:0:0:0:
352,96,132879,1,8,0:0:0:0:
160,96,133050,1,0,0:0:0:0:
352,96,133222,1,8,0:0:0:0:
160,96,133307,1,0,0:0:0:0:
352,96,133479,1,8,0:0:0:0:
160,96,133564,1,0,0:0:0:0:
160,96,133736,1,0,0:0:0:0:
352,96,133907,1,8,0:0:0:0:
352,96,133993,1,8,0:0:0:0:
160,96,134079,1,0,0:0:0:0:
352,96,134250,1,8,0:0:0:0:
160,96,134422,1,0,0:0:0:0:
352,96,134593,1,8,0:0:0:0:
160,96,134679,1,0,0:0:0:0:
160,96,134764,1,0,0:0:0:0:
352,96,134936,1,8,0:0:0:0:
352,96,135022,1,8,0:0:0:0:
160,96,135107,1,0,0:0:0:0:
352,96,135279,1,8,0:0:0:0:
160,96,135364,1,0,0:0:0:0:
352,96,135450,1,8,0:0:0:0:
160,96,135622,1,0,0:0:0:0:
160,96,135707,1,0,0:0:0:0:
352,96,135793,1,8,0:0:0:0:
160,96,135964,1,0,0:0:0:0:
352,96,136136,1,8,0:0:0:0:
160,96,136222,1,0,0:0:0:0:
160,96,136307,1,0,0:0:0:0:
352,96,136393,1,8,0:0:0:0:
160,96,136479,1,0,0:0:0:0:
352,96,136650,1,8,0:0:0:0:
160,96,136736,1,0,0:0:0:0:
160,96,136822,1,0,0:0:0:0:
276,170,136907,1,0,0:0:0:0:
352,96,136993,1,8,0:0:0:0:
160,96,137164,1,0,0:0:0:0:
352,96,137507,1,8,0:0:0:0:
352,96,137593,1,8,0:0:0:0:
160,96,137679,1,0,0:0:0:0:
160,96,137850,1,0,0:0:0:0:
160,96,138022,1,0,0:0:0:0:
160,96,138193,1,0,0:0:0:0:
352,96,138364,1,8,0:0:0:0:
160,96,138450,1,0,0:0:0:0:
160,96,138536,1,0,0:0:0:0:
352,96,138707,1,8,0:0:0:0:
160,96,138793,1,0,0:0:0:0:
352,96,138879,1,8,0:0:0:0:
160,96,139050,1,0,0:0:0:0:
352,96,139222,1,8,0:0:0:0:
160,96,139307,1,0,0:0:0:0:
160,96,139393,1,0,0:0:0:0:
160,96,139479,1,0,0:0:0:0:
352,96,139564,1,8,0:0:0:0:
160,96,139736,1,0,0:0:0:0:
352,96,139907,1,8,0:0:0:0:
160,96,140079,1,0,0:0:0:0:
160,96,140164,1,0,0:0:0:0:
352,96,140250,1,8,0:0:0:0:
160,96,140422,1,0,0:0:0:0:
352,96,140507,1,8,0:0:0:0:
352,96,140593,1,8,0:0:0:0:
160,96,140764,1,0,0:0:0:0:
160,96,140850,1,0,0:0:0:0:
352,96,140936,1,8,0:0:0:0:
352,96,141107,1,8,0:0:0:0:
160,96,141193,1,0,0:0:0:0:
352,96,141279,1,8,0:0:0:0:
352,96,141364,1,8,0:0:0:0:
160,96,141450,1,0,0:0:0:0:
352,96,141536,1,8,0:0:0:0:
352,96,141622,1,8,0:0:0:0:
352,96,141793,1,8,0:0:0:0:
160,96,141879,1,0,0:0:0:0:
160,96,141964,1,0,0:0:0:0:
160,96,142007,1,0,0:0:0:0:
160,96,142050,1,0,0:0:0:0:
352,96,142136,1,8,0:0:0:0:
160,96,142222,1,0,0:0:0:0:
352,96,142307,1,8,0:0:0:0:
160,96,142393,1,0,0:0:0:0:
352,96,142479,1,8,0:0:0:0:
160,288,142650,1,4,0:0:0:0:
352,96,142993,1,8,0:0:0:0:
352,96,143336,1,8,0:0:0:0:
352,96,143679,1,8,0:0:0:0:
352,96,144022,1,8,0:0:0:0:
352,96,144364,1,8,0:0:0:0:
352,96,144707,1,8,0:0:0:0:
352,96,145050,1,8,0:0:0:0:
352,96,145393,1,8,0:0:0:0:
352,96,146079,1,8,0:0:0:0:
352,96,146764,1,8,0:0:0:0:
160,288,148136,1,4,0:0:0:0:
352,96,148479,1,8,0:0:0:0:
352,96,148650,1,8,0:0:0:0:
160,96,148736,1,0,0:0:0:0:
160,96,148907,1,0,0:0:0:0:
160,96,148993,1,0,0:0:0:0:
352,96,149164,1,8,0:0:0:0:
160,96,149507,1,0,0:0:0:0:
160,96,149679,1,0,0:0:0:0:
352,96,149850,1,8,0:0:0:0:
352,96,150022,1,8,0:0:0:0:
160,96,150107,1,0,0:0:0:0:
352,96,150279,1,8,0:0:0:0:
160,96,150364,1,0,0:0:0:0:
160,96,150450,1,0,0:0:0:0:
352,96,150536,1,8,0:0:0:0:
241,188,150707,1,0,0:0:0:0:
160,288,150879,1,4,0:0:0:0:
352,96,151222,1,8,0:0:0:0:
352,96,151393,1,8,0:0:0:0:
160,96,151479,1,0,0:0:0:0:
160,96,151650,1,0,0:0:0:0:
160,96,151736,1,0,0:0:0:0:
352,96,151907,1,8,0:0:0:0:
160,96,152250,1,0,0:0:0:0:
160,96,152422,1,0,0:0:0:0:
352,96,152593,1,8,0:0:0:0:
352,96,152764,1,8,0:0:0:0:
160,96,152850,1,0,0:0:0:0:
160,96,153022,1,0,0:0:0:0:
160,96,153107,1,8,0:0:0:0:
160,96,153193,1,0,0:0:0:0:
352,96,153279,1,8,0:0:0:0:
160,288,153622,1,4,0:0:0:0:
352,96,153964,1,8,0:0:0:0:
352,96,154136,1,8,0:0:0:0:
160,96,154222,1,0,0:0:0:0:
160,96,154393,1,0,0:0:0:0:
160,96,154479,1,0,0:0:0:0:
352,96,154650,1,8,0:0:0:0:
160,96,154993,1,0,0:0:0:0:
160,96,155164,1,0,0:0:0:0:
160,96,155250,1,0,0:0:0:0:
352,96,155336,1,8,0:0:0:0:
352,96,155507,1,8,0:0:0:0:
160,96,155593,1,0,0:0:0:0:
352,96,155764,1,8,0:0:0:0:
160,96,155850,1,0,0:0:0:0:
160,96,155936,1,0,0:0:0:0:
352,96,156022,1,8,0:0:0:0:
160,288,156364,1,4,0:0:0:0:
352,96,156707,1,8,0:0:0:0:
352,96,156879,1,8,0:0:0:0:
160,96,156964,1,0,0:0:0:0:
317,166,157136,1,0,0:0:0:0:
160,96,157222,1,0,0:0:0:0:
352,96,157393,1,8,0:0:0:0:
160,96,157736,1,0,0:0:0:0:
160,96,157907,1,0,0:0:0:0:
160,96,157993,1,0,0:0:0:0:
352,96,158079,1,8,0:0:0:0:
160,96,158250,1,0,0:0:0:0:
352,96,158422,1,8,0:0:0:0:
160,96,158507,1,0,0:0:0:0:
160,96,158593,1,0,0:0:0:0:
160,96,158679,1,0,0:0:0:0:
352,96,158764,1,8,0:0:0:0:
352,96,158850,1,8,0:0:0:0:
160,288,159107,1,4,0:0:0:0:
352,96,159450,1,8,0:0:0:0:
352,96,159622,1,8,0:0:0:0:
160,96,159707,1,0,0:0:0:0:
352,96,159879,1,0,0:0:0:0:
160,96,159964,1,0,0:0:0:0:
352,96,160136,1,8,0:0:0:0:
160,96,160307,1,0,0:0:0:0:
352,96,160393,1,0,0:0:0:0:
160,96,160479,1,0,0:0:0:0:
160,96,160650,1,0,0:0:0:0:
352,96,160822,1,8,0:0:0:0:
352,96,160993,1,8,0:0:0:0:
160,96,161079,1,0,0:0:0:0:
160,96,161250,1,0,0:0:0:0:
160,96,161336,1,0,0:0:0:0:
160,96,161422,1,0,0:0:0:0:
352,96,161507,1,8,0:0:0:0:
160,288,161850,1,4,0:0:0:0:
352,96,162193,1,8,0:0:0:0:
352,96,162364,1,8,0:0:0:0:
160,96,162450,1,0,0:0:0:0:
160,96,162622,1,0,0:0:0:0:
160,96,162707,1,0,0:0:0:0:
352,96,162879,1,8,0:0:0:0:
160,96,163050,1,0,0:0:0:0:
160,96,163136,1,8,0:0:0:0:
352,96,163222,1,0,0:0:0:0:
160,96,163393,1,0,0:0:0:0:
352,96,163564,1,8,0:0:0:0:
352,96,163736,1,8,0:0:0:0:
160,96,163822,1,0,0:0:0:0:
160,96,163993,1,0,0:0:0:0:
352,96,164079,1,8,0:0:0:0:
160,96,164164,1,0,0:0:0:0:
352,96,164250,1,8,0:0:0:0:
160,288,164593,1,4,0:0:0:0:
352,96,164936,1,8,0:0:0:0:
352,96,165107,1,8,0:0:0:0:
160,96,165193,1,0,0:0:0:0:
352,96,165364,1,0,0:0:0:0:
160,96,165450,1,0,0:0:0:0:
352,96,165622,1,8,0:0:0:0:
160,96,165793,1,0,0:0:0:0:
352,96,165879,1,0,0:0:0:0:
160,96,165964,1,0,0:0:0:0:
160,96,166136,1,0,0:0:0:0:
352,96,166307,1,8,0:0:0:0:
352,96,166479,1,8,0:0:0:0:
160,96,166564,1,0,0:0:0:0:
160,96,166736,1,0,0:0:0:0:
160,96,166822,1,0,0:0:0:0:
160,96,166907,1,0,0:0:0:0:
352,96,166993,1,8,0:0:0:0:
160,288,167336,1,4,0:0:0:0:
352,96,167679,1,8,0:0:0:0:
352,96,167850,1,8,0:0:0:0:
160,96,167936,1,0,0:0:0:0:
160,96,168107,1,0,0:0:0:0:
160,96,168193,1,0,0:0:0:0:
352,96,168364,1,8,0:0:0:0:
352,96,168536,1,8,0:0:0:0:
352,96,168622,1,8,0:0:0:0:
352,96,168707,1,8,0:0:0:0:
352,96,168793,1,8,0:0:0:0:
352,96,168879,1,8,0:0:0:0:
352,96,168964,1,8,0:0:0:0:
352,96,169050,1,8,0:0:0:0:
352,96,169136,1,8,0:0:0:0:
160,96,169222,1,0,0:0:0:0:
352,96,169336,1,8,0:0:0:0:
352,96,169450,1,8,0:0:0:0:
160,96,169565,1,0,0:0:0:0:
160,96,169679,1,0,0:0:0:0:
160,96,170079,1,0,0:0:0:0:
160,96,170250,1,0,0:0:0:0:
352,96,170422,1,8,0:0:0:0:
160,96,170593,1,0,0:0:0:0:
352,96,170679,1,8,0:0:0:0:
160,96,170764,1,0,0:0:0:0:
352,96,170936,1,8,0:0:0:0:
160,96,171107,1,0,0:0:0:0:
160,96,171193,1,0,0:0:0:0:
352,96,171279,1,8,0:0:0:0:
160,96,171450,1,0,0:0:0:0:
352,96,171622,1,8,0:0:0:0:
160,96,171707,1,0,0:0:0:0:
160,96,171793,1,0,0:0:0:0:
352,96,171964,1,8,0:0:0:0:
160,96,172136,1,0,0:0:0:0:
352,96,172222,1,8,0:0:0:0:
160,96,172307,1,0,0:0:0:0:
160,96,172393,1,0,0:0:0:0:
352,96,172479,1,8,0:0:0:0:
352,96,172822,1,8,0:0:0:0:
160,96,173164,1,0,0:0:0:0:
160,96,173250,1,0,0:0:0:0:
352,96,173336,1,8,0:0:0:0:
352,96,173507,1,8,0:0:0:0:
160,96,173679,1,0,0:0:0:0:
160,96,173764,1,0,0:0:0:0:
352,96,173850,1,8,0:0:0:0:
160,96,174022,1,0,0:0:0:0:
160,96,174193,1,0,0:0:0:0:
352,96,174279,1,8,0:0:0:0:
352,96,174364,1,8,0:0:0:0:
160,96,174536,1,0,0:0:0:0:
352,96,174707,1,8,0:0:0:0:
160,96,174879,1,0,0:0:0:0:
160,96,175050,1,0,0:0:0:0:
352,96,175222,1,8,0:0:0:0:
352,96,175307,1,8,0:0:0:0:
160,96,175393,1,0,0:0:0:0:
160,96,175479,1,0,0:0:0:0:
160,96,175564,1,0,0:0:0:0:
160,96,175736,1,0,0:0:0:0:
352,96,175907,1,8,0:0:0:0:
352,96,176250,1,8,0:0:0:0:
160,96,176422,1,0,0:0:0:0:
160,96,176507,1,0,0:0:0:0:
352,96,176593,1,8,0:0:0:0:
352,96,176764,1,8,0:0:0:0:
352,96,176850,1,8,0:0:0:0:
160,96,176936,1,0,0:0:0:0:
352,96,177107,1,8,0:0:0:0:
160,96,177193,1,0,0:0:0:0:
160,96,177279,1,0,0:0:0:0:
352,96,177450,1,8,0:0:0:0:
160,96,177622,1,0,0:0:0:0:
352,96,177708,1,8,0:0:0:0:
160,96,177793,1,0,0:0:0:0:
160,96,177850,1,0,0:0:0:0:
160,96,177907,1,0,0:0:0:0:
352,96,177964,1,8,0:0:0:0:
160,96,178136,1,0,0:0:0:0:
352,96,178307,1,8,0:0:0:0:
160,96,178479,1,0,0:0:0:0:
160,96,178650,1,0,0:0:0:0:
160,96,178736,1,0,0:0:0:0:
352,96,178822,1,8,0:0:0:0:
160,96,178993,1,0,0:0:0:0:
352,96,179164,1,8,0:0:0:0:
160,96,179336,1,0,0:0:0:0:
160,96,179422,1,0,0:0:0:0:
160,96,179507,1,0,0:0:0:0:
352,96,179679,1,8,0:0:0:0:
160,96,179850,1,0,0:0:0:0:
160,96,179936,1,0,0:0:0:0:
352,96,180022,1,8,0:0:0:0:
160,96,180279,1,0,0:0:0:0:
352,96,180364,1,8,0:0:0:0:
352,96,180707,1,8,0:0:0:0:
160,96,181050,1,0,0:0:0:0:
160,96,181222,1,0,0:0:0:0:
352,96,181393,1,8,0:0:0:0:
352,96,181564,1,8,0:0:0:0:
352,96,181650,1,8,0:0:0:0:
160,96,181736,1,0,0:0:0:0:
160,96,181907,1,0,0:0:0:0:
352,96,181993,1,8,0:0:0:0:
352,96,182079,1,8,0:0:0:0:
160,96,182422,1,0,0:0:0:0:
160,96,182593,1,0,0:0:0:0:
160,96,182679,1,8,0:0:0:0:
352,96,182764,1,8,0:0:0:0:
160,96,183107,1,0,0:0:0:0:
160,96,183279,1,0,0:0:0:0:
352,96,183364,1,8,0:0:0:0:
352,96,183450,1,8,0:0:0:0:
160,96,183793,1,0,0:0:0:0:
160,96,183964,1,0,0:0:0:0:
352,96,184307,1,8,0:0:0:0:
160,96,184479,1,0,0:0:0:0:
160,96,184650,1,0,0:0:0:0:
352,96,184736,1,8,0:0:0:0:
352,96,184822,1,8,0:0:0:0:
160,96,185164,1,0,0:0:0:0:
160,96,185336,1,0,0:0:0:0:
352,96,185679,1,8,0:0:0:0:
160,96,185764,1,8,0:0:0:0:
160,96,185850,1,0,0:0:0:0:
160,96,186022,1,0,0:0:0:0:
352,96,186364,1,8,0:0:0:0:
352,96,186450,1,8,0:0:0:0:
160,96,186536,1,0,0:0:0:0:
160,96,186707,1,0,0:0:0:0:
160,96,186879,1,0,0:0:0:0:
352,96,187050,1,8,0:0:0:0:
352,96,187136,1,8,0:0:0:0:
160,96,187222,1,0,0:0:0:0:
160,96,187393,1,0,0:0:0:0:
160,96,187564,1,0,0:0:0:0:
160,96,187736,1,0,0:0:0:0:
160,96,187907,1,0,0:0:0:0:
160,96,188079,1,0,0:0:0:0:
160,96,188250,1,0,0:0:0:0:
352,96,188422,1,8,0:0:0:0:
352,96,188507,1,8,0:0:0:0:
160,96,188593,1,0,0:0:0:0:
160,96,188764,1,0,0:0:0:0:
160,96,188936,1,0,0:0:0:0:
352,96,189107,1,8,0:0:0:0:
352,96,189193,1,8,0:0:0:0:
160,96,189279,1,0,0:0:0:0:
160,288,192022,1,4,0:0:0:0:
352,96,192279,1,8,0:0:0:0:
160,96,192364,1,0,0:0:0:0:
352,96,192622,1,8,0:0:0:0:
160,96,192707,1,0,0:0:0:0:
352,96,192964,1,8,0:0:0:0:
160,96,193050,1,0,0:0:0:0:
160,96,193307,1,0,0:0:0:0:
352,96,193393,1,8,0:0:0:0:
352,96,193564,1,8,0:0:0:0:
352,96,193736,1,8,0:0:0:0:
352,96,193907,1,8,0:0:0:0:
160,96,194079,1,0,0:0:0:0:
160,96,194193,1,0,0:0:0:0:
160,96,194307,1,0,0:0:0:0:
352,96,194422,1,8,0:0:0:0:
352,96,194536,1,8,0:0:0:0:
160,96,194650,1,0,0:0:0:0:
160,96,194707,1,0,0:0:0:0:
352,96,194764,1,8,0:0:0:0:
352,96,194850,1,8,0:0:0:0:
352,96,194936,1,8,0:0:0:0:
352,96,195107,1,8,0:0:0:0:
352,96,195279,1,8,0:0:0:0:
160,96,195364,1,0,0:0:0:0:
352,96,195450,1,8,0:0:0:0:
160,96,195622,1,8,0:0:0:0:
160,96,195707,1,0,0:0:0:0:
352,96,195793,1,8,0:0:0:0:
352,96,195964,1,8,0:0:0:0:
160,96,196050,1,0,0:0:0:0:
352,96,196136,1,8,0:0:0:0:
352,96,196222,1,8,0:0:0:0:
352,96,196307,1,8,0:0:0:0:
352,96,196479,1,8,0:0:0:0:
352,96,196650,1,8,0:0:0:0:
160,96,196736,1,0,0:0:0:0:
352,96,196822,1,8,0:0:0:0:
160,96,196993,1,8,0:0:0:0:
160,96,197079,1,0,0:0:0:0:
352,96,197164,1,8,0:0:0:0:
352,96,197222,1,8,0:0:0:0:
160,96,197279,1,8,0:0:0:0:
160,96,197336,1,0,0:0:0:0:
160,96,197507,1,0,0:0:0:0:
352,96,197764,1,8,0:0:0:0:
160,96,197850,1,0,0:0:0:0:
352,96,198022,1,8,0:0:0:0:
352,96,198107,1,8,0:0:0:0:
160,96,198193,1,0,0:0:0:0:
352,96,198450,1,8,0:0:0:0:
160,96,198536,1,0,0:0:0:0:
160,96,198793,1,0,0:0:0:0:
352,96,198879,1,8,0:0:0:0:
352,96,199050,1,8,0:0:0:0:
367,149,199107,1,0,0:0:0:0:
367,149,199164,1,0,0:0:0:0:
352,96,199222,1,8,0:0:0:0:
352,96,199393,1,8,0:0:0:0:
160,96,199564,1,0,0:0:0:0:
160,96,199679,1,0,0:0:0:0:
160,96,199793,1,0,0:0:0:0:
352,96,199907,1,8,0:0:0:0:
352,96,200022,1,8,0:0:0:0:
352,96,200136,1,8,0:0:0:0:
213,192,200250,1,0,0:0:0:0:
213,192,200293,1,0,0:0:0:0:
243,177,200336,1,0,0:0:0:0:
352,96,200422,1,8,0:0:0:0:
352,96,200507,1,8,0:0:0:0:
160,96,200593,1,0,0:0:0:0:
352,96,200764,1,8,0:0:0:0:
352,96,200936,1,8,0:0:0:0:
352,96,201107,1,8,0:0:0:0:
352,96,201193,1,8,0:0:0:0:
256,195,201279,1,0,0:0:0:0:
256,195,201322,1,0,0:0:0:0:
256,195,201364,1,0,0:0:0:0:
352,96,201450,1,8,0:0:0:0:
352,96,201536,1,8,0:0:0:0:
160,96,201622,1,0,0:0:0:0:
160,96,201664,1,0,0:0:0:0:
160,96,201793,1,0,0:0:0:0:
160,96,201836,1,0,0:0:0:0:
352,96,201964,1,8,0:0:0:0:
352,96,202007,1,8,0:0:0:0:
352,96,202136,1,8,0:0:0:0:
352,96,202179,1,8,0:0:0:0:
160,96,202993,1,0,0:0:0:0:
160,96,203164,1,0,0:0:0:0:
160,96,203250,1,0,0:0:0:0:
160,96,203336,1,0,0:0:0:0:
160,96,203507,1,0,0:0:0:0:
160,96,203679,1,0,0:0:0:0:
160,96,203850,1,0,0:0:0:0:
160,96,203936,1,0,0:0:0:0:
160,96,204022,1,0,0:0:0:0:
352,96,204364,1,8,0:0:0:0:
352,96,204536,1,8,0:0:0:0:
160,96,204707,1,0,0:0:0:0:
160,96,204879,1,0,0:0:0:0:
352,96,205050,1,8,0:0:0:0:
352,96,205164,1,8,0:0:0:0:
352,96,205279,1,8,0:0:0:0:
160,96,205393,1,0,0:0:0:0:
352,96,205507,1,8,0:0:0:0:
160,96,205622,1,0,0:0:0:0:
160,96,205736,1,0,0:0:0:0:
160,96,205993,1,0,0:0:0:0:
352,96,206079,1,8,0:0:0:0:
160,96,206250,1,0,0:0:0:0:
352,96,206422,1,8,0:0:0:0:
352,96,206507,1,8,0:0:0:0:
352,96,206593,1,8,0:0:0:0:
160,96,206764,1,0,0:0:0:0:
160,96,206850,1,0,0:0:0:0:
160,96,206936,1,0,0:0:0:0:
352,96,207107,1,8,0:0:0:0:
352,96,207193,1,8,0:0:0:0:
352,96,207279,1,8,0:0:0:0:
160,96,207450,1,0,0:0:0:0:
352,96,207622,1,8,0:0:0:0:
160,96,207793,1,0,0:0:0:0:
160,96,207850,1,0,0:0:0:0:
160,96,207907,1,0,0:0:0:0:
160,96,207964,1,0,0:0:0:0:
160,96,208022,1,0,0:0:0:0:
160,96,208079,1,0,0:0:0:0:
352,96,208136,1,8,0:0:0:0:
352,96,208193,1,8,0:0:0:0:
352,96,208250,1,8,0:0:0:0:
352,96,208307,1,8,0:0:0:0:
352,96,208364,1,8,0:0:0:0:
352,96,208422,1,8,0:0:0:0:
160,96,208479,1,0,0:0:0:0:
160,96,208650,1,0,0:0:0:0:
352,96,208822,1,8,0:0:0:0:
160,96,208993,1,0,0:0:0:0:
160,96,209079,1,0,0:0:0:0:
352,96,209164,1,8,0:0:0:0:
288,295,209336,1,8,0:0:0:0:
288,295,209422,1,0,0:0:0:0:
352,96,209507,1,8,0:0:0:0:
160,96,209850,1,0,0:0:0:0:
160,96,210022,1,0,0:0:0:0:
160,96,210107,1,0,0:0:0:0:
352,96,210193,1,8,0:0:0:0:
160,96,210364,1,0,0:0:0:0:
352,96,210536,1,8,0:0:0:0:
160,96,210650,1,0,0:0:0:0:
160,96,210764,1,0,0:0:0:0:
352,96,210879,1,8,0:0:0:0:
352,96,210993,1,8,0:0:0:0:
352,96,211107,1,8,0:0:0:0:
345,229,211222,1,0,0:0:0:0:
160,96,211479,1,0,0:0:0:0:
352,96,211564,1,8,0:0:0:0:
352,96,211650,1,8,0:0:0:0:
160,96,211736,1,0,0:0:0:0:
352,96,211907,1,8,0:0:0:0:
160,96,211993,1,0,0:0:0:0:
352,96,212079,1,8,0:0:0:0:
352,96,212164,1,8,0:0:0:0:
160,96,212250,1,0,0:0:0:0:
316,149,212422,1,0,0:0:0:0:
316,149,212507,1,0,0:0:0:0:
316,149,212593,1,8,0:0:0:0:
352,96,212764,1,8,0:0:0:0:
352,96,212850,1,8,0:0:0:0:
352,96,212936,1,8,0:0:0:0:
160,96,213022,1,0,0:0:0:0:
352,96,213107,1,8,0:0:0:0:
160,96,213193,1,0,0:0:0:0:
352,96,213279,1,8,0:0:0:0:
352,96,213322,1,8,0:0:0:0:
160,96,213450,1,0,0:0:0:0:
160,96,213493,1,0,0:0:0:0:
352,96,213622,1,8,0:0:0:0:
352,96,213664,1,8,0:0:0:0:
352,96,213793,1,8,0:0:0:0:
352,96,213836,1,8,0:0:0:0:
160,288,213964,1,4,0:0:0:0:
160,96,214307,1,0,0:0:0:0:
160,96,214564,1,0,0:0:0:0:
160,96,214822,1,0,0:0:0:0:
160,96,214993,1,0,0:0:0:0:
352,96,215336,1,8,0:0:0:0:
160,96,215679,1,0,0:0:0:0:
160,96,215936,1,0,0:0:0:0:
160,96,216193,1,0,0:0:0:0:
160,96,216364,1,0,0:0:0:0:
352,96,216707,1,8,0:0:0:0:
160,96,217050,1,0,0:0:0:0:
160,96,217307,1,0,0:0:0:0:
160,96,217564,1,0,0:0:0:0:
160,96,217736,1,0,0:0:0:0:
160,96,218422,1,0,0:0:0:0:
160,96,218679,1,0,0:0:0:0:
160,96,218936,1,0,0:0:0:0:
160,96,219107,1,0,0:0:0:0:
160,96,219793,1,0,0:0:0:0:
160,96,220050,1,0,0:0:0:0:
160,96,220307,1,0,0:0:0:0:
352,96,220479,1,8,0:0:0:0:
160,96,221164,1,0,0:0:0:0:
160,96,221422,1,0,0:0:0:0:
352,96,221679,1,8,0:0:0:0:
352,96,221850,1,8,0:0:0:0:
160,96,222536,1,0,0:0:0:0:
352,96,222793,1,8,0:0:0:0:
160,96,223050,1,0,0:0:0:0:
352,96,223222,1,8,0:0:0:0:
160,96,223907,1,0,0:0:0:0:
352,96,224164,1,8,0:0:0:0:
352,96,224422,1,8,0:0:0:0:
352,96,224593,1,8,0:0:0:0:
352,96,224936,1,8,0:0:0:0:
160,96,225279,1,0,0:0:0:0:
160,96,225536,1,0,0:0:0:0:
352,96,225622,1,8,0:0:0:0:
160,96,225793,1,0,0:0:0:0:
160,96,225964,1,0,0:0:0:0:
352,96,226307,1,8,0:0:0:0:
160,96,226650,1,0,0:0:0:0:
160,96,226907,1,0,0:0:0:0:
352,96,226993,1,8,0:0:0:0:
352,96,227164,1,8,0:0:0:0:
160,96,227336,1,0,0:0:0:0:
352,96,227679,1,8,0:0:0:0:
160,96,228022,1,0,0:0:0:0:
160,96,228279,1,0,0:0:0:0:
352,96,228364,1,8,0:0:0:0:
160,96,228536,1,0,0:0:0:0:
160,96,228707,1,0,0:0:0:0:
352,96,229050,1,8,0:0:0:0:
160,96,229393,1,0,0:0:0:0:
160,96,229650,1,0,0:0:0:0:
352,96,229736,1,8,0:0:0:0:
160,96,229907,1,8,0:0:0:0:
160,96,230079,1,0,0:0:0:0:
352,96,230422,1,8,0:0:0:0:
256,192,230764,12,0,235736,0:0:0:0:
352,96,235907,5,8,0:0:0:0:
352,96,236250,1,8,0:0:0:0:
352,96,236936,1,8,0:0:0:0:
160,96,237279,1,0,0:0:0:0:
352,96,237964,1,8,0:0:0:0:
160,96,238307,1,0,0:0:0:0:
352,96,238650,1,8,0:0:0:0:
160,96,238993,1,0,0:0:0:0:
160,96,239336,1,0,0:0:0:0:
352,96,239679,1,8,0:0:0:0:
352,96,240364,1,8,0:0:0:0:
352,96,240707,1,8,0:0:0:0:
160,96,241050,1,0,0:0:0:0:
352,96,241393,1,8,0:0:0:0:
352,96,241736,1,8,0:0:0:0:
352,96,242764,1,8,0:0:0:0:
160,96,243107,1,0,0:0:0:0:
352,96,243793,1,8,0:0:0:0:
160,96,244136,1,0,0:0:0:0:
160,96,244479,1,0,0:0:0:0:
352,96,244822,1,8,0:0:0:0:
352,96,245164,1,8,0:0:0:0:
352,96,245850,1,8,0:0:0:0:
160,96,246193,1,0,0:0:0:0:
352,96,246536,1,8,0:0:0:0:
160,96,246879,1,0,0:0:0:0:
160,96,247222,1,0,0:0:0:0:
352,96,247393,1,8,0:0:0:0:
352,96,247479,1,8,0:0:0:0:
160,96,247564,1,0,0:0:0:0:
160,96,247650,1,0,0:0:0:0:
352,96,247736,1,8,0:0:0:0:
160,96,248079,1,0,0:0:0:0:
160,96,248164,1,0,0:0:0:0:
160,96,248250,1,0,0:0:0:0:
352,96,248422,1,8,0:0:0:0:
352,96,248507,1,8,0:0:0:0:
160,96,248593,1,0,0:0:0:0:
352,96,248764,1,8,0:0:0:0:
352,96,248850,1,8,0:0:0:0:
160,96,248936,1,0,0:0:0:0:
160,96,249107,1,0,0:0:0:0:
352,96,249193,1,8,0:0:0:0:
352,96,249364,1,8,0:0:0:0:
352,96,249450,1,8,0:0:0:0:
352,96,249536,1,8,0:0:0:0:
160,96,249964,1,0,0:0:0:0:
160,96,250050,1,0,0:0:0:0:
352,96,250136,1,8,0:0:0:0:
352,96,250222,1,8,0:0:0:0:
160,96,250307,1,0,0:0:0:0:
160,96,250393,1,0,0:0:0:0:
352,96,250479,1,8,0:0:0:0:
160,96,250822,1,0,0:0:0:0:
352,96,250993,1,8,0:0:0:0:
160,96,251078,1,0,0:0:0:0:
160,96,251164,1,0,0:0:0:0:
352,96,251336,1,8,0:0:0:0:
352,96,251507,1,8,0:0:0:0:
352,96,251593,1,8,0:0:0:0:
160,96,251679,1,0,0:0:0:0:
160,96,251764,1,0,0:0:0:0:
352,96,251936,1,8,0:0:0:0:
160,96,252022,1,0,0:0:0:0:
352,96,252107,1,8,0:0:0:0:
352,96,252193,1,8,0:0:0:0:
352,96,252279,1,8,0:0:0:0:
160,96,252364,1,0,0:0:0:0:
160,96,252536,1,0,0:0:0:0:
160,96,252707,1,0,0:0:0:0:
352,96,252879,1,8,0:0:0:0:
352,96,252964,1,8,0:0:0:0:
160,96,253050,1,0,0:0:0:0:
160,96,253136,1,0,0:0:0:0:
352,96,253222,1,8,0:0:0:0:
160,96,253564,1,0,0:0:0:0:
160,96,253650,1,0,0:0:0:0:
160,96,253736,1,0,0:0:0:0:
352,96,253907,1,8,0:0:0:0:
160,96,253993,1,0,0:0:0:0:
160,96,254079,1,0,0:0:0:0:
352,96,254250,1,8,0:0:0:0:
160,96,254336,1,0,0:0:0:0:
160,96,254593,1,0,0:0:0:0:
352,96,254679,1,8,0:0:0:0:
352,96,254764,1,8,0:0:0:0:
352,96,254936,1,8,0:0:0:0:
352,96,255022,1,8,0:0:0:0:
160,96,255107,1,0,0:0:0:0:
160,96,255279,1,0,0:0:0:0:
352,96,255450,1,8,0:0:0:0:
352,96,255622,1,8,0:0:0:0:
160,96,255707,1,0,0:0:0:0:
160,96,255879,1,0,0:0:0:0:
160,96,255964,1,0,0:0:0:0:
253,217,256050,1,0,0:0:0:0:
352,96,256136,1,8,0:0:0:0:
352,96,256307,1,8,0:0:0:0:
352,96,256393,1,8,0:0:0:0:
160,96,256479,1,0,0:0:0:0:
265,233,256564,1,8,0:0:0:0:
160,96,256650,1,0,0:0:0:0:
352,96,256822,1,8,0:0:0:0:
160,96,256993,1,0,0:0:0:0:
352,96,257079,1,8,0:0:0:0:
160,96,257164,1,0,0:0:0:0:
160,96,257336,1,0,0:0:0:0:
352,96,257507,1,8,0:0:0:0:
352,96,257679,1,8,0:0:0:0:
352,96,257764,1,8,0:0:0:0:
256,192,257850,12,0,263336,0:0:0:0:
160,96,263679,5,0,0:0:0:0:
160,96,263764,1,0,0:0:0:0:
352,96,263850,1,8,0:0:0:0:
352,96,264022,1,8,0:0:0:0:
160,96,264193,1,0,0:0:0:0:
160,96,264364,1,0,0:0:0:0:
352,96,264536,1,8,0:0:0:0:
160,96,264707,1,0,0:0:0:0:
160,96,264879,1,0,0:0:0:0:
352,96,265050,1,8,0:0:0:0:
352,96,265222,1,8,0:0:0:0:
352,96,265393,1,8,0:0:0:0:
160,96,265564,1,0,0:0:0:0:
160,96,265736,1,0,0:0:0:0:
352,96,265907,1,8,0:0:0:0:
160,96,266079,1,0,0:0:0:0:
160,96,266250,1,0,0:0:0:0:
352,96,266422,1,8,0:0:0:0:
352,96,266593,1,8,0:0:0:0:
160,96,266764,1,0,0:0:0:0:
352,96,266936,1,8,0:0:0:0:
352,96,267107,1,8,0:0:0:0:
352,96,267279,1,8,0:0:0:0:
160,96,267450,1,0,0:0:0:0:
160,96,267622,1,0,0:0:0:0:
352,96,267793,1,8,0:0:0:0:
160,96,267964,1,0,0:0:0:0:
352,96,268136,1,8,0:0:0:0:
352,96,268307,1,8,0:0:0:0:
160,96,268479,1,0,0:0:0:0:
352,96,268650,1,8,0:0:0:0:
160,96,268822,1,0,0:0:0:0:
352,96,268993,1,8,0:0:0:0:
160,96,269164,1,0,0:0:0:0:
352,96,269250,1,8,0:0:0:0:
352,96,269336,1,8,0:0:0:0:
352,96,269507,1,8,0:0:0:0:
160,96,269679,1,0,0:0:0:0:
160,96,269850,1,0,0:0:0:0:
352,96,270022,1,8,0:0:0:0:
160,96,270193,1,0,0:0:0:0:
160,96,270364,1,0,0:0:0:0:
352,96,270536,1,8,0:0:0:0:
352,96,270707,1,8,0:0:0:0:
160,96,270879,1,0,0:0:0:0:
352,96,271050,1,8,0:0:0:0:
352,96,271222,1,8,0:0:0:0:
352,96,271393,1,8,0:0:0:0:
160,96,271564,1,0,0:0:0:0:
352,96,271736,1,8,0:0:0:0:
352,96,271907,1,8,0:0:0:0:
160,96,272079,1,0,0:0:0:0:
160,96,272250,1,0,0:0:0:0:
352,96,272422,1,8,0:0:0:0:
352,96,272593,1,8,0:0:0:0:
352,96,272764,1,8,0:0:0:0:
160,96,272936,1,0,0:0:0:0:
160,96,273107,1,0,0:0:0:0:
352,96,273279,1,8,0:0:0:0:
160,96,273450,1,0,0:0:0:0:
352,96,273622,1,8,0:0:0:0:
160,96,273793,1,0,0:0:0:0:
352,96,273964,1,8,0:0:0:0:
352,96,274136,1,8,0:0:0:0:
160,96,274307,1,0,0:0:0:0:
352,96,274479,1,8,0:0:0:0:
160,96,274650,1,0,0:0:0:0:
352,96,274736,1,8,0:0:0:0:
352,96,274822,1,8,0:0:0:0:
256,192,274993,12,0,279622,0:0:0:0:
160,96,279793,5,0,0:0:0:0:
160,96,279964,1,0,0:0:0:0:
352,96,280136,1,8,0:0:0:0:
160,96,280222,1,0,0:0:0:0:
352,96,280307,1,8,0:0:0:0:
352,96,280393,1,8,0:0:0:0:
160,96,280479,1,0,0:0:0:0:
160,96,280564,1,0,0:0:0:0:
352,96,280650,1,8,0:0:0:0:
160,96,280822,1,0,0:0:0:0:
352,96,280993,1,8,0:0:0:0:
352,96,281079,1,8,0:0:0:0:
160,96,281164,1,0,0:0:0:0:
160,96,281250,1,0,0:0:0:0:
352,96,281336,1,8,0:0:0:0:
160,96,281422,1,0,0:0:0:0:
160,96,281507,1,0,0:0:0:0:
352,96,281679,1,8,0:0:0:0:
352,96,281764,1,8,0:0:0:0:
160,96,281850,1,0,0:0:0:0:
160,96,281936,1,0,0:0:0:0:
352,96,282022,1,8,0:0:0:0:
160,96,282193,1,0,0:0:0:0:
352,96,282364,1,8,0:0:0:0:
352,96,282450,1,8,0:0:0:0:
160,96,282536,1,0,0:0:0:0:
160,96,282707,1,0,0:0:0:0:
352,96,282879,1,8,0:0:0:0:
160,96,282964,1,0,0:0:0:0:
352,96,283050,1,8,0:0:0:0:
352,96,283136,1,8,0:0:0:0:
160,96,283222,1,0,0:0:0:0:
352,96,283307,1,8,0:0:0:0:
160,96,283393,1,0,0:0:0:0:
160,96,283564,1,0,0:0:0:0:
352,96,283736,1,8,0:0:0:0:
281,194,283822,1,8,0:0:0:0:
160,96,283907,1,0,0:0:0:0:
352,96,284079,1,0,0:0:0:0:
160,96,284164,1,0,0:0:0:0:
352,96,284250,1,8,0:0:0:0:
352,96,284336,1,8,0:0:0:0:
352,96,284422,1,8,0:0:0:0:
352,96,284507,1,8,0:0:0:0:
160,96,284593,1,0,0:0:0:0:
160,96,284679,1,0,0:0:0:0:
352,96,284764,1,8,0:0:0:0:
160,96,284850,1,0,0:0:0:0:
352,96,284936,1,8,0:0:0:0:
352,96,285107,1,8,0:0:0:0:
352,96,285193,1,8,0:0:0:0:
160,96,285279,1,0,0:0:0:0:
352,96,285450,1,8,0:0:0:0:
352,96,285622,1,8,0:0:0:0:
352,96,285793,1,8,0:0:0:0:
352,96,285879,1,8,0:0:0:0:
160,96,285964,1,0,0:0:0:0:
160,96,286050,1,0,0:0:0:0:
160,96,286136,1,0,0:0:0:0:
352,96,286307,1,8,0:0:0:0:
352,96,286479,1,8,0:0:0:0:
352,96,286564,1,8,0:0:0:0:
160,96,286650,1,0,0:0:0:0:
160,96,286822,1,0,0:0:0:0:
160,96,286907,1,0,0:0:0:0:
352,96,286993,1,8,0:0:0:0:
352,96,287164,1,8,0:0:0:0:
160,96,287250,1,0,0:0:0:0:
352,96,287336,1,8,0:0:0:0:
352,96,287422,1,8,0:0:0:0:
160,96,287507,1,0,0:0:0:0:
160,96,287593,1,0,0:0:0:0:
352,96,287679,1,8,0:0:0:0:
352,96,287850,1,8,0:0:0:0:
352,96,287936,1,8,0:0:0:0:
160,96,288022,1,0,0:0:0:0:
160,96,288193,1,0,0:0:0:0:
352,96,288364,1,8,0:0:0:0:
160,96,288536,1,0,0:0:0:0:
160,96,288622,1,0,0:0:0:0:
352,96,288707,1,8,0:0:0:0:
160,96,288793,1,0,0:0:0:0:
352,96,288879,1,8,0:0:0:0:
352,96,288964,1,8,0:0:0:0:
352,96,289050,1,8,0:0:0:0:
160,96,289136,1,0,0:0:0:0:
352,96,289222,1,8,0:0:0:0:
352,96,289307,1,8,0:0:0:0:
160,96,289393,1,0,0:0:0:0:
160,96,289564,1,0,0:0:0:0:
160,96,289650,1,0,0:0:0:0:
352,96,289736,1,8,0:0:0:0:
352,96,289822,1,8,0:0:0:0:
160,96,289907,1,0,0:0:0:0:
160,96,289993,1,0,0:0:0:0:
352,96,290079,1,8,0:0:0:0:
352,96,290136,1,8,0:0:0:0:
352,96,290193,1,8,0:0:0:0:
160,96,290250,1,0,0:0:0:0:
160,96,290336,1,0,0:0:0:0:
352,96,290422,1,8,0:0:0:0:
352,96,290479,1,8,0:0:0:0:
352,96,290536,1,8,0:0:0:0:
160,96,290593,1,0,0:0:0:0:
352,96,290679,1,8,0:0:0:0:
160,96,290764,1,0,0:0:0:0:
352,96,291107,1,8,0:0:0:0:
352,96,291279,1,8,0:0:0:0:
160,96,291364,1,0,0:0:0:0:
352,96,291450,1,8,0:0:0:0:
352,96,291536,1,8,0:0:0:0:
160,96,291622,1,0,0:0:0:0:
160,96,291793,1,0,0:0:0:0:
160,96,291879,1,0,0:0:0:0:
352,96,291964,1,8,0:0:0:0:
352,96,292050,1,8,0:0:0:0:
160,96,292136,1,0,0:0:0:0:
352,96,292307,1,8,0:0:0:0:
352,96,292393,1,8,0:0:0:0:
160,96,292479,1,0,0:0:0:0:
352,96,292650,1,8,0:0:0:0:
160,96,292736,1,0,0:0:0:0:
160,96,292822,1,0,0:0:0:0:
160,96,292907,1,0,0:0:0:0:
352,96,292993,1,8,0:0:0:0:
160,96,293164,1,0,0:0:0:0:
352,96,293336,1,8,0:0:0:0:
360,186,293422,1,8,0:0:0:0:
160,96,293507,1,0,0:0:0:0:
160,96,293679,1,0,0:0:0:0:
160,96,293764,1,0,0:0:0:0:
352,96,293850,1,8,0:0:0:0:
352,96,294022,1,8,0:0:0:0:
352,96,294107,1,8,0:0:0:0:
160,96,294193,1,0,0:0:0:0:
160,96,294279,1,0,0:0:0:0:
352,96,294364,1,8,0:0:0:0:
160,96,294422,1,0,0:0:0:0:
160,96,294479,1,0,0:0:0:0:
352,96,294536,1,8,0:0:0:0:
352,96,294707,1,8,0:0:0:0:
160,96,294793,1,8,0:0:0:0:
352,96,294879,1,0,0:0:0:0:
160,96,295050,1,8,0:0:0:0:
160,96,295136,1,0,0:0:0:0:
352,96,295222,1,8,0:0:0:0:
352,96,295393,1,8,0:0:0:0:
352,96,295479,1,8,0:0:0:0:
160,96,295564,1,0,0:0:0:0:
160,96,295650,1,0,0:0:0:0:
352,96,295736,1,8,0:0:0:0:
160,96,295907,1,0,0:0:0:0:
160,96,295993,1,0,0:0:0:0:
352,96,296079,1,8,0:0:0:0:
352,96,296136,1,8,0:0:0:0:
352,96,296193,1,8,0:0:0:0:
160,96,296250,1,0,0:0:0:0:
160,96,296336,1,0,0:0:0:0:
160,96,296422,1,0,0:0:0:0:
160,96,296593,1,0,0:0:0:0:
352,96,296679,1,8,0:0:0:0:
352,96,296764,1,8,0:0:0:0:
352,96,296850,1,8,0:0:0:0:
160,96,296936,1,0,0:0:0:0:
160,96,297022,1,0,0:0:0:0:
352,96,297107,1,8,0:0:0:0:
160,96,297193,1,0,0:0:0:0:
352,96,297279,1,8,0:0:0:0:
352,96,297364,1,8,0:0:0:0:
352,96,297450,1,8,0:0:0:0:
160,96,297536,1,0,0:0:0:0:
160,96,297622,1,0,0:0:0:0:
160,96,297707,1,0,0:0:0:0:
352,96,297793,1,8,0:0:0:0:
352,96,297964,1,8,0:0:0:0:
352,96,298050,1,8,0:0:0:0:
160,96,298136,1,0,0:0:0:0:
160,96,298222,1,0,0:0:0:0:
352,96,298307,1,8,0:0:0:0:
160,96,298393,1,0,0:0:0:0:
352,96,298479,1,8,0:0:0:0:
352,96,298564,1,8,0:0:0:0:
160,96,298650,1,0,0:0:0:0:
160,96,298736,1,0,0:0:0:0:
352,96,298822,1,8,0:0:0:0:
160,96,298907,1,0,0:0:0:0:
160,96,298993,1,0,0:0:0:0:
352,96,299164,1,8,0:0:0:0:
352,96,299336,1,8,0:0:0:0:
160,96,299422,1,0,0:0:0:0:
352,96,299507,1,8,0:0:0:0:
352,96,299593,1,8,0:0:0:0:
160,96,299679,1,0,0:0:0:0:
352,96,299850,1,8,0:0:0:0:
160,96,299936,1,0,0:0:0:0:
160,96,300022,1,0,0:0:0:0:
160,96,300107,1,0,0:0:0:0:
352,96,300193,1,8,0:0:0:0:
352,96,300279,1,8,0:0:0:0:
160,96,300364,1,0,0:0:0:0:
352,96,300450,1,8,0:0:0:0:
160,96,300536,1,0,0:0:0:0:
160,96,300622,1,0,0:0:0:0:
352,96,300707,1,8,0:0:0:0:
352,96,300793,1,8,0:0:0:0:
160,96,300879,1,0,0:0:0:0:
352,96,300964,1,8,0:0:0:0:
352,96,301050,1,8,0:0:0:0:
160,96,301136,1,0,0:0:0:0:
352,96,301222,1,8,0:0:0:0:
160,96,301307,1,0,0:0:0:0:
160,96,301393,1,8,0:0:0:0:
352,96,301479,1,8,0:0:0:0:
352,96,301564,1,8,0:0:0:0:
352,96,301650,1,8,0:0:0:0:
256,192,301736,12,0,305850,0:0:0:0:
