osu file format v14

[General]
AudioFilename: audio.mp3
AudioLeadIn: 0
PreviewTime: 86898
Countdown: 0
SampleSet: Soft
StackLeniency: 0.3
Mode: 0
LetterboxInBreaks: 0
WidescreenStoryboard: 0

[Editor]
DistanceSpacing: 0.1
BeatDivisor: 4
GridSize: 4
TimelineZoom: 1.4

[Metadata]
Title:Noisy Minority
TitleUnicode:Noisy Minority
Artist:DJ Grimoire
ArtistUnicode:DJ Grimoire
Creator:BarkingMadDog
Version:NOISY MINORITY
Source:SOUND VOLTEX IV HEAVENLY HAVEN
Tags:SDVX 4 BEMANI Team Grimoire Gabber Hardstyle Konami C18H27NO3
BeatmapID:1269225
BeatmapSetID:600673

[Difficulty]
HPDrainRate:6.2
CircleSize:4.2
OverallDifficulty:9.6
ApproachRate:9.8
SliderMultiplier:1.8
SliderTickRate:1

[Events]
//Background and Video events
0,0,"Konachan.com - 199632 sample.jpg",0,0
//Break Periods
//Storyboard Layer 0 (Background)
//Storyboard Layer 1 (Fail)
//Storyboard Layer 2 (Pass)
//Storyboard Layer 3 (Foreground)
//Storyboard Sound Samples

[TimingPoints]
589,333.333333333333,4,2,1,50,1,0
589,-200,4,2,99,50,0,0
672,-200,4,2,99,25,0,0
11255,-166.666666666667,4,2,1,30,0,0
16588,-142.857142857143,4,2,1,40,0,0
17255,-125,4,2,1,40,0,0
17588,-142.857142857143,4,2,1,40,0,0
17922,-125,4,2,1,40,0,0
18588,-111.111111111111,4,2,1,40,0,0
21255,-111.111111111111,4,2,1,23,0,0
21922,-100,4,2,1,11,0,0
22899,333.333333333333,4,2,1,50,1,0
23232,333.333333333333,4,2,1,50,1,0
23232,-66.6666666666667,4,2,1,56,0,0
23482,-66.6666666666667,4,2,1,5,0,0
23565,-66.6666666666667,4,2,1,56,0,0
23815,-66.6666666666667,4,2,1,5,0,0
23899,-66.6666666666667,4,2,1,56,0,0
24149,-66.6666666666667,4,2,1,5,0,0
24232,-66.6666666666667,4,2,1,56,0,0
24482,-66.6666666666667,4,2,1,5,0,0
24565,-66.6666666666667,4,2,1,56,0,0
24732,-66.6666666666667,4,2,1,5,0,0
24899,-66.6666666666667,4,2,1,56,0,0
25149,-66.6666666666667,4,2,1,5,0,0
25232,-66.6666666666667,4,2,1,56,0,0
25482,-66.6666666666667,4,2,1,5,0,0
25565,-66.6666666666667,4,2,1,56,0,0
25815,-66.6666666666667,4,2,1,5,0,0
25899,-66.6666666666667,4,2,1,56,0,0
26149,-66.6666666666667,4,2,1,5,0,0
26232,-66.6666666666667,4,2,1,56,0,0
26482,-66.6666666666667,4,2,1,5,0,0
26565,-66.6666666666667,4,2,1,56,0,0
26815,-66.6666666666667,4,2,1,5,0,0
26899,-66.6666666666667,4,2,1,56,0,0
27149,-66.6666666666667,4,2,1,5,0,0
27232,-66.6666666666667,4,2,1,56,0,0
27482,-66.6666666666667,4,2,1,5,0,0
27565,-66.6666666666667,4,2,1,56,0,0
27815,-66.6666666666667,4,2,1,5,0,0
27899,-66.6666666666667,4,2,1,56,0,0
28149,-66.6666666666667,4,2,1,5,0,0
28232,-66.6666666666667,4,2,1,56,0,0
28815,-66.6666666666667,4,2,1,5,0,0
28899,-66.6666666666667,4,2,1,56,0,0
29149,-66.6666666666667,4,2,1,5,0,0
29232,-66.6666666666667,4,2,1,56,0,0
29482,-66.6666666666667,4,2,1,5,0,0
29565,-66.6666666666667,4,2,1,56,0,0
29815,-66.6666666666667,4,2,1,5,0,0
29899,-66.6666666666667,4,2,1,56,0,0
30149,-66.6666666666667,4,2,1,5,0,0
30232,-66.6666666666667,4,2,1,56,0,0
30482,-66.6666666666667,4,2,1,5,0,0
30565,-66.6666666666667,4,2,1,56,0,0
30815,-66.6666666666667,4,2,1,5,0,0
30899,-66.6666666666667,4,2,1,56,0,0
31065,-66.6666666666667,4,2,1,5,0,0
31232,-66.6666666666667,4,2,1,56,0,0
31815,-66.6666666666667,4,2,1,5,0,0
31899,-66.6666666666667,4,2,1,56,0,0
32482,-66.6666666666667,4,2,1,5,0,0
32565,-66.6666666666667,4,2,1,56,0,0
33565,-50,4,2,1,56,0,0
33898,-66.6666666666667,4,2,1,71,0,1
38899,-133.333333333333,4,2,1,71,0,1
39232,-66.6666666666667,4,2,1,71,0,1
44231,-133.333333333333,4,2,1,71,0,0
44565,-80,4,2,1,53,0,0
54565,-200,4,2,1,53,0,0
55231,-66.6666666666667,4,2,1,63,0,1
59565,-57.1428571428571,4,2,1,63,0,1
59899,-50,4,2,1,63,0,1
60232,-66.6666666666667,4,2,1,63,0,1
63565,-57.1428571428571,4,2,1,63,0,1
63899,-50,4,2,1,63,0,1
64565,-50,4,2,1,11,0,0
65899,-200,4,2,1,41,0,0
71899,-100,4,2,1,49,0,0
72565,-66.6666666666667,4,2,1,55,0,0
73232,-50,4,2,1,64,0,0
73899,-100,4,2,1,32,0,0
74565,-100,4,2,1,42,0,0
75232,-100,4,2,1,51,0,0
75899,-100,4,2,1,64,0,0
76565,-57.1428571428571,4,2,1,74,0,1
86231,-100,4,2,1,74,0,1
86565,-57.1428571428571,4,2,1,74,0,1
86898,-200,4,2,1,33,0,0
87231,-66.6666666666667,4,2,1,81,0,1
97565,-133.333333333333,4,2,1,81,0,0
97898,-66.6666666666667,4,2,1,81,0,1
106231,-57.1428571428571,4,2,1,81,0,1
106565,-50,4,2,1,81,0,1
107231,-50,4,2,1,55,0,1
108565,-200,4,2,1,66,0,0
111231,337.078651685393,4,2,1,45,1,0
111231,-200,4,2,1,45,0,0
112579,352.941176470588,4,2,1,36,1,0
112579,-200,4,2,1,36,0,0
113990,368.098159509202,4,2,1,27,1,0
113990,-200,4,2,1,27,0,0
115094,422.535211267606,4,2,1,27,1,0
115516,-200,4,2,1,19,0,0
115938,434.782608695652,4,2,1,19,1,0
116372,480,4,2,1,19,1,0
116852,535.714285714286,4,2,1,11,1,0
116852,-200,4,2,1,11,0,0
117387,631.578947368421,4,2,1,11,1,0
118018,-200,4,2,1,5,0,0

[HitObjects]
188,180,589,6,0,L|280:172,1,90,4|0,0:0|0:0,0:0:0:0:
348,164,1088,1,0,0:0:0:0:
300,288,1255,2,0,L|292:244,1,45
348,164,1588,2,0,L|356:120,1,45
308,332,1922,6,0,L|300:288,1,45
356,120,2255,2,0,L|348:164,1,45
428,92,2588,2,0,L|470:76,1,45
368,48,2922,2,0,L|333:19,1,45
187,180,3255,6,0,L|98:188,1,90
28,196,3755,1,0,0:0:0:0:
56,84,3922,2,0,B|60:104|60:104|56:128,1,45
36,288,4255,2,0,B|47:271|47:271|67:256,1,45
152,328,4588,6,0,L|108:332,1,45
272,320,4922,2,0,L|221:324,1,45
348,316,5255,1,0,0:0:0:0:
352,320,5588,1,0,0:0:0:0:
356,324,5922,6,0,L|348:232,1,90
340,164,6422,1,0,0:0:0:0:
452,192,6588,2,0,P|428:196|408:192,1,45
380,84,6922,2,0,P|395:102|402:122,1,45
280,208,7255,6,0,L|229:212,1,45
424,276,7588,2,0,L|475:280,1,45
280,208,7922,1,0,0:0:0:0:
272,204,8255,1,0,0:0:0:0:
332,160,8422,1,0,0:0:0:0:
36,92,8588,6,0,P|58:87|80:91,1,45
180,44,8922,2,0,P|172:65|157:82,1,45
152,192,9255,2,0,P|137:174|129:153,1,45
179,0,9588,2,0,P|183:22|179:44,1,45
152,192,9922,5,0,0:0:0:0:
150,199,10255,2,0,P|145:221|149:243,1,45
264,316,10588,6,0,B|192:284|184:348|108:316,1,157.5
276,244,11255,6,0,P|297:250|324:276,1,53.9999983520508,6|0,0:0|0:0,0:0:0:0:
336,340,11588,1,0,0:0:0:0:
336,340,11755,1,0,0:0:0:0:
436,264,11922,2,0,P|420:279|384:289,1,53.9999983520508
448,192,12255,2,0,P|468:198|496:224,1,53.9999983520508
148,240,12588,6,0,L|94:245,1,53.9999983520508,6|0,0:0|0:0,0:0:0:0:
272,228,12922,2,0,L|218:233,1,53.9999983520508
56,160,13255,2,0,L|2:154,1,53.9999983520508
180,172,13589,2,0,L|126:166,1,53.9999983520508
384,0,13922,6,0,B|376:24|376:24|384:52,1,53.9999983520508,6|0,0:0|0:0,0:0:0:0:
404,120,14255,1,0,0:0:0:0:
404,120,14422,1,0,0:0:0:0:
500,92,14588,2,0,B|483:73|483:73|454:66,1,53.9999983520508
288,132,14922,2,0,B|312:126|312:126|333:105,1,53.9999983520508
24,20,15255,6,0,P|32:48|24:76,1,53.9999983520508,6|0,0:0|0:0,0:0:0:0:
100,107,15588,2,0,P|87:131|65:146,1,53.9999983520508
92,224,15922,1,0,0:0:0:0:
96,236,16255,1,0,0:0:0:0:
100,248,16588,6,0,L|36:244,1,62.9999980773926,6|0,0:0|0:0,0:0:0:0:
168,332,16922,1,0,0:0:0:0:
168,332,17088,1,0,0:0:0:0:
280,236,17255,6,0,L|208:232,1,72,6|0,0:0|0:0,0:0:0:0:
416,244,17588,6,0,L|352:240,1,62.9999980773926
324,108,17922,6,0,B|312:144|312:144|324:180,1,72,6|0,0:0|0:0,0:0:0:0:
385,384,18255,2,0,B|396:352|396:352|384:316,1,72
116,180,18588,6,0,P|77:169|37:175,1,80.9999975280763,6|0,0:0|0:0,0:0:0:0:
168,127,18922,2,0,P|196:98|211:60,1,80.9999975280763
188,200,19255,5,6,0:0:0:0:
188,200,19338,1,2,0:0:0:0:
188,200,19422,1,6,0:0:0:0:
100,104,19588,1,6,0:0:0:0:
136,252,19755,5,6,0:0:0:0:
136,252,19838,1,2,0:0:0:0:
136,252,19922,1,6,0:0:0:0:
244,148,20088,1,6,0:0:0:0:
472,348,20255,5,0,0:0:0:0:
468,336,20338,1,0,0:0:0:0:
464,324,20422,1,0,0:0:0:0:
460,312,20505,1,0,0:0:0:0:
472,292,20588,5,0,0:0:0:0:
468,280,20671,1,0,0:0:0:0:
464,268,20755,1,0,0:0:0:0:
460,256,20838,1,0,0:0:0:0:
476,236,20922,5,0,0:0:0:0:
472,224,21005,1,0,0:0:0:0:
468,212,21089,1,0,0:0:0:0:
464,200,21172,1,0,0:0:0:0:
460,188,21255,5,0,0:0:0:0:
460,188,21338,1,0,0:0:0:0:
460,188,21422,1,0,0:0:0:0:
460,188,21505,1,0,0:0:0:0:
460,188,21588,1,0,0:0:0:0:
460,188,21672,1,0,0:0:0:0:
460,188,21755,1,0,0:0:0:0:
460,188,21838,1,0,0:0:0:0:
432,112,21922,5,0,0:0:0:0:
79,59,22899,6,0,L|75:107,1,45
83,67,23065,2,0,L|79:115,1,45
28,176,23232,6,0,B|124:232|128:128|224:176,1,202.500007724762,6|0,0:0|0:0,0:0:0:0:
220,358,23565,2,0,B|180:298|180:298|220:170,1,202.500007724762,2|0,0:0|0:0,0:0:0:0:
480,256,23899,2,0,B|396:260|396:260|372:280|372:280|284:284,1,202.500007724762,2|0,0:0|0:0,0:0:0:0:
424,100,24232,2,0,B|468:48|468:48|476:184,1,202.500007724762,2|0,0:0|0:0,0:0:0:0:
484,332,24565,6,0,B|424:336|424:336|396:356|396:356|288:360,1,202.500007724762,2|0,0:0|0:0,0:0:0:0:
108,304,24899,2,0,B|164:248|256:284|256:284|228:292|212:324,1,202.500007724762,2|0,0:0|0:0,0:0:0:0:
44,380,25232,2,0,B|4:320|4:320|44:192,1,202.500007724762,2|0,0:0|0:0,0:0:0:0:
120,48,25565,2,0,P|36:52|84:120,1,202.500007724762,2|0,0:0|0:0,0:0:0:0:
296,92,25899,6,0,B|224:96|196:20|196:20|208:60|190:86,1,202.500007724762,2|0,0:0|0:0,0:0:0:0:
128,192,26232,2,0,B|224:136|228:240|319:194,1,202.500007724762,2|0,0:0|0:0,0:0:0:0:
480,45,26565,2,0,B|424:9|424:9|364:69|399:131,1,202.500007724762,2|0,0:0|0:0,0:0:0:0:
416,240,26899,2,0,B|472:276|472:276|532:216|496:153,1,202.500007724762,2|0,0:0|0:0,0:0:0:0:
319,194,27232,6,0,B|228:240|224:136|128:192,1,202.500007724762,2|0,0:0|0:0,0:0:0:0:
72,36,27565,2,0,B|116:-16|116:-16|123:118,1,202.500007724762,2|0,0:0|0:0,0:0:0:0:
4,272,27899,2,0,B|88:264|88:264|116:276|116:276|204:268,1,202.500007724762,2|0,0:0|0:0,0:0:0:0:
362,144,28232,2,0,P|336:165|319:193,1,67.5000025749208,2|0,0:0|0:0,0:0:0:0:
288,268,28399,2,0,P|284:301|292:334,1,67.5000025749208,2|0,0:0|0:0,0:0:0:0:
475,139,28565,6,0,B|419:83|327:119|327:119|348:124|362:144,1,202.500007724762,6|0,0:0|0:0,0:0:0:0:
477,267,28899,2,0,B|417:235|373:275|373:275|345:263|345:263|317:279|285:267,1,202.500007724762,2|0,0:0|0:0,0:0:0:0:
112,208,29232,2,0,B|168:152|260:188|260:188|239:193|225:212,1,202.500007724762,2|0,0:0|0:0,0:0:0:0:
8,296,29565,2,0,B|92:288|92:288|120:300|120:300|208:292,1,202.500007724762,2|0,0:0|0:0,0:0:0:0:
92,76,29899,6,0,P|8:92|68:140,1,202.500007724762,2|0,0:0|0:0,0:0:0:0:
88,64,30232,2,0,P|4:84|68:144,1,202.500007724762,2|0,0:0|0:0,0:0:0:0:
332,136,30565,2,0,B|240:84|232:180|140:136,1,202.500007724762,2|0,0:0|0:0,0:0:0:0:
314,17,30899,2,0,B|354:73|354:73|310:201,1,202.500007724762,2|0,0:0|0:0,0:0:0:0:
248,384,31232,6,0,P|241:349|248:316,1,67.5000025749208,2|0,0:0|0:0,0:0:0:0:
440,280,31399,2,0,P|413:302|381:314,1,67.5000025749208,2|0,0:0|0:0,0:0:0:0:
188,168,31565,2,0,B|244:112|328:152|328:152|308:204,1,202.500007724762,2|0,0:0|0:0,0:0:0:0:
84,292,31899,6,0,L|16:284,1,67.5000025749208,2|0,0:0|0:0,0:0:0:0:
180,326,32065,2,0,L|248:318,1,67.5000025749208,2|0,0:0|0:0,0:0:0:0:
44,124,32232,2,0,B|-8:80|-8:80|8:216,1,202.500007724762,2|0,0:0|0:0,0:0:0:0:
91,359,32565,6,0,L|83:291,1,67.5000025749208,2|0,0:0|0:0,0:0:0:0:
124,80,32732,2,0,L|116:148,1,67.5000025749208,2|0,0:0|0:0,0:0:0:0:
231,366,32899,6,0,P|201:351|180:326,1,67.5000025749208,2|0,0:0|0:0,0:0:0:0:
115,147,33065,2,0,P|112:180|123:211,1,67.5000025749208,2|0,0:0|0:0,0:0:0:0:
328,289,33232,6,0,P|297:275|263:276,1,67.5000025749208,2|0,0:0|0:0,0:0:0:0:
266,132,33399,2,0,P|235:143|212:168,1,67.5000025749208,2|0,0:0|0:0,0:0:0:0:
420,384,33565,6,0,B|488:312|456:200|400:188|400:188|424:208|428:240,1,270
328,289,33899,6,0,P|297:275|263:276,1,67.5000025749208,6|0,0:0|0:0,0:0:0:0:
379,125,34065,2,0,P|382:159|400:188,1,67.5000025749208,2|0,0:0|0:0,0:0:0:0:
15,155,34232,2,0,B|107:211|115:115|207:159,1,202.500007724762,2|0,0:0|0:0,0:0:0:0:
264,204,34565,5,2,0:0:0:0:
75,24,34732,2,0,L|68:92,1,67.5000025749208
32,384,34899,2,0,L|46:249,1,135.000005149842,2|0,0:0|0:0,0:0:0:0:
356,328,35149,1,0,0:0:0:0:
352,332,35232,6,0,B|292:296|240:340|240:340|204:324|204:324|180:336|163:332,1,202.500007724762,2|0,0:0|0:0,0:0:0:0:
336,176,35565,2,0,B|368:160|380:124|380:124|364:257,1,202.500007724762,2|0,0:0|0:0,0:0:0:0:
236,60,35899,2,0,B|192:8|192:8|207:141,1,202.500007724762,2|0,0:0|0:0,0:0:0:0:
508,20,36232,2,0,B|424:28|424:28|396:44|396:44|308:52,1,202.500007724762,2|0,0:0|0:0,0:0:0:0:
236,60,36565,5,2,0:0:0:0:
364,255,36732,1,0,0:0:0:0:
364,255,36815,1,0,0:0:0:0:
364,255,36899,2,0,B|500:243|500:243|456:291,1,202.500007724762,2|0,0:0|0:0,0:0:0:0:
404,344,37232,5,2,0:0:0:0:
460,156,37399,2,0,L|380:164,1,67.5000025749208
240,268,37565,2,0,L|104:256,1,135.000005149842,2|0,0:0|0:0,0:0:0:0:
124,40,37815,1,0,0:0:0:0:
124,40,37899,5,2,0:0:0:0:
98,323,38065,6,0,L|104:255,1,67.5000025749208
112,148,38232,1,2,0:0:0:0:
96,336,38399,6,0,P|111:306|137:285,1,67.5000025749208
284,200,38565,1,2,0:0:0:0:
304,278,38732,6,0,P|270:279|239:267,1,67.5000025749208
11,139,38899,6,0,L|112:148,1,101.250003862381
184,156,39232,5,6,0:0:0:0:
460,52,39399,1,0,0:0:0:0:
460,52,39482,1,0,0:0:0:0:
460,52,39565,2,0,B|504:104|504:104|460:232,1,202.500007724762,2|0,0:0|0:0,0:0:0:0:
432,300,39899,5,2,0:0:0:0:
256,124,40065,2,0,P|264:156|257:189,1,67.5000025749208
8,208,40232,2,0,L|142:219,1,135.000005149842,2|0,0:0|0:0,0:0:0:0:
316,72,40482,1,0,0:0:0:0:
312,76,40565,6,0,B|176:64|176:64|228:104,1,202.500007724762,2|0,0:0|0:0,0:0:0:0:
400,108,40899,2,0,B|536:120|536:120|484:80,1,202.500007724762,2|0,0:0|0:0,0:0:0:0:
220,12,41232,2,0,B|176:64|176:64|220:192,1,202.500007724762,2|0,0:0|0:0,0:0:0:0:
280,384,41565,2,0,P|272:352|278:318,1,67.5000025749208,2|0,0:0|0:0,0:0:0:0:
364,268,41732,2,0,P|396:277|421:299,1,67.5000025749208,2|0,0:0|0:0,0:0:0:0:
356,348,41899,5,6,0:0:0:0:
200,288,42065,1,2,0:0:0:0:
456,212,42232,5,2,0:0:0:0:
280,384,42399,1,2,0:0:0:0:
24,76,42565,5,6,0:0:0:0:
112,184,42732,1,2,0:0:0:0:
168,52,42899,5,2,0:0:0:0:
60,312,43065,1,2,0:0:0:0:
256,160,43232,5,6,0:0:0:0:
284,144,43315,1,2,0:0:0:0:
316,140,43399,1,2,0:0:0:0:
348,148,43482,1,2,0:0:0:0:
376,168,43565,1,2,0:0:0:0:
408,184,43649,1,2,0:0:0:0:
440,184,43732,1,2,0:0:0:0:
472,172,43815,1,2,0:0:0:0:
420,36,43899,6,0,L|424:104,1,67.5000025749208,6|0,0:0|0:0,0:0:0:0:
432,264,44065,6,0,L|434:297,2,33.7500012874604,6|2|2,0:0|0:0|0:0,0:0:0:0:
332,7,44232,6,0,L|340:108,1,101.250003862381
348,180,44565,5,6,0:0:0:0:
0,156,44732,2,0,L|57:160,1,56.25
128,68,44899,2,0,B|92:112|92:112|128:220,1,168.75,2|0,0:0|0:0,0:0:0:0:
180,384,45232,6,0,B|172:356|172:356|180:328,1,56.25,2|0,0:0|0:0,0:0:0:0:
204,256,45399,2,0,B|218:230|218:230|243:216,1,56.25
437,292,45565,2,0,B|360:336|356:260|276:292,1,168.75,2|0,0:0|0:0,0:0:0:0:
312,364,45899,5,2,0:0:0:0:
508,264,46065,2,0,B|516:292|516:292|508:320,1,56.25
344,108,46232,1,2,0:0:0:0:
332,184,46315,1,0,0:0:0:0:
396,228,46399,2,0,L|460:220,1,56.25
272,132,46565,5,2,0:0:0:0:
258,133,46649,1,0,0:0:0:0:
244,135,46732,1,0,0:0:0:0:
230,137,46815,1,0,0:0:0:0:
156,144,46899,5,2,0:0:0:0:
116,0,47065,2,0,B|108:28|108:28|116:56,1,56.25
196,312,47232,6,0,B|216:260|216:260|196:204,1,112.5,2|0,0:0|0:0,0:0:0:0:
52,132,47482,1,0,0:0:0:0:
24,208,47565,2,0,P|52:212|80:208,1,56.25,2|0,0:0|0:0,0:0:0:0:
192,28,47732,1,0,0:0:0:0:
192,28,47815,1,0,0:0:0:0:
192,28,47899,6,0,P|219:24|247:28,1,56.25,2|0,0:0|0:0,0:0:0:0:
356,208,48065,2,0,P|383:211|411:208,1,56.25
460,88,48232,1,2,0:0:0:0:
460,88,48315,1,0,0:0:0:0:
460,88,48399,2,0,P|442:110|432:136,1,56.25
407,344,48565,5,2,0:0:0:0:
451,276,48649,1,0,0:0:0:0:
411,208,48732,2,0,P|383:211|356:208,1,56.25
32,288,48899,2,0,B|80:244|152:272|152:272|124:276|104:300,1,168.75,2|0,0:0|0:0,0:0:0:0:
248,372,49232,5,2,0:0:0:0:
288,296,49315,1,0,0:0:0:0:
152,272,49399,1,0,0:0:0:0:
164,352,49482,1,0,0:0:0:0:
232,232,49565,5,2,0:0:0:0:
156,32,49732,2,0,L|152:88,1,56.25
276,160,49899,6,0,B|196:124|188:196|112:160,1,168.75,6|0,0:0|0:0,0:0:0:0:
48,128,50232,1,2,0:0:0:0:
228,68,50399,1,0,0:0:0:0:
156,32,50565,5,2,0:0:0:0:
156,32,50649,1,0,0:0:0:0:
156,32,50732,2,0,L|152:88,1,56.25
348,228,50899,2,0,B|392:180|360:112|360:112|376:148|404:156,1,168.75,2|0,0:0|0:0,0:0:0:0:
436,83,51232,5,2,0:0:0:0:
347,283,51399,1,0,0:0:0:0:
347,283,51482,1,0,0:0:0:0:
347,283,51565,2,0,P|350:255|347:227,1,56.25,2|0,0:0|0:0,0:0:0:0:
380,360,51732,2,0,P|402:343|419:320,1,56.25
236,212,51899,6,0,P|258:228|275:251,1,56.25,2|0,0:0|0:0,0:0:0:0:
268,380,52065,2,0,P|271:352|282:326,1,56.25
420,244,52232,5,2,0:0:0:0:
212,296,52399,2,0,P|184:300|156:296,1,56.25
76,100,52565,5,2,0:0:0:0:
120,372,52732,2,0,P|97:355|80:332,1,56.25
48,132,52899,6,0,L|57:57,2,75,2|0|0,0:0|0:0|0:0,0:0:0:0:
36,236,53232,5,2,0:0:0:0:
256,132,53399,1,0,0:0:0:0:
256,132,53482,1,0,0:0:0:0:
256,132,53565,2,0,P|284:128|312:132,1,56.25,2|0,0:0|0:0,0:0:0:0:
384,260,53732,2,0,P|412:264|440:260,1,56.25
512,136,53899,5,2,0:0:0:0:
220,300,54065,1,0,0:0:0:0:
224,304,54149,1,0,0:0:0:0:
279,361,54232,6,0,B|311:317|311:317|280:208,1,168.75,2|0,0:0|0:0,0:0:0:0:
0,168,54565,6,0,L|76:180,1,67.5
56,104,54899,6,0,L|52:72,2,30
100,256,55232,6,0,P|128:239|145:210,1,67.5000025749208,6|0,0:0|0:0,0:0:0:0:
128,36,55399,2,0,P|128:68|144:97,1,67.5000025749208,2|0,0:0|0:0,0:0:0:0:
433,151,55565,2,0,B|333:107|336:204|241:151,1,202.500007724762,2|0,0:0|0:0,0:0:0:0:
452,12,55899,5,2,0:0:0:0:
452,12,55982,1,0,0:0:0:0:
452,12,56065,2,0,L|444:80,1,67.5000025749208
472,312,56232,2,0,B|400:296|384:220|384:220|396:256|382:285,1,202.500007724762,2|0,0:0|0:0,0:0:0:0:
24,356,56565,5,2,0:0:0:0:
24,356,56649,1,0,0:0:0:0:
24,356,56732,2,0,P|60:364|92:356,1,67.5000025749208
236,44,56899,2,0,B|184:-4|184:-4|200:128,1,202.500007724762,2|0,0:0|0:0,0:0:0:0:
232,384,57232,5,2,0:0:0:0:
232,384,57315,1,0,0:0:0:0:
232,384,57399,2,0,L|224:316,1,67.5000025749208
199,126,57565,6,0,P|235:118|267:126,1,67.5000025749208,2|0,0:0|0:0,0:0:0:0:
384,272,57732,2,0,P|361:246|352:214,1,67.5000025749208
420,36,57899,5,2,0:0:0:0:
420,36,57982,1,0,0:0:0:0:
420,36,58065,2,0,P|409:67|386:91,1,67.5000025749208
16,184,58232,2,0,B|100:192|100:192|128:212|128:212|212:220,1,202.500007724762,2|0,0:0|0:0,0:0:0:0:
500,216,58565,5,2,0:0:0:0:
500,216,58649,1,0,0:0:0:0:
500,216,58732,2,0,L|420:208,1,67.5000025749208
188,36,58899,2,0,B|248:-16|340:28|340:28|316:32|296:48,1,202.500007724762,2|0,0:0|0:0,0:0:0:0:
61,349,59232,5,2,0:0:0:0:
61,349,59315,1,0,0:0:0:0:
61,349,59399,2,0,B|53:313|53:313|60:284,1,67.5000025749208
373,326,59565,2,0,B|321:290|265:326|265:326|221:306|221:306|185:326|152:316,1,236.250002253056,2|0,0:0|0:0,0:0:0:0:
81,118,59899,6,0,B|161:78|161:78|237:142|201:206|176:236,1,270,2|0,0:0|0:0,0:0:0:0:
61,349,60232,5,2,0:0:0:0:
61,349,60399,2,0,B|53:313|53:313|60:284,1,67.5000025749208
336,96,60565,6,0,B|388:48|388:48|380:180,1,202.500007724762,6|0,0:0|0:0,0:0:0:0:
376,252,60899,1,2,0:0:0:0:
268,60,61065,1,0,0:0:0:0:
268,60,61232,6,0,L|264:128,1,67.5000025749208,2|0,0:0|0:0,0:0:0:0:
376,316,61399,5,0,0:0:0:0:
376,316,61482,1,0,0:0:0:0:
376,316,61565,2,0,P|384:284|376:252,1,67.5000025749208,2|0,0:0|0:0,0:0:0:0:
204,168,61732,5,0,0:0:0:0:
204,168,61815,1,0,0:0:0:0:
204,168,61899,2,0,P|228:191|260:200,1,67.5000025749208,2|0,0:0|0:0,0:0:0:0:
424,92,62065,5,0,0:0:0:0:
424,92,62149,1,0,0:0:0:0:
424,92,62232,2,0,P|391:101|368:124,1,67.5000025749208,2|0,0:0|0:0,0:0:0:0:
488,200,62399,5,0,0:0:0:0:
488,200,62482,1,0,0:0:0:0:
488,200,62565,2,0,P|455:190|432:167,1,67.5000025749208,2|0,0:0|0:0,0:0:0:0:
268,60,62732,6,0,L|264:128,1,67.5000025749208
144,272,62899,2,0,L|140:204,1,67.5000025749208,2|0,0:0|0:0,0:0:0:0:
124,0,63065,2,0,L|128:68,1,67.5000025749208
176,344,63232,6,0,P|144:352|108:344,1,67.5000025749208,2|0,0:0|0:0,0:0:0:0:
0,260,63399,2,0,P|18:287|47:305,1,67.5000025749208,2|0,0:0|0:0,0:0:0:0:
324,204,63565,6,0,L|244:212,1,78.7500007510185,2|0,0:0|0:0,0:0:0:0:
76,228,63732,2,0,L|156:220,1,78.7500007510185,2|0,0:0|0:0,0:0:0:0:
480,304,63899,6,0,P|436:308|392:296,1,90,2|0,0:0|0:0,0:0:0:0:
189,144,64065,2,0,P|211:182|245:211,1,90,2|0,0:0|0:0,0:0:0:0:
500,144,64232,6,0,P|478:183|444:212,1,90,2|0,0:0|0:0,0:0:0:0:
291,32,64399,2,0,P|280:75|284:120,1,90,2|0,0:0|0:0,0:0:0:0:
320,260,64565,5,6,0:0:0:0:
320,260,65899,6,0,B|304:172|304:172|392:208|392:208|416:360,1,337.5,6|0,0:0|0:0,0:0:0:0:
320,260,67232,6,0,B|220:184|184:340|72:256|72:256|104:272|144:256,1,337.5,6|0,0:0|0:0,0:0:0:0:
179,60,68565,6,0,B|103:12|103:12|139:256,1,337.5,6|0,0:0|0:0,0:0:0:0:
72,324,69899,6,0,B|112:360|184:372|224:316|232:276|232:276|260:300|292:304|292:304|328:288|360:304,1,337.5,6|0,0:0|0:0,0:0:0:0:
424,352,71232,6,0,L|420:324,1,22.5,6|0,0:0|0:0,0:0:0:0:
480,288,71399,2,0,L|483:265,1,22.5,2|0,0:0|0:0,0:0:0:0:
412,260,71565,2,0,L|408:232,1,22.5,2|0,0:0|0:0,0:0:0:0:
496,196,71732,2,0,L|500:168,1,22.5,2|0,0:0|0:0,0:0:0:0:
396,127,71899,6,0,P|373:129|351:125,1,45,6|0,0:0|0:0,0:0:0:0:
312,196,72065,2,0,P|294:181|281:163,1,45,2|0,0:0|0:0,0:0:0:0:
280,84,72232,2,0,P|257:82|235:86,1,45,2|0,0:0|0:0,0:0:0:0:
148,224,72399,2,0,P|125:225|103:221,1,45,2|0,0:0|0:0,0:0:0:0:
128,0,72565,6,0,L|120:68,1,67.5000025749208,6|0,0:0|0:0,0:0:0:0:
95,289,72732,2,0,L|103:221,1,67.5000025749208,2|0,0:0|0:0,0:0:0:0:
48,40,72899,2,0,L|56:108,1,67.5000025749208,2|0,0:0|0:0,0:0:0:0:
87,356,73065,2,0,L|95:288,1,67.5000025749208,2|0,0:0|0:0,0:0:0:0:
296,140,73232,6,0,B|340:128|340:128|384:140,1,90,6|0,0:0|0:0,0:0:0:0:
508,268,73399,2,0,B|475:235|475:235|464:191,1,90,2|0,0:0|0:0,0:0:0:0:
512,20,73565,2,0,B|500:64|500:64|468:96,1,90,2|0,0:0|0:0,0:0:0:0:
340,212,73732,2,0,B|296:224|296:224|252:212,1,90,2|0,0:0|0:0,0:0:0:0:
0,140,73899,5,2,0:0:0:0:
20,128,73982,1,2,0:0:0:0:
44,124,74065,1,2,0:0:0:0:
68,128,74149,1,2,0:0:0:0:
88,136,74232,1,2,0:0:0:0:
112,152,74315,1,2,0:0:0:0:
144,160,74399,1,2,0:0:0:0:
180,156,74482,1,2,0:0:0:0:
212,136,74565,5,2,0:0:0:0:
160,92,74649,1,2,0:0:0:0:
96,108,74732,1,2,0:0:0:0:
76,172,74815,1,2,0:0:0:0:
120,224,74899,1,2,0:0:0:0:
188,224,74982,1,2,0:0:0:0:
236,272,75065,1,2,0:0:0:0:
232,340,75149,1,2,0:0:0:0:
176,380,75232,5,2,0:0:0:0:
196,304,75315,1,2,0:0:0:0:
268,280,75399,1,2,0:0:0:0:
332,320,75482,1,2,0:0:0:0:
404,300,75565,1,2,0:0:0:0:
428,228,75649,1,2,0:0:0:0:
388,164,75732,1,2,0:0:0:0:
340,104,75815,1,2,0:0:0:0:
372,36,75899,5,2,0:0:0:0:
448,44,75982,1,2,0:0:0:0:
456,120,76065,1,2,0:0:0:0:
340,104,76149,1,2,0:0:0:0:
340,104,76565,6,0,L|260:96,1,78.7500007510185,6|0,0:0|0:0,0:0:0:0:
1,72,76731,2,0,L|80:80,1,78.7500007510185,2|0,0:0|0:0,0:0:0:0:
386,168,76898,6,0,L|308:176,1,78.7500007510185,2|0,0:0|0:0,0:0:0:0:
47,199,77064,2,0,L|125:191,1,78.7500007510185,2|0,0:0|0:0,0:0:0:0:
460,160,77231,6,0,P|468:196|460:236,1,78.7500007510185,2|0,0:0|0:0,0:0:0:0:
356,384,77398,2,0,P|388:362|410:330,1,78.7500007510185,2|0,0:0|0:0,0:0:0:0:
248,72,77565,6,0,P|279:91|301:125,1,78.7500007510185,2|0,0:0|0:0,0:0:0:0:
332,303,77732,2,0,P|340:264|332:226,1,78.7500007510185,2|0,0:0|0:0,0:0:0:0:
172,32,77898,6,0,B|160:68|160:68|172:108,1,78.7500007510185,2|0,0:0|0:0,0:0:0:0:
260,264,78065,2,0,B|234:235|234:235|194:226,1,78.7500007510185,2|0,0:0|0:0,0:0:0:0:
16,228,78231,6,0,B|53:220|53:220|81:189,1,78.7500007510185,2|0,0:0|0:0,0:0:0:0:
176,28,78398,2,0,B|164:64|164:64|176:104,1,78.7500007510185,2|0,0:0|0:0,0:0:0:0:
264,268,78565,6,0,P|304:276|344:268,1,78.7500007510185,2|0,0:0|0:0,0:0:0:0:
456,108,78731,2,0,P|429:138|416:177,1,78.7500007510185,2|0,0:0|0:0,0:0:0:0:
500,356,78898,5,2,0:0:0:0:
500,356,78981,1,2,0:0:0:0:
500,356,79065,2,0,P|486:317|460:286,1,78.7500007510185,2|0,0:0|0:0,0:0:0:0:
348,196,79231,6,0,P|313:178|274:174,1,78.7500007510185,2|0,0:0|0:0,0:0:0:0:
101,320,79398,2,0,P|140:317|176:300,1,78.7500007510185,2|0,0:0|0:0,0:0:0:0:
224,372,79565,6,0,P|248:341|261:304,1,78.7500007510185,2|0,0:0|0:0,0:0:0:0:
328,0,79731,1,2,0:0:0:0:
328,0,79815,1,2,0:0:0:0:
328,0,79898,6,0,P|304:31|291:68,1,78.7500007510185,2|0,0:0|0:0,0:0:0:0:
208,56,80065,2,0,P|212:94|229:130,1,78.7500007510185,2|0,0:0|0:0,0:0:0:0:
460,256,80231,5,2,0:0:0:0:
460,256,80315,1,2,0:0:0:0:
460,256,80398,1,2,0:0:0:0:
460,256,80481,1,2,0:0:0:0:
460,256,80565,6,0,B|420:248|420:248|380:256,1,78.7500007510185,2|0,0:0|0:0,0:0:0:0:
97,300,80731,2,0,B|135:308|135:308|175:300,1,78.7500007510185,2|0,0:0|0:0,0:0:0:0:
424,116,80898,6,0,B|397:146|397:146|384:185,1,78.7500007510185,2|0,0:0|0:0,0:0:0:0:
421,321,81065,2,0,B|408:285|408:285|382:255,1,78.7500007510185,2|0,0:0|0:0,0:0:0:0:
37,155,81231,6,0,L|-3:143,7,39.3750003755093,2|2|2|2|2|2|2|2,0:0|0:0|0:0|0:0|0:0|0:0|0:0|0:0,0:0:0:0:
116,120,81565,5,2,0:0:0:0:
116,120,81648,1,2,0:0:0:0:
116,120,81731,2,0,B|128:160|128:160|116:196,1,78.7500007510185,2|0,0:0|0:0,0:0:0:0:
0,376,81898,6,0,L|80:368,1,78.7500007510185,2|0,0:0|0:0,0:0:0:0:
196,160,82065,2,0,L|274:167,1,78.7500007510185,2|0,0:0|0:0,0:0:0:0:
156,360,82231,6,0,L|236:352,1,78.7500007510185,2|0,0:0|0:0,0:0:0:0:
352,176,82398,2,0,L|430:183,1,78.7500007510185,2|0,0:0|0:0,0:0:0:0:
308,344,82565,6,0,B|296:304|296:304|308:268,1,78.7500007510185,2|0,0:0|0:0,0:0:0:0:
417,137,82731,2,0,B|389:168|389:168|352:176,1,78.7500007510185,2|0,0:0|0:0,0:0:0:0:
252,68,82898,6,0,B|292:77|292:77|317:105,1,78.7500007510185,2|0,0:0|0:0,0:0:0:0:
460,332,83065,1,2,0:0:0:0:
460,332,83148,1,2,0:0:0:0:
460,332,83231,6,0,L|380:340,1,78.7500007510185,2|0,0:0|0:0,0:0:0:0:
274,167,83398,2,0,L|194:159,1,78.7500007510185,2|0,0:0|0:0,0:0:0:0:
0,376,83565,6,0,B|-12:336|-12:336|0:300,1,78.7500007510185,2|0,0:0|0:0,0:0:0:0:
195,159,83731,1,2,0:0:0:0:
195,159,83815,1,2,0:0:0:0:
195,159,83898,6,0,B|207:119|207:119|195:83,1,78.7500007510185,2|0,0:0|0:0,0:0:0:0:
36,188,84065,1,2,0:0:0:0:
36,188,84148,1,2,0:0:0:0:
36,188,84231,6,0,B|64:216,7,39.3750003755093,2|2|2|2|2|2|2|2,0:0|0:0|0:0|0:0|0:0|0:0|0:0|0:0,0:0:0:0:
88,40,84565,5,2,0:0:0:0:
88,40,84648,1,2,0:0:0:0:
88,40,84731,2,0,B|47:49|47:49|22:78,1,78.7500007510185,2|0,0:0|0:0,0:0:0:0:
195,159,84898,6,0,B|276:152,1,78.7500007510185,2|0,0:0|0:0,0:0:0:0:
468,132,85065,2,0,B|387:139,1,78.7500007510185,2|0,0:0|0:0,0:0:0:0:
152,224,85231,6,0,B|233:231,1,78.7500007510185,2|0,0:0|0:0,0:0:0:0:
512,68,85398,2,0,B|431:61,1,78.7500007510185,2|0,0:0|0:0,0:0:0:0:
88,40,85565,5,2,0:0:0:0:
88,40,85648,1,2,0:0:0:0:
88,40,85731,1,2,0:0:0:0:
88,40,85815,1,2,0:0:0:0:
88,40,85898,1,2,0:0:0:0:
88,40,85981,1,2,0:0:0:0:
88,40,86065,1,2,0:0:0:0:
88,40,86148,1,2,0:0:0:0:
152,224,86231,6,0,B|180:188|180:188|148:96,1,135,2|0,0:0|0:0,0:0:0:0:
24,284,86565,6,0,P|64:292|100:284,1,78.7500007510185,2|0,0:0|0:0,0:0:0:0:
236,124,86731,2,0,P|276:116|312:124,1,78.7500007510185,2|0,0:0|0:0,0:0:0:0:
408,232,86898,6,0,P|383:204|370:166,1,67.5
416,44,87231,6,0,P|408:71|378:107,1,67.5000025749208,6|0,0:0|0:0,0:0:0:0:
276,204,87398,2,0,P|251:218|204:222,1,67.5000025749208,2|0,0:0|0:0,0:0:0:0:
84,64,87565,2,0,B|136:4|232:44|232:44|204:44|180:64,1,202.500007724762,2|0,0:0|0:0,0:0:0:0:
224,304,87898,6,0,P|190:300|161:284,1,67.5000025749208,2|0,0:0|0:0,0:0:0:0:
213,223,88065,1,0,0:0:0:0:
236,384,88231,1,2,0:0:0:0:
88,256,88398,6,0,P|107:228|136:211,1,67.5000025749208
288,256,88565,1,2,0:0:0:0:
198,158,88731,6,0,P|211:188|212:222,1,67.5000025749208
104,332,88898,1,2,0:0:0:0:
224,304,89065,6,0,P|190:300|161:284,1,67.5000025749208
128,136,89231,1,2,0:0:0:0:
296,332,89398,5,0,0:0:0:0:
136,211,89565,1,2,0:0:0:0:
320,128,89731,1,0,0:0:0:0:
10,198,89898,6,0,B|98:142|114:254|206:198,1,202.500007724762,2|0,0:0|0:0,0:0:0:0:
320,128,90231,2,0,B|312:164|312:164|320:196,1,67.5000025749208,2|0,0:0|0:0,0:0:0:0:
336,264,90398,1,0,0:0:0:0:
336,264,90481,1,0,0:0:0:0:
336,264,90565,5,2,0:0:0:0:
388,80,90731,6,0,B|360:55|360:55|329:46,1,67.5000025749208
260,76,90898,1,2,0:0:0:0:
392,164,91065,6,0,B|427:152|427:152|450:129,1,67.5000025749208
464,60,91231,1,2,0:0:0:0:
264,244,91398,6,0,B|228:252|228:252|196:244,1,67.5000025749208
112,140,91565,2,0,B|136:167|136:167|146:198,1,67.5000025749208,2|0,0:0|0:0,0:0:0:0:
96,328,91731,1,0,0:0:0:0:
264,244,91898,5,2,0:0:0:0:
112,140,92065,1,0,0:0:0:0:
30,326,92231,6,0,P|62:334|97:327,1,67.5000025749208,2|0,0:0|0:0,0:0:0:0:
264,244,92398,2,0,P|296:235|331:243,1,67.5000025749208
420,348,92565,6,0,P|396:323|385:290,1,67.5000025749208,2|0,0:0|0:0,0:0:0:0:
432,160,92731,2,0,P|422:192|399:218,1,67.5000025749208,2|0,0:0|0:0,0:0:0:0:
224,72,92898,2,0,B|276:32|276:32|268:168,1,202.500007724762,2|0,0:0|0:0,0:0:0:0:
256,384,93231,6,0,L|260:316,1,67.5000025749208,2|0,0:0|0:0,0:0:0:0:
264,244,93398,1,0,0:0:0:0:
420,348,93565,1,2,0:0:0:0:
436,92,93731,6,0,L|432:160,1,67.5000025749208
428,232,93898,1,2,0:0:0:0:
368,52,94065,6,0,L|364:120,1,67.5000025749208
360,188,94231,1,2,0:0:0:0:
300,12,94398,6,0,L|296:80,1,67.5000025749208
0,108,94565,6,0,B|96:100|96:100|76:108|64:124,1,135.000005149842,2|0,0:0|0:0,0:0:0:0:
220,176,94815,2,0,B|124:168|124:168|144:176|154:190,1,135.000005149842,2|0,0:0|0:0,0:0:0:0:
28,244,95065,2,0,L|96:240,1,67.5000025749208,2|0,0:0|0:0,0:0:0:0:
372,124,95231,6,0,B|320:60|232:96|232:96|260:100|276:116,1,202.500007724762,2|0,0:0|0:0,0:0:0:0:
448,156,95565,2,0,B|460:124|460:124|448:92,1,67.5000025749208,2|0,0:0|0:0,0:0:0:0:
424,24,95731,1,0,0:0:0:0:
424,24,95815,1,0,0:0:0:0:
424,24,95898,5,2,0:0:0:0:
388,200,96065,6,0,B|376:232|376:232|388:264,1,67.5000025749208
408,332,96231,1,2,0:0:0:0:
512,308,96398,6,0,B|490:281|490:281|456:276,1,67.5000025749208
28,352,96565,6,0,B|88:408|172:348|172:348|148:356|124:344,1,202.500007724762,2|0,0:0|0:0,0:0:0:0:
152,84,96898,6,0,B|112:140|112:140|152:268,1,202.500007724762,2|0,0:0|0:0,0:0:0:0:
392,152,97231,6,0,B|300:104|292:204|200:156,1,202.500007724762,2|0,0:0|0:0,0:0:0:0:
428,0,97565,6,0,B|448:36|448:36|424:92,1,101.250003862381
256,324,97898,6,0,B|340:308|344:220|344:220|340:252|356:280,1,202.500007724762,6|0,0:0|0:0,0:0:0:0:
484,236,98231,6,0,B|448:228|448:228|416:236,1,67.5000025749208,2|0,0:0|0:0,0:0:0:0:
320,140,98398,1,0,0:0:0:0:
320,140,98565,5,2,0:0:0:0:
320,140,98731,6,0,B|331:175|331:175|354:198,1,67.5000025749208
318,328,98897,1,2,0:0:0:0:
318,328,99064,6,0,B|342:300|342:300|352:269,1,67.5000025749208
484,236,99231,1,2,0:0:0:0:
484,236,99397,6,0,B|448:228|448:228|416:236,1,67.5000025749208
320,140,99564,1,2,0:0:0:0:
320,140,99731,6,0,B|284:148|284:148|252:140,1,67.5000025749208
184,116,99898,5,2,0:0:0:0:
276,20,100065,1,0,0:0:0:0:
204,256,100231,6,0,L|196:184,1,67.5000025749208,2|0,0:0|0:0,0:0:0:0:
176,48,100398,2,0,L|183:115,1,67.5000025749208,2|0,0:0|0:0,0:0:0:0:
12,251,100565,6,0,B|104:203|112:303|204:255,1,202.500007724762,2|0,0:0|0:0,0:0:0:0:
380,136,100898,2,0,P|348:128|316:136,1,67.5000025749208,2|0,0:0|0:0,0:0:0:0:
260,196,101065,1,0,0:0:0:0:
260,196,101148,1,0,0:0:0:0:
260,196,101231,5,2,0:0:0:0:
428,200,101398,6,0,P|450:176|460:144,1,67.5000025749208
432,76,101565,1,2,0:0:0:0:
348,208,101731,6,0,P|357:239|380:263,1,67.5000025749208
456,272,101898,1,2,0:0:0:0:
380,136,102065,6,0,P|348:128|316:136,1,67.5000025749208
203,255,102231,2,0,P|171:263|139:255,1,67.5000025749208,2|0,0:0|0:0,0:0:0:0:
28,192,102398,1,0,0:0:0:0:
136,136,102565,5,2,0:0:0:0:
138,254,102731,1,0,0:0:0:0:
138,254,102815,1,0,0:0:0:0:
138,254,102898,5,2,0:0:0:0:
36,64,103065,1,0,0:0:0:0:
36,64,103148,1,0,0:0:0:0:
36,64,103231,6,0,B|72:56|72:56|104:64,1,67.5000025749208,6|0,0:0|0:0,0:0:0:0:
138,254,103398,2,0,B|174:262|174:262|206:254,1,67.5000025749208,2|0,0:0|0:0,0:0:0:0:
282,127,103565,6,0,P|274:159|281:192,1,67.5000025749208,2|0,0:0|0:0,0:0:0:0:
332,352,103731,2,0,B|320:316|320:316|299:294,1,67.5000025749208,2|0,0:0|0:0,0:0:0:0:
351,79,103898,6,0,P|327:56|296:46,1,67.5000025749208,2|0,0:0|0:0,0:0:0:0:
360,159,104065,2,0,P|392:150|417:128,1,67.5000025749208,2|0,0:0|0:0,0:0:0:0:
480,0,104231,6,0,P|478:33|461:62,1,67.5000025749208,2|0,0:0|0:0,0:0:0:0:
378,222,104398,2,0,P|376:188|359:159,1,67.5000025749208,2|0,0:0|0:0,0:0:0:0:
295,45,104565,6,0,P|270:23|238:14,1,67.5000025749208,6|0,0:0|0:0,0:0:0:0:
204,280,104731,2,0,P|235:269|259:246,1,67.5000025749208,2|0,0:0|0:0,0:0:0:0:
36,84,104898,6,0,B|28:120|28:120|36:152,1,67.5000025749208,2|0,0:0|0:0,0:0:0:0:
204,345,105065,2,0,B|212:312|212:312|204:280,1,67.5000025749208,2|0,0:0|0:0,0:0:0:0:
0,216,105231,6,0,P|32:224|65:217,1,67.5000025749208,2|0,0:0|0:0,0:0:0:0:
108,120,105398,2,0,P|140:111|173:118,1,67.5000025749208,2|0,0:0|0:0,0:0:0:0:
320,252,105565,6,0,P|296:227|286:196,1,67.5000025749208,2|0,0:0|0:0,0:0:0:0:
332,0,105731,2,0,P|322:32|300:57,1,67.5000025749208,2|0,0:0|0:0,0:0:0:0:
72,284,105898,6,0,L|64:208,1,67.5000025749208,6|0,0:0|0:0,0:0:0:0:
180,51,106065,2,0,L|172:118,1,67.5000025749208,2|0,0:0|0:0,0:0:0:0:
79,362,106231,6,0,L|71:278,1,78.7500007510185,2|0,0:0|0:0,0:0:0:0:
40,0,106398,2,0,L|47:78,1,78.7500007510185,2|0,0:0|0:0,0:0:0:0:
363,308,106565,6,0,P|319:320|275:308,1,90,6|0,0:0|0:0,0:0:0:0:
25,210,106731,2,0,P|69:200|112:212,1,90,2|0,0:0|0:0,0:0:0:0:
405,383,106898,6,0,P|374:351|362:307,1,90,2|0,0:0|0:0,0:0:0:0:
492,24,107065,2,0,B|504:68|504:68|488:112,1,90,2|0,0:0|0:0,0:0:0:0:
200,260,107231,5,4,0:0:0:0:
200,260,107315,2,0,B|188:216|188:216|204:172,1,90,0|0,0:0|0:0,0:0:0:0:
304,64,107481,5,0,0:0:0:0:
304,64,107565,2,0,B|271:96|271:96|225:104,1,90,0|0,0:0|0:0,0:0:0:0:
84,68,107731,5,0,0:0:0:0:
84,68,107815,2,0,B|128:79|128:79|158:115,1,90,0|0,0:0|0:0,0:0:0:0:
224,336,107981,5,0,0:0:0:0:
224,336,108065,1,0,0:0:0:0:
224,336,108148,1,0,0:0:0:0:
224,336,108231,1,0,0:0:0:0:
224,336,108315,1,0,0:0:0:0:
224,336,108398,1,0,0:0:0:0:
224,336,108481,1,0,0:0:0:0:
224,336,108565,5,0,0:0:0:0:
224,336,108898,6,0,L|272:332,1,45
340,328,109231,2,0,L|388:324,1,45
456,320,109565,1,0,0:0:0:0:
200,176,109898,6,0,B|184:216|184:216|200:260,2,90
228,108,110898,1,0,0:0:0:0:
364,164,111231,6,0,B|324:148|320:180|276:164,1,90
228,108,111736,1,0,0:0:0:0:
376,48,111905,6,0,L|372:92,1,45
364,164,112242,2,0,L|360:208,1,45
352,280,112579,5,0,0:0:0:0:
437,260,112931,2,0,B|401:264|401:264|385:276|385:276|352:280,1,90
280,288,113637,1,0,0:0:0:0:
52,172,113990,6,0,B|88:176|88:176|104:188|104:188|137:191,1,90
208,196,114542,1,0,0:0:0:0:
132,36,114726,6,0,B|116:76|116:76|132:124,1,90
168,256,115516,1,0,0:0:0:0:
208,196,115938,1,0,0:0:0:0:
276,324,116372,1,0,0:0:0:0:
280,320,116852,6,0,L|344:312,1,45
432,240,117387,6,0,B|384:192|384:192|400:312,1,180
