osu file format v14

[General]
AudioFilename: audio.mp3
AudioLeadIn: 0
PreviewTime: 89931
Countdown: 0
SampleSet: Normal
StackLeniency: 0.7
Mode: 3
LetterboxInBreaks: 0
SpecialStyle: 0
WidescreenStoryboard: 0

[Editor]
Bookmarks: 23314,45902,68490,91078,136255
DistanceSpacing: 1.4
BeatDivisor: 8
GridSize: 32
TimelineZoom: 2

[Metadata]
Title:Sunshine
TitleUnicode:Sunshine
Artist:DJ Genki vs. Camellia ft. moimoi
ArtistUnicode:DJ Genki vs. Camellia ft. moimoi
Creator:TheToaphster
Version:Elation
Source:
Tags:
BeatmapID:1847165
BeatmapSetID:883654

[Difficulty]
HPDrainRate:8
CircleSize:4
OverallDifficulty:7
ApproachRate:5
SliderMultiplier:1.4
SliderTickRate:1

[Events]
//Background and Video events
0,0,"Seaaa.jpg",0,0
//Break Periods
//Storyboard Layer 0 (Background)
//Storyboard Layer 1 (Fail)
//Storyboard Layer 2 (Pass)
//Storyboard Layer 3 (Foreground)
//Storyboard Sound Samples

[TimingPoints]
726,352.941176470588,4,1,0,100,1,0

[HitObjects]
64,192,726,128,0,814:0:0:0:0:
192,192,726,1,0,0:0:0:0:
192,192,1078,1,0,0:0:0:0:
64,192,1255,1,0,0:0:0:0:
320,192,1431,1,0,0:0:0:0:
192,192,1784,128,0,1873:0:0:0:0:
192,192,2137,1,0,0:0:0:0:
64,192,2314,1,0,0:0:0:0:
192,192,2490,1,0,0:0:0:0:
448,192,2667,1,0,0:0:0:0:
320,192,2843,1,0,0:0:0:0:
192,192,3196,1,0,0:0:0:0:
192,192,3549,128,0,3637:0:0:0:0:
320,192,3593,128,0,3681:0:0:0:0:
192,192,3902,1,0,0:0:0:0:
64,192,4078,1,0,0:0:0:0:
320,192,4255,1,0,0:0:0:0:
320,192,4608,128,0,4696:0:0:0:0:
448,192,4652,128,0,4740:0:0:0:0:
192,192,4961,1,0,0:0:0:0:
64,192,5137,1,0,0:0:0:0:
192,192,5314,1,0,0:0:0:0:
448,192,5490,1,0,0:0:0:0:
320,192,5667,1,0,0:0:0:0:
192,192,6020,1,0,0:0:0:0:
64,192,6373,128,0,6461:0:0:0:0:
192,192,6417,128,0,6505:0:0:0:0:
192,192,6725,1,0,0:0:0:0:
64,192,6902,1,0,0:0:0:0:
320,192,7078,1,0,0:0:0:0:
192,192,7431,128,0,7520:0:0:0:0:
320,192,7475,128,0,7564:0:0:0:0:
192,192,7784,1,0,0:0:0:0:
64,192,7961,1,0,0:0:0:0:
192,192,8137,1,0,0:0:0:0:
448,192,8314,1,0,0:0:0:0:
320,192,8490,1,0,0:0:0:0:
192,192,8843,1,0,0:0:0:0:
192,192,9196,128,0,9284:0:0:0:0:
320,192,9240,128,0,9328:0:0:0:0:
192,192,9549,1,0,0:0:0:0:
64,192,9725,1,0,0:0:0:0:
320,192,9902,1,0,0:0:0:0:
320,192,10255,128,0,10343:0:0:0:0:
448,192,10299,128,0,10387:0:0:0:0:
192,192,10608,1,0,0:0:0:0:
64,192,10784,128,0,10873:0:0:0:0:
64,192,10961,128,0,11049:0:0:0:0:
320,192,11137,128,0,11225:0:0:0:0:
448,192,11314,128,0,11402:0:0:0:0:
320,192,11490,128,0,11578:0:0:0:0:
64,192,11667,128,0,11755:0:0:0:0:
192,192,12020,128,0,12108:0:0:0:0:
320,192,12020,128,0,12108:0:0:0:0:
64,192,12020,128,0,12284:0:0:0:0:
192,192,12373,1,0,0:0:0:0:
448,192,12549,128,0,12637:0:0:0:0:
64,192,12549,128,0,12814:0:0:0:0:
192,192,12725,1,0,0:0:0:0:
448,192,12902,128,0,12990:0:0:0:0:
320,192,13078,128,0,13167:0:0:0:0:
64,192,13078,128,0,13343:0:0:0:0:
448,192,13123,128,0,13211:0:0:0:0:
192,192,13255,128,0,13343:0:0:0:0:
64,192,13608,128,0,13873:0:0:0:0:
448,192,13608,1,0,0:0:0:0:
320,192,13784,1,0,0:0:0:0:
192,192,13961,1,0,0:0:0:0:
448,192,14137,128,0,14225:0:0:0:0:
320,192,14490,128,0,14578:0:0:0:0:
192,192,14843,128,0,14931:0:0:0:0:
64,192,14843,128,0,15108:0:0:0:0:
320,192,14887,128,0,15373:0:0:0:0:
448,192,15373,128,0,15637:0:0:0:0:
192,192,15373,128,0,15461:0:0:0:0:
64,192,15373,128,0,15637:0:0:0:0:
192,192,15549,128,0,15637:0:0:0:0:
448,192,15725,128,0,15814:0:0:0:0:
192,192,15902,128,0,16431:0:0:0:0:
448,192,15902,128,0,15990:0:0:0:0:
64,192,15902,128,0,16167:0:0:0:0:
64,192,16431,128,0,16696:0:0:0:0:
192,192,16608,1,0,0:0:0:0:
448,192,16784,1,0,0:0:0:0:
320,192,16961,128,0,17049:0:0:0:0:
64,192,17314,128,0,17402:0:0:0:0:
192,192,17490,128,0,17578:0:0:0:0:
320,192,17667,128,0,17755:0:0:0:0:
64,192,17667,128,0,17931:0:0:0:0:
192,192,17711,128,0,17799:0:0:0:0:
192,192,18020,1,0,0:0:0:0:
448,192,18196,128,0,18284:0:0:0:0:
64,192,18196,128,0,18461:0:0:0:0:
320,192,18373,1,0,0:0:0:0:
192,192,18725,128,0,18814:0:0:0:0:
64,192,18725,128,0,18990:0:0:0:0:
64,192,19255,128,0,19520:0:0:0:0:
192,192,19431,1,0,0:0:0:0:
448,192,19608,1,0,0:0:0:0:
320,192,19784,1,0,0:0:0:0:
320,192,20490,128,0,20578:0:0:0:0:
64,192,20490,128,0,20755:0:0:0:0:
448,192,20534,128,0,21814:0:0:0:0:
64,192,21020,128,0,21284:0:0:0:0:
64,192,21549,128,0,21814:0:0:0:0:
192,192,21814,1,0,0:0:0:0:
320,192,21858,1,0,0:0:0:0:
448,192,21902,128,0,23225:0:0:0:0:
64,192,22078,128,0,22343:0:0:0:0:
320,192,22608,128,0,23225:0:0:0:0:
64,192,23137,128,0,23314:0:0:0:0:
192,192,23314,128,0,23578:0:0:0:0:
448,192,23314,1,0,0:0:0:0:
320,192,23358,1,0,0:0:0:0:
192,192,23667,128,0,23843:0:0:0:0:
320,192,23843,128,0,24020:0:0:0:0:
192,192,24020,128,0,24373:0:0:0:0:
64,192,24373,128,0,24549:0:0:0:0:
448,192,24373,1,0,0:0:0:0:
320,192,24417,1,0,0:0:0:0:
192,192,24549,128,0,24725:0:0:0:0:
320,192,24902,128,0,25078:0:0:0:0:
64,192,25078,1,0,0:0:0:0:
448,192,25255,128,0,25784:0:0:0:0:
192,192,25431,1,0,0:0:0:0:
64,192,25784,128,0,25961:0:0:0:0:
320,192,25784,1,0,0:0:0:0:
192,192,25961,128,0,26137:0:0:0:0:
320,192,26137,128,0,26490:0:0:0:0:
448,192,26137,1,0,0:0:0:0:
64,192,26181,1,0,0:0:0:0:
448,192,26490,128,0,26667:0:0:0:0:
64,192,26490,1,0,0:0:0:0:
320,192,26667,128,0,26843:0:0:0:0:
192,192,26843,1,0,0:0:0:0:
192,192,27020,128,0,27196:0:0:0:0:
320,192,27196,1,0,0:0:0:0:
448,192,27240,1,0,0:0:0:0:
64,192,27373,128,0,28255:0:0:0:0:
192,192,27902,1,0,0:0:0:0:
320,192,28255,1,0,0:0:0:0:
448,192,28608,1,0,0:0:0:0:
192,192,28784,128,0,28961:0:0:0:0:
320,192,28961,128,0,29049:0:0:0:0:
64,192,28961,1,0,0:0:0:0:
448,192,29005,1,0,0:0:0:0:
320,192,29137,128,0,29225:0:0:0:0:
320,192,29314,128,0,29490:0:0:0:0:
64,192,29314,1,0,0:0:0:0:
192,192,29490,128,0,29667:0:0:0:0:
320,192,29667,128,0,29843:0:0:0:0:
448,192,29667,1,0,0:0:0:0:
64,192,30020,128,0,30196:0:0:0:0:
192,192,30020,1,0,0:0:0:0:
448,192,30064,1,0,0:0:0:0:
192,192,30196,128,0,30549:0:0:0:0:
320,192,30549,128,0,30902:0:0:0:0:
64,192,30725,1,0,0:0:0:0:
448,192,30902,128,0,31255:0:0:0:0:
192,192,31078,1,0,0:0:0:0:
320,192,31431,1,0,0:0:0:0:
64,192,31431,128,0,31608:0:0:0:0:
192,192,31608,128,0,31784:0:0:0:0:
448,192,31784,128,0,32137:0:0:0:0:
64,192,31784,1,0,0:0:0:0:
320,192,31828,1,0,0:0:0:0:
192,192,32137,128,0,32225:0:0:0:0:
64,192,32137,1,0,0:0:0:0:
192,192,32314,128,0,32490:0:0:0:0:
448,192,32490,1,0,0:0:0:0:
320,192,32667,128,0,32843:0:0:0:0:
64,192,32843,1,0,0:0:0:0:
448,192,32887,1,0,0:0:0:0:
192,192,33020,128,0,34078:0:0:0:0:
64,192,33549,1,0,0:0:0:0:
320,192,33902,1,0,0:0:0:0:
448,192,34255,1,0,0:0:0:0:
192,192,34431,128,0,34608:0:0:0:0:
320,192,34608,128,0,34696:0:0:0:0:
64,192,34608,128,0,34961:0:0:0:0:
448,192,34652,1,0,0:0:0:0:
320,192,34784,128,0,34873:0:0:0:0:
320,192,34961,128,0,35049:0:0:0:0:
192,192,34961,1,0,0:0:0:0:
320,192,35137,128,0,35225:0:0:0:0:
320,192,35314,128,0,35667:0:0:0:0:
64,192,35314,128,0,35667:0:0:0:0:
192,192,35667,128,0,35843:0:0:0:0:
448,192,35667,1,0,0:0:0:0:
64,192,35711,1,0,0:0:0:0:
320,192,35843,128,0,36725:0:0:0:0:
64,192,36020,128,0,36373:0:0:0:0:
192,192,36373,1,0,0:0:0:0:
64,192,36725,128,0,37078:0:0:0:0:
448,192,36725,1,0,0:0:0:0:
320,192,37078,1,0,0:0:0:0:
192,192,37255,128,0,37431:0:0:0:0:
320,192,37431,128,0,37520:0:0:0:0:
64,192,37431,128,0,37784:0:0:0:0:
448,192,37475,1,0,0:0:0:0:
320,192,37608,128,0,37696:0:0:0:0:
320,192,37784,128,0,37873:0:0:0:0:
192,192,37784,1,0,0:0:0:0:
320,192,37961,128,0,38049:0:0:0:0:
320,192,38137,128,0,38490:0:0:0:0:
64,192,38137,128,0,38490:0:0:0:0:
192,192,38490,128,0,38667:0:0:0:0:
448,192,38490,1,0,0:0:0:0:
320,192,38534,1,0,0:0:0:0:
448,192,38667,128,0,39196:0:0:0:0:
64,192,38843,128,0,39196:0:0:0:0:
192,192,39196,1,0,0:0:0:0:
448,192,39549,128,0,39725:0:0:0:0:
64,192,39549,128,0,39902:0:0:0:0:
320,192,39549,1,0,0:0:0:0:
320,192,39725,128,0,39902:0:0:0:0:
192,192,39902,128,0,40078:0:0:0:0:
448,192,39902,1,0,0:0:0:0:
64,192,40255,128,0,41314:0:0:0:0:
192,192,40255,128,0,41667:0:0:0:0:
320,192,40608,1,0,0:0:0:0:
448,192,40961,1,0,0:0:0:0:
320,192,41314,128,0,41490:0:0:0:0:
64,192,41490,128,0,42373:0:0:0:0:
320,192,41667,128,0,42902:0:0:0:0:
448,192,41667,1,0,0:0:0:0:
192,192,42020,1,0,0:0:0:0:
448,192,42373,1,0,0:0:0:0:
192,192,42725,128,0,43078:0:0:0:0:
64,192,42725,1,0,0:0:0:0:
320,192,43078,128,0,44490:0:0:0:0:
448,192,43078,128,0,43784:0:0:0:0:
64,192,43078,128,0,43608:0:0:0:0:
64,192,43696,128,0,43873:0:0:0:0:
192,192,43784,128,0,44049:0:0:0:0:
448,192,43873,128,0,43961:0:0:0:0:
64,192,43961,128,0,44137:0:0:0:0:
448,192,44049,128,0,44314:0:0:0:0:
192,192,44137,128,0,44225:0:0:0:0:
64,192,44225,128,0,44490:0:0:0:0:
192,192,44314,128,0,44490:0:0:0:0:
448,192,44402,128,0,44490:0:0:0:0:
64,192,44843,128,0,45020:0:0:0:0:
192,192,45020,128,0,45196:0:0:0:0:
448,192,45196,128,0,45373:0:0:0:0:
320,192,45373,128,0,45549:0:0:0:0:
64,192,45549,128,0,45902:0:0:0:0:
320,192,45902,128,0,46608:0:0:0:0:
192,192,45902,128,0,46608:0:0:0:0:
448,192,45902,128,0,46608:0:0:0:0:
64,192,46608,128,0,47137:0:0:0:0:
192,192,46784,128,0,47137:0:0:0:0:
448,192,46961,128,0,47137:0:0:0:0:
320,192,47137,128,0,47314:0:0:0:0:
192,192,47314,128,0,47931:0:0:0:0:
448,192,47314,128,0,47931:0:0:0:0:
64,192,47314,128,0,47931:0:0:0:0:
64,192,48020,128,0,48373:0:0:0:0:
448,192,48020,128,0,48373:0:0:0:0:
192,192,48373,128,0,48725:0:0:0:0:
320,192,48373,128,0,48461:0:0:0:0:
320,192,48549,128,0,48637:0:0:0:0:
320,192,48725,128,0,49078:0:0:0:0:
448,192,48725,128,0,49078:0:0:0:0:
64,192,48725,128,0,49078:0:0:0:0:
320,192,49255,128,0,49608:0:0:0:0:
448,192,49255,128,0,49608:0:0:0:0:
64,192,49255,128,0,49608:0:0:0:0:
192,192,49784,128,0,50402:0:0:0:0:
320,192,49784,128,0,50314:0:0:0:0:
448,192,49784,128,0,50225:0:0:0:0:
448,192,50490,1,0,0:0:0:0:
64,192,50490,128,0,50667:0:0:0:0:
192,192,50667,128,0,51020:0:0:0:0:
448,192,50843,128,0,51196:0:0:0:0:
320,192,51020,128,0,51284:0:0:0:0:
64,192,51020,1,0,0:0:0:0:
64,192,51196,128,0,51461:0:0:0:0:
192,192,51196,128,0,51373:0:0:0:0:
448,192,51284,1,0,0:0:0:0:
320,192,51373,1,0,0:0:0:0:
192,192,51461,1,0,0:0:0:0:
64,192,51549,128,0,52255:0:0:0:0:
320,192,51549,128,0,52255:0:0:0:0:
448,192,51549,128,0,52255:0:0:0:0:
192,192,52255,128,0,52608:0:0:0:0:
320,192,52608,1,0,0:0:0:0:
192,192,52784,1,0,0:0:0:0:
320,192,52873,1,0,0:0:0:0:
448,192,52961,128,0,53667:0:0:0:0:
192,192,52961,128,0,53667:0:0:0:0:
64,192,52961,128,0,53667:0:0:0:0:
320,192,53667,128,0,54020:0:0:0:0:
192,192,54020,128,0,54373:0:0:0:0:
320,192,54373,128,0,54725:0:0:0:0:
448,192,54373,128,0,54725:0:0:0:0:
64,192,54373,128,0,54725:0:0:0:0:
320,192,54902,128,0,55255:0:0:0:0:
192,192,54902,128,0,55255:0:0:0:0:
448,192,54902,128,0,55255:0:0:0:0:
192,192,55431,128,0,55873:0:0:0:0:
320,192,55431,128,0,55961:0:0:0:0:
448,192,55431,128,0,56049:0:0:0:0:
64,192,56137,128,0,56314:0:0:0:0:
192,192,56314,128,0,56490:0:0:0:0:
448,192,56490,128,0,56667:0:0:0:0:
320,192,56667,128,0,56843:0:0:0:0:
64,192,56843,128,0,57196:0:0:0:0:
192,192,57196,128,0,57902:0:0:0:0:
320,192,57196,128,0,57902:0:0:0:0:
448,192,57196,128,0,57902:0:0:0:0:
64,192,57902,128,0,58431:0:0:0:0:
320,192,58078,128,0,58431:0:0:0:0:
448,192,58255,128,0,58431:0:0:0:0:
192,192,58431,128,0,58608:0:0:0:0:
64,192,58608,128,0,59314:0:0:0:0:
320,192,58608,128,0,59314:0:0:0:0:
448,192,58608,128,0,59314:0:0:0:0:
192,192,59314,128,0,59402:0:0:0:0:
320,192,59402,128,0,59490:0:0:0:0:
192,192,59490,128,0,59667:0:0:0:0:
448,192,59667,128,0,60020:0:0:0:0:
320,192,60020,128,0,60373:0:0:0:0:
192,192,60020,128,0,60373:0:0:0:0:
64,192,60020,128,0,60373:0:0:0:0:
64,192,60549,128,0,60902:0:0:0:0:
192,192,60549,128,0,60902:0:0:0:0:
448,192,60549,128,0,60902:0:0:0:0:
64,192,61078,128,0,61431:0:0:0:0:
320,192,61078,128,0,61608:0:0:0:0:
448,192,61078,128,0,61784:0:0:0:0:
192,192,61431,128,0,61520:0:0:0:0:
64,192,61520,128,0,61608:0:0:0:0:
192,192,61608,128,0,61696:0:0:0:0:
64,192,61696,128,0,61784:0:0:0:0:
448,192,61961,128,0,62049:0:0:0:0:
192,192,62049,128,0,62137:0:0:0:0:
320,192,62137,128,0,62225:0:0:0:0:
192,192,62225,128,0,62314:0:0:0:0:
64,192,62314,128,0,62755:0:0:0:0:
320,192,62402,128,0,62578:0:0:0:0:
192,192,62490,128,0,62667:0:0:0:0:
448,192,62578,128,0,62755:0:0:0:0:
320,192,62667,128,0,62755:0:0:0:0:
192,192,62755,128,0,62843:0:0:0:0:
64,192,62843,128,0,63196:0:0:0:0:
320,192,62843,128,0,63196:0:0:0:0:
448,192,62843,128,0,63196:0:0:0:0:
64,192,63373,128,0,63725:0:0:0:0:
192,192,63373,128,0,63725:0:0:0:0:
448,192,63373,128,0,63725:0:0:0:0:
192,192,63902,128,0,64961:0:0:0:0:
320,192,63902,128,0,64784:0:0:0:0:
448,192,63902,128,0,64696:0:0:0:0:
64,192,64608,1,0,0:0:0:0:
448,192,64784,128,0,64873:0:0:0:0:
320,192,64873,128,0,64961:0:0:0:0:
448,192,64961,1,0,0:0:0:0:
320,192,65049,1,0,0:0:0:0:
192,192,65137,1,0,0:0:0:0:
320,192,65314,1,0,0:0:0:0:
448,192,65314,1,0,0:0:0:0:
192,192,65402,1,0,0:0:0:0:
64,192,65490,1,0,0:0:0:0:
320,192,65578,1,0,0:0:0:0:
192,192,65667,128,0,66020:0:0:0:0:
64,192,65667,128,0,66020:0:0:0:0:
448,192,65667,128,0,66020:0:0:0:0:
64,192,66196,128,0,66549:0:0:0:0:
320,192,66196,128,0,66549:0:0:0:0:
448,192,66196,128,0,66549:0:0:0:0:
192,192,66725,128,0,66814:0:0:0:0:
64,192,66725,128,0,67784:0:0:0:0:
320,192,66814,128,0,66902:0:0:0:0:
192,192,66902,128,0,66990:0:0:0:0:
448,192,66990,128,0,67078:0:0:0:0:
320,192,67078,128,0,67167:0:0:0:0:
192,192,67167,128,0,67255:0:0:0:0:
448,192,67255,128,0,67343:0:0:0:0:
320,192,67343,128,0,67431:0:0:0:0:
448,192,67431,128,0,67520:0:0:0:0:
192,192,67520,128,0,67608:0:0:0:0:
320,192,67608,128,0,67696:0:0:0:0:
192,192,67696,128,0,67784:0:0:0:0:
448,192,67784,128,0,68137:0:0:0:0:
320,192,68137,1,0,0:0:0:0:
192,192,68137,1,0,0:0:0:0:
64,192,68137,1,0,0:0:0:0:
320,192,68490,128,0,68755:0:0:0:0:
448,192,68490,1,0,0:0:0:0:
64,192,68667,128,0,68755:0:0:0:0:
192,192,68755,128,0,69196:0:0:0:0:
320,192,68843,128,0,69020:0:0:0:0:
64,192,68843,1,0,0:0:0:0:
448,192,68931,128,0,69284:0:0:0:0:
320,192,69108,128,0,69373:0:0:0:0:
64,192,69196,1,0,0:0:0:0:
192,192,69284,128,0,69549:0:0:0:0:
448,192,69373,128,0,69461:0:0:0:0:
320,192,69461,128,0,69725:0:0:0:0:
64,192,69549,128,0,69814:0:0:0:0:
448,192,69549,1,0,0:0:0:0:
192,192,69637,128,0,69990:0:0:0:0:
320,192,69814,128,0,70431:0:0:0:0:
64,192,69902,1,0,0:0:0:0:
448,192,69990,128,0,70167:0:0:0:0:
192,192,70078,128,0,70255:0:0:0:0:
64,192,70167,128,0,70520:0:0:0:0:
448,192,70255,1,0,0:0:0:0:
192,192,70343,128,0,70608:0:0:0:0:
320,192,70520,128,0,70696:0:0:0:0:
64,192,70608,1,0,0:0:0:0:
192,192,70696,128,0,70873:0:0:0:0:
320,192,70784,128,0,70873:0:0:0:0:
448,192,70873,128,0,71225:0:0:0:0:
192,192,70961,128,0,71137:0:0:0:0:
320,192,70961,1,0,0:0:0:0:
64,192,71049,128,0,71225:0:0:0:0:
320,192,71137,128,0,71314:0:0:0:0:
192,192,71225,128,0,71314:0:0:0:0:
448,192,71314,128,0,71578:0:0:0:0:
64,192,71314,1,0,0:0:0:0:
320,192,71402,128,0,71578:0:0:0:0:
192,192,71490,128,0,72020:0:0:0:0:
64,192,71578,128,0,71931:0:0:0:0:
320,192,71667,1,0,0:0:0:0:
448,192,71755,128,0,72284:0:0:0:0:
320,192,71931,128,0,72196:0:0:0:0:
64,192,72020,1,0,0:0:0:0:
192,192,72108,128,0,72373:0:0:0:0:
64,192,72196,128,0,72284:0:0:0:0:
320,192,72284,128,0,72549:0:0:0:0:
64,192,72373,128,0,72725:0:0:0:0:
448,192,72373,1,0,0:0:0:0:
192,192,72461,128,0,72814:0:0:0:0:
320,192,72637,128,0,73078:0:0:0:0:
448,192,72725,1,0,0:0:0:0:
64,192,72814,128,0,72902:0:0:0:0:
192,192,72902,128,0,73696:0:0:0:0:
64,192,72990,128,0,73343:0:0:0:0:
448,192,73078,1,0,0:0:0:0:
320,192,73167,128,0,73520:0:0:0:0:
448,192,73343,128,0,73696:0:0:0:0:
64,192,73431,1,0,0:0:0:0:
320,192,73608,128,0,73784:0:0:0:0:
448,192,73784,128,0,74049:0:0:0:0:
192,192,73784,1,0,0:0:0:0:
320,192,73873,128,0,74049:0:0:0:0:
192,192,73961,128,0,74049:0:0:0:0:
64,192,74049,128,0,74137:0:0:0:0:
320,192,74137,128,0,74225:0:0:0:0:
448,192,74137,1,0,0:0:0:0:
64,192,74225,128,0,74314:0:0:0:0:
448,192,74314,128,0,74490:0:0:0:0:
192,192,74314,128,0,74490:0:0:0:0:
64,192,74402,128,0,74578:0:0:0:0:
320,192,74490,1,0,0:0:0:0:
448,192,74578,128,0,74755:0:0:0:0:
320,192,74667,128,0,74843:0:0:0:0:
192,192,74755,128,0,74931:0:0:0:0:
64,192,74843,1,0,0:0:0:0:
320,192,74931,128,0,75020:0:0:0:0:
448,192,75020,128,0,75108:0:0:0:0:
64,192,75020,128,0,75196:0:0:0:0:
192,192,75108,128,0,75196:0:0:0:0:
320,192,75196,128,0,75284:0:0:0:0:
448,192,75196,1,0,0:0:0:0:
64,192,75284,128,0,75461:0:0:0:0:
448,192,75373,128,0,75549:0:0:0:0:
192,192,75461,128,0,75637:0:0:0:0:
320,192,75549,1,0,0:0:0:0:
448,192,75637,128,0,75725:0:0:0:0:
320,192,75725,128,0,75902:0:0:0:0:
192,192,75725,128,0,75814:0:0:0:0:
64,192,75814,128,0,75990:0:0:0:0:
192,192,75902,1,0,0:0:0:0:
320,192,75990,128,0,76167:0:0:0:0:
192,192,76078,128,0,76255:0:0:0:0:
448,192,76167,128,0,76343:0:0:0:0:
64,192,76255,1,0,0:0:0:0:
192,192,76343,128,0,76431:0:0:0:0:
320,192,76431,128,0,76520:0:0:0:0:
64,192,76431,128,0,76608:0:0:0:0:
448,192,76520,128,0,76608:0:0:0:0:
192,192,76608,128,0,76696:0:0:0:0:
320,192,76608,1,0,0:0:0:0:
64,192,76696,128,0,76784:0:0:0:0:
320,192,76784,128,0,76961:0:0:0:0:
448,192,76784,128,0,76873:0:0:0:0:
192,192,76873,128,0,76961:0:0:0:0:
448,192,76961,128,0,77137:0:0:0:0:
64,192,76961,1,0,0:0:0:0:
320,192,77049,128,0,77225:0:0:0:0:
192,192,77137,128,0,77314:0:0:0:0:
64,192,77225,128,0,77402:0:0:0:0:
448,192,77314,1,0,0:0:0:0:
192,192,77402,128,0,77490:0:0:0:0:
448,192,77490,128,0,77667:0:0:0:0:
192,192,77578,128,0,77667:0:0:0:0:
320,192,77667,128,0,77755:0:0:0:0:
64,192,77667,1,0,0:0:0:0:
320,192,77843,128,0,77931:0:0:0:0:
64,192,77843,128,0,78020:0:0:0:0:
448,192,77931,128,0,78020:0:0:0:0:
192,192,78020,1,0,0:0:0:0:
64,192,78108,128,0,78196:0:0:0:0:
448,192,78196,128,0,78373:0:0:0:0:
192,192,78284,128,0,78549:0:0:0:0:
320,192,78373,1,0,0:0:0:0:
448,192,78549,128,0,78725:0:0:0:0:
320,192,78549,128,0,78637:0:0:0:0:
64,192,78637,128,0,78725:0:0:0:0:
320,192,78725,1,0,0:0:0:0:
192,192,78814,128,0,78902:0:0:0:0:
448,192,78902,128,0,79078:0:0:0:0:
192,192,78990,128,0,79078:0:0:0:0:
320,192,79078,128,0,79255:0:0:0:0:
64,192,79078,1,0,0:0:0:0:
448,192,79167,128,0,79343:0:0:0:0:
192,192,79255,128,0,79343:0:0:0:0:
64,192,79343,128,0,79431:0:0:0:0:
448,192,79431,128,0,79784:0:0:0:0:
192,192,79431,128,0,79608:0:0:0:0:
320,192,79608,128,0,79784:0:0:0:0:
192,192,79784,1,0,0:0:0:0:
64,192,79784,128,0,80137:0:0:0:0:
320,192,79873,1,0,0:0:0:0:
448,192,79961,1,0,0:0:0:0:
192,192,80049,1,0,0:0:0:0:
320,192,80137,1,0,0:0:0:0:
448,192,80137,1,0,0:0:0:0:
64,192,80225,128,0,80402:0:0:0:0:
192,192,80314,128,0,80843:0:0:0:0:
320,192,80402,1,0,0:0:0:0:
448,192,80490,1,0,0:0:0:0:
64,192,80490,128,0,80667:0:0:0:0:
320,192,80578,1,0,0:0:0:0:
448,192,80667,1,0,0:0:0:0:
64,192,80755,128,0,80931:0:0:0:0:
448,192,80843,128,0,81196:0:0:0:0:
320,192,80843,1,0,0:0:0:0:
192,192,80931,128,0,81108:0:0:0:0:
64,192,81020,128,0,81108:0:0:0:0:
320,192,81108,1,0,0:0:0:0:
192,192,81196,128,0,81284:0:0:0:0:
64,192,81196,128,0,81373:0:0:0:0:
448,192,81284,128,0,81461:0:0:0:0:
192,192,81373,128,0,81814:0:0:0:0:
64,192,81461,128,0,81549:0:0:0:0:
448,192,81549,128,0,81725:0:0:0:0:
320,192,81549,128,0,81637:0:0:0:0:
64,192,81637,128,0,81814:0:0:0:0:
320,192,81725,128,0,81902:0:0:0:0:
448,192,81814,128,0,81990:0:0:0:0:
64,192,81902,128,0,82078:0:0:0:0:
192,192,81902,128,0,82255:0:0:0:0:
320,192,81990,128,0,82167:0:0:0:0:
448,192,82078,128,0,82167:0:0:0:0:
64,192,82167,128,0,82255:0:0:0:0:
320,192,82255,1,0,0:0:0:0:
448,192,82255,128,0,82608:0:0:0:0:
320,192,82608,1,0,0:0:0:0:
192,192,82608,128,0,82784:0:0:0:0:
64,192,82696,128,0,82873:0:0:0:0:
448,192,82784,128,0,82873:0:0:0:0:
320,192,82873,128,0,83049:0:0:0:0:
64,192,82961,1,0,0:0:0:0:
448,192,82961,1,0,0:0:0:0:
192,192,83049,128,0,83225:0:0:0:0:
320,192,83137,1,0,0:0:0:0:
448,192,83225,128,0,83402:0:0:0:0:
64,192,83314,1,0,0:0:0:0:
192,192,83314,1,0,0:0:0:0:
320,192,83402,128,0,83578:0:0:0:0:
192,192,83490,128,0,83667:0:0:0:0:
448,192,83578,128,0,83755:0:0:0:0:
320,192,83667,1,0,0:0:0:0:
64,192,83667,128,0,83843:0:0:0:0:
192,192,83755,128,0,83843:0:0:0:0:
320,192,83843,1,0,0:0:0:0:
192,192,83931,1,0,0:0:0:0:
448,192,83931,128,0,84196:0:0:0:0:
320,192,84020,1,0,0:0:0:0:
64,192,84020,1,0,0:0:0:0:
192,192,84108,1,0,0:0:0:0:
320,192,84196,128,0,84373:0:0:0:0:
64,192,84284,128,0,84461:0:0:0:0:
192,192,84373,128,0,84549:0:0:0:0:
448,192,84373,1,0,0:0:0:0:
320,192,84461,128,0,84637:0:0:0:0:
64,192,84549,1,0,0:0:0:0:
448,192,84637,128,0,85078:0:0:0:0:
192,192,84725,1,0,0:0:0:0:
320,192,84725,1,0,0:0:0:0:
64,192,84814,1,0,0:0:0:0:
320,192,84902,1,0,0:0:0:0:
192,192,84990,1,0,0:0:0:0:
64,192,85078,128,0,85431:0:0:0:0:
320,192,85078,128,0,85255:0:0:0:0:
192,192,85255,128,0,85431:0:0:0:0:
448,192,85431,128,0,85608:0:0:0:0:
320,192,85431,128,0,85520:0:0:0:0:
192,192,85520,128,0,85608:0:0:0:0:
64,192,85608,128,0,85696:0:0:0:0:
448,192,85696,128,0,86049:0:0:0:0:
192,192,85784,1,0,0:0:0:0:
64,192,85784,128,0,85873:0:0:0:0:
320,192,85873,128,0,85961:0:0:0:0:
192,192,85961,128,0,86137:0:0:0:0:
64,192,86049,128,0,86137:0:0:0:0:
320,192,86137,1,0,0:0:0:0:
448,192,86137,128,0,86225:0:0:0:0:
192,192,86225,128,0,86402:0:0:0:0:
64,192,86314,128,0,86402:0:0:0:0:
448,192,86402,128,0,86490:0:0:0:0:
320,192,86490,128,0,86843:0:0:0:0:
192,192,86490,1,0,0:0:0:0:
192,192,86843,1,0,0:0:0:0:
64,192,86843,128,0,86931:0:0:0:0:
320,192,86931,128,0,87020:0:0:0:0:
448,192,87020,128,0,87196:0:0:0:0:
64,192,87108,128,0,87196:0:0:0:0:
320,192,87196,1,0,0:0:0:0:
192,192,87196,128,0,87284:0:0:0:0:
448,192,87284,128,0,87461:0:0:0:0:
64,192,87373,128,0,87549:0:0:0:0:
192,192,87461,128,0,87549:0:0:0:0:
448,192,87549,128,0,87814:0:0:0:0:
320,192,87549,1,0,0:0:0:0:
64,192,87637,128,0,87725:0:0:0:0:
192,192,87725,128,0,87902:0:0:0:0:
320,192,87814,128,0,87902:0:0:0:0:
64,192,87902,1,0,0:0:0:0:
448,192,87902,128,0,88255:0:0:0:0:
192,192,88078,1,0,0:0:0:0:
64,192,88255,5,0,0:0:0:0:
192,192,88299,1,0,0:0:0:0:
320,192,88343,1,0,0:0:0:0:
448,192,88387,1,0,0:0:0:0:
64,192,88431,1,0,0:0:0:0:
192,192,88475,1,0,0:0:0:0:
320,192,88520,1,0,0:0:0:0:
448,192,88564,1,0,0:0:0:0:
64,192,88608,1,0,0:0:0:0:
192,192,88652,1,0,0:0:0:0:
320,192,88696,1,0,0:0:0:0:
448,192,88740,1,0,0:0:0:0:
64,192,88784,1,0,0:0:0:0:
192,192,88828,1,0,0:0:0:0:
320,192,88873,1,0,0:0:0:0:
448,192,88917,1,0,0:0:0:0:
64,192,88961,1,0,0:0:0:0:
192,192,89005,1,0,0:0:0:0:
320,192,89049,1,0,0:0:0:0:
448,192,89093,1,0,0:0:0:0:
64,192,89137,1,0,0:0:0:0:
192,192,89181,1,0,0:0:0:0:
320,192,89225,1,0,0:0:0:0:
448,192,89270,1,0,0:0:0:0:
64,192,89314,1,0,0:0:0:0:
192,192,89358,1,0,0:0:0:0:
320,192,89402,1,0,0:0:0:0:
448,192,89446,1,0,0:0:0:0:
64,192,89490,1,0,0:0:0:0:
192,192,89534,1,0,0:0:0:0:
320,192,89578,1,0,0:0:0:0:
448,192,89623,1,0,0:0:0:0:
64,192,89667,1,0,0:0:0:0:
192,192,89843,1,0,0:0:0:0:
64,192,90020,128,0,90196:0:0:0:0:
320,192,90108,1,0,0:0:0:0:
192,192,90196,128,0,90373:0:0:0:0:
320,192,90284,1,0,0:0:0:0:
448,192,90373,128,0,90549:0:0:0:0:
192,192,90461,1,0,0:0:0:0:
320,192,90549,128,0,90725:0:0:0:0:
192,192,90637,128,0,90725:0:0:0:0:
64,192,90725,128,0,90902:0:0:0:0:
448,192,90814,128,0,90902:0:0:0:0:
320,192,90902,128,0,90990:0:0:0:0:
192,192,90990,128,0,91078:0:0:0:0:
64,192,91078,128,0,91608:0:0:0:0:
320,192,91431,128,0,91520:0:0:0:0:
192,192,91431,128,0,91520:0:0:0:0:
448,192,91520,128,0,91696:0:0:0:0:
192,192,91608,128,0,91784:0:0:0:0:
320,192,91696,128,0,91961:0:0:0:0:
448,192,91784,1,0,0:0:0:0:
64,192,91784,1,0,0:0:0:0:
192,192,91873,128,0,91961:0:0:0:0:
64,192,91961,128,0,92049:0:0:0:0:
448,192,92049,128,0,92137:0:0:0:0:
320,192,92137,128,0,92314:0:0:0:0:
64,192,92137,1,0,0:0:0:0:
192,192,92225,128,0,92314:0:0:0:0:
64,192,92314,128,0,92578:0:0:0:0:
320,192,92402,128,0,92490:0:0:0:0:
192,192,92490,128,0,92667:0:0:0:0:
448,192,92490,1,0,0:0:0:0:
320,192,92578,128,0,92843:0:0:0:0:
64,192,92667,128,0,92755:0:0:0:0:
192,192,92755,128,0,93108:0:0:0:0:
64,192,92843,128,0,93108:0:0:0:0:
448,192,92843,1,0,0:0:0:0:
320,192,92931,128,0,93108:0:0:0:0:
448,192,93108,128,0,93284:0:0:0:0:
64,192,93196,1,0,0:0:0:0:
192,192,93196,1,0,0:0:0:0:
320,192,93284,128,0,93549:0:0:0:0:
64,192,93373,128,0,93461:0:0:0:0:
192,192,93461,128,0,93549:0:0:0:0:
448,192,93549,128,0,93637:0:0:0:0:
64,192,93549,128,0,93637:0:0:0:0:
320,192,93637,128,0,93814:0:0:0:0:
448,192,93725,128,0,93902:0:0:0:0:
192,192,93725,128,0,93814:0:0:0:0:
64,192,93814,128,0,93902:0:0:0:0:
320,192,93902,128,0,93990:0:0:0:0:
192,192,93902,128,0,94167:0:0:0:0:
64,192,93990,128,0,94167:0:0:0:0:
448,192,94078,128,0,94167:0:0:0:0:
320,192,94167,128,0,94255:0:0:0:0:
64,192,94255,128,0,94520:0:0:0:0:
192,192,94255,128,0,94343:0:0:0:0:
448,192,94343,128,0,94520:0:0:0:0:
320,192,94520,128,0,94608:0:0:0:0:
64,192,94608,1,0,0:0:0:0:
192,192,94608,128,0,94873:0:0:0:0:
448,192,94696,128,0,94873:0:0:0:0:
320,192,94784,128,0,94873:0:0:0:0:
64,192,94873,128,0,94961:0:0:0:0:
320,192,94961,128,0,95225:0:0:0:0:
448,192,94961,128,0,95137:0:0:0:0:
64,192,95049,128,0,95402:0:0:0:0:
192,192,95137,128,0,95225:0:0:0:0:
448,192,95225,128,0,95314:0:0:0:0:
192,192,95314,128,0,95490:0:0:0:0:
320,192,95314,1,0,0:0:0:0:
448,192,95402,128,0,95578:0:0:0:0:
64,192,95490,128,0,95578:0:0:0:0:
192,192,95578,128,0,95755:0:0:0:0:
448,192,95667,1,0,0:0:0:0:
64,192,95667,128,0,95755:0:0:0:0:
320,192,95755,128,0,95931:0:0:0:0:
192,192,95843,128,0,95931:0:0:0:0:
448,192,95931,128,0,96196:0:0:0:0:
320,192,96020,128,0,96108:0:0:0:0:
64,192,96020,1,0,0:0:0:0:
320,192,96196,128,0,96284:0:0:0:0:
192,192,96196,128,0,96284:0:0:0:0:
192,192,96373,128,0,96461:0:0:0:0:
64,192,96373,1,0,0:0:0:0:
448,192,96461,128,0,96549:0:0:0:0:
320,192,96549,128,0,96637:0:0:0:0:
192,192,96637,128,0,96725:0:0:0:0:
448,192,96725,128,0,96814:0:0:0:0:
320,192,96725,128,0,96990:0:0:0:0:
192,192,96814,128,0,96990:0:0:0:0:
448,192,96902,128,0,97078:0:0:0:0:
64,192,96990,128,0,97167:0:0:0:0:
192,192,97078,1,0,0:0:0:0:
320,192,97078,128,0,97167:0:0:0:0:
448,192,97167,128,0,97343:0:0:0:0:
192,192,97255,128,0,97431:0:0:0:0:
320,192,97343,128,0,97520:0:0:0:0:
448,192,97431,1,0,0:0:0:0:
64,192,97431,128,0,97696:0:0:0:0:
192,192,97520,128,0,97696:0:0:0:0:
448,192,97608,128,0,97784:0:0:0:0:
320,192,97696,128,0,97784:0:0:0:0:
64,192,97784,128,0,97873:0:0:0:0:
192,192,97784,128,0,97873:0:0:0:0:
320,192,97873,128,0,97961:0:0:0:0:
192,192,97961,128,0,98137:0:0:0:0:
64,192,98049,128,0,98314:0:0:0:0:
320,192,98137,1,0,0:0:0:0:
448,192,98137,128,0,98402:0:0:0:0:
192,192,98225,128,0,98490:0:0:0:0:
320,192,98314,128,0,98402:0:0:0:0:
64,192,98402,128,0,98578:0:0:0:0:
448,192,98490,1,0,0:0:0:0:
320,192,98490,1,0,0:0:0:0:
192,192,98578,128,0,98755:0:0:0:0:
448,192,98755,128,0,98931:0:0:0:0:
192,192,98843,1,0,0:0:0:0:
320,192,98843,128,0,99108:0:0:0:0:
64,192,98931,128,0,99020:0:0:0:0:
192,192,99020,128,0,99196:0:0:0:0:
64,192,99108,128,0,99196:0:0:0:0:
320,192,99196,128,0,99549:0:0:0:0:
448,192,99196,128,0,99284:0:0:0:0:
192,192,99284,128,0,99461:0:0:0:0:
448,192,99373,128,0,99461:0:0:0:0:
64,192,99461,128,0,99549:0:0:0:0:
448,192,99549,128,0,99725:0:0:0:0:
192,192,99549,128,0,99637:0:0:0:0:
320,192,99637,128,0,99814:0:0:0:0:
192,192,99725,128,0,99902:0:0:0:0:
64,192,99814,128,0,99990:0:0:0:0:
448,192,99902,1,0,0:0:0:0:
320,192,99902,128,0,99990:0:0:0:0:
192,192,99990,128,0,100078:0:0:0:0:
448,192,100078,128,0,100431:0:0:0:0:
192,192,100167,128,0,100255:0:0:0:0:
320,192,100255,128,0,100343:0:0:0:0:
64,192,100255,128,0,100431:0:0:0:0:
320,192,100431,128,0,100520:0:0:0:0:
448,192,100520,128,0,100608:0:0:0:0:
320,192,100608,128,0,100784:0:0:0:0:
192,192,100608,1,0,0:0:0:0:
64,192,100696,128,0,100873:0:0:0:0:
192,192,100784,128,0,101049:0:0:0:0:
320,192,100873,128,0,101049:0:0:0:0:
64,192,100961,128,0,101137:0:0:0:0:
448,192,100961,1,0,0:0:0:0:
448,192,101137,128,0,101225:0:0:0:0:
320,192,101137,1,0,0:0:0:0:
192,192,101225,128,0,101314:0:0:0:0:
448,192,101314,128,0,101490:0:0:0:0:
320,192,101314,1,0,0:0:0:0:
64,192,101402,128,0,101490:0:0:0:0:
320,192,101490,128,0,101578:0:0:0:0:
192,192,101578,128,0,101667:0:0:0:0:
64,192,101667,128,0,101843:0:0:0:0:
320,192,101667,128,0,101755:0:0:0:0:
448,192,101755,128,0,101931:0:0:0:0:
320,192,101843,128,0,102020:0:0:0:0:
192,192,101931,128,0,102020:0:0:0:0:
64,192,102020,1,0,0:0:0:0:
448,192,102020,1,0,0:0:0:0:
320,192,102373,1,0,0:0:0:0:
448,192,102373,128,0,102814:0:0:0:0:
64,192,102725,128,0,102814:0:0:0:0:
192,192,102725,1,0,0:0:0:0:
320,192,102814,128,0,102990:0:0:0:0:
448,192,102902,128,0,103078:0:0:0:0:
192,192,102990,128,0,103255:0:0:0:0:
64,192,103078,1,0,0:0:0:0:
320,192,103078,128,0,103167:0:0:0:0:
448,192,103167,128,0,103255:0:0:0:0:
320,192,103255,128,0,103343:0:0:0:0:
64,192,103343,128,0,103431:0:0:0:0:
192,192,103343,1,0,0:0:0:0:
448,192,103431,128,0,103520:0:0:0:0:
320,192,103431,128,0,103608:0:0:0:0:
192,192,103520,128,0,103608:0:0:0:0:
64,192,103608,128,0,103696:0:0:0:0:
448,192,103608,1,0,0:0:0:0:
320,192,103696,128,0,104137:0:0:0:0:
192,192,103784,128,0,103961:0:0:0:0:
448,192,103784,128,0,104049:0:0:0:0:
64,192,103961,128,0,104049:0:0:0:0:
192,192,104049,128,0,104225:0:0:0:0:
64,192,104137,1,0,0:0:0:0:
448,192,104137,128,0,104314:0:0:0:0:
320,192,104225,128,0,104314:0:0:0:0:
448,192,104402,128,0,104578:0:0:0:0:
320,192,104490,128,0,104578:0:0:0:0:
192,192,104490,1,0,0:0:0:0:
64,192,104578,128,0,104667:0:0:0:0:
192,192,104667,128,0,104755:0:0:0:0:
448,192,104755,128,0,104843:0:0:0:0:
64,192,104755,1,0,0:0:0:0:
192,192,104843,128,0,105108:0:0:0:0:
320,192,104843,128,0,104931:0:0:0:0:
64,192,104931,128,0,105020:0:0:0:0:
448,192,105020,128,0,105108:0:0:0:0:
320,192,105020,128,0,105196:0:0:0:0:
64,192,105108,128,0,105373:0:0:0:0:
192,192,105196,128,0,105284:0:0:0:0:
448,192,105196,1,0,0:0:0:0:
320,192,105284,128,0,105461:0:0:0:0:
192,192,105373,128,0,105461:0:0:0:0:
64,192,105461,128,0,105814:0:0:0:0:
320,192,105549,128,0,105725:0:0:0:0:
192,192,105549,1,0,0:0:0:0:
448,192,105637,128,0,105814:0:0:0:0:
320,192,105814,128,0,105902:0:0:0:0:
192,192,105902,1,0,0:0:0:0:
64,192,105902,128,0,106078:0:0:0:0:
320,192,105990,128,0,106078:0:0:0:0:
192,192,106078,128,0,106167:0:0:0:0:
320,192,106167,128,0,106255:0:0:0:0:
64,192,106167,1,0,0:0:0:0:
448,192,106255,128,0,106431:0:0:0:0:
192,192,106255,128,0,106520:0:0:0:0:
64,192,106343,128,0,106520:0:0:0:0:
320,192,106431,128,0,106696:0:0:0:0:
448,192,106520,128,0,106608:0:0:0:0:
192,192,106608,128,0,106873:0:0:0:0:
64,192,106608,1,0,0:0:0:0:
448,192,106696,128,0,106784:0:0:0:0:
320,192,106784,128,0,106961:0:0:0:0:
448,192,106873,128,0,107225:0:0:0:0:
192,192,106961,128,0,107314:0:0:0:0:
64,192,106961,1,0,0:0:0:0:
320,192,107049,128,0,107225:0:0:0:0:
64,192,107225,128,0,107490:0:0:0:0:
448,192,107314,1,0,0:0:0:0:
320,192,107314,1,0,0:0:0:0:
320,192,107490,128,0,107667:0:0:0:0:
192,192,107490,128,0,107578:0:0:0:0:
192,192,107667,128,0,107755:0:0:0:0:
448,192,107667,1,0,0:0:0:0:
64,192,107755,128,0,107843:0:0:0:0:
448,192,107843,128,0,107931:0:0:0:0:
320,192,107931,128,0,108020:0:0:0:0:
192,192,108020,1,0,0:0:0:0:
64,192,108020,128,0,108373:0:0:0:0:
448,192,108108,128,0,108284:0:0:0:0:
320,192,108196,128,0,108284:0:0:0:0:
192,192,108284,128,0,108373:0:0:0:0:
320,192,108373,1,0,0:0:0:0:
448,192,108373,128,0,108637:0:0:0:0:
64,192,108461,128,0,108637:0:0:0:0:
192,192,108549,128,0,108637:0:0:0:0:
320,192,108637,128,0,108725:0:0:0:0:
192,192,108725,1,0,0:0:0:0:
64,192,108725,128,0,108990:0:0:0:0:
448,192,108814,128,0,108990:0:0:0:0:
320,192,108902,128,0,108990:0:0:0:0:
192,192,108990,128,0,109078:0:0:0:0:
448,192,109078,128,0,109343:0:0:0:0:
320,192,109078,128,0,109343:0:0:0:0:
64,192,109431,1,0,0:0:0:0:
448,192,109431,128,0,109696:0:0:0:0:
320,192,109520,128,0,109608:0:0:0:0:
192,192,109608,128,0,109784:0:0:0:0:
320,192,109696,128,0,109784:0:0:0:0:
448,192,109784,1,0,0:0:0:0:
64,192,109784,128,0,110049:0:0:0:0:
192,192,109873,128,0,109961:0:0:0:0:
320,192,109961,128,0,110137:0:0:0:0:
192,192,110049,128,0,110137:0:0:0:0:
64,192,110137,1,0,0:0:0:0:
448,192,110137,128,0,110490:0:0:0:0:
320,192,110225,128,0,110314:0:0:0:0:
192,192,110314,128,0,110402:0:0:0:0:
320,192,110402,128,0,110490:0:0:0:0:
64,192,110490,128,0,110608:0:0:0:0:
192,192,110490,128,0,110608:0:0:0:0:
192,192,110667,128,0,110784:0:0:0:0:
64,192,110667,128,0,110784:0:0:0:0:
320,192,110843,128,0,111020:0:0:0:0:
448,192,110843,128,0,111108:0:0:0:0:
64,192,110931,128,0,111196:0:0:0:0:
192,192,111020,128,0,111108:0:0:0:0:
320,192,111108,128,0,111196:0:0:0:0:
448,192,111196,128,0,111373:0:0:0:0:
192,192,111196,128,0,111284:0:0:0:0:
64,192,111284,128,0,111549:0:0:0:0:
192,192,111373,128,0,111461:0:0:0:0:
448,192,111461,128,0,111549:0:0:0:0:
192,192,111549,128,0,111814:0:0:0:0:
320,192,111549,128,0,111637:0:0:0:0:
64,192,111637,128,0,111814:0:0:0:0:
320,192,111725,128,0,111814:0:0:0:0:
448,192,111814,128,0,111902:0:0:0:0:
64,192,111902,128,0,112078:0:0:0:0:
192,192,111902,128,0,112167:0:0:0:0:
320,192,111990,128,0,112167:0:0:0:0:
448,192,112078,128,0,112255:0:0:0:0:
64,192,112167,128,0,112255:0:0:0:0:
192,192,112255,1,0,0:0:0:0:
320,192,112255,128,0,112343:0:0:0:0:
320,192,112431,128,0,112520:0:0:0:0:
320,192,112608,128,0,112696:0:0:0:0:
320,192,112784,128,0,112873:0:0:0:0:
320,192,112961,128,0,113049:0:0:0:0:
64,192,112961,128,0,113314:0:0:0:0:
320,192,113137,128,0,113225:0:0:0:0:
192,192,113314,128,0,113490:0:0:0:0:
448,192,113314,1,0,0:0:0:0:
320,192,113490,128,0,113667:0:0:0:0:
64,192,113667,1,0,0:0:0:0:
448,192,113667,128,0,113931:0:0:0:0:
320,192,113755,128,0,114020:0:0:0:0:
192,192,113843,128,0,113931:0:0:0:0:
64,192,113931,128,0,114196:0:0:0:0:
192,192,114020,128,0,114196:0:0:0:0:
448,192,114020,1,0,0:0:0:0:
320,192,114108,128,0,114284:0:0:0:0:
448,192,114196,128,0,114284:0:0:0:0:
192,192,114284,128,0,114549:0:0:0:0:
320,192,114373,1,0,0:0:0:0:
448,192,114373,128,0,114637:0:0:0:0:
64,192,114461,128,0,114725:0:0:0:0:
320,192,114549,128,0,114637:0:0:0:0:
192,192,114637,128,0,114725:0:0:0:0:
448,192,114725,128,0,114990:0:0:0:0:
320,192,114725,1,0,0:0:0:0:
64,192,114814,128,0,114990:0:0:0:0:
320,192,114902,128,0,115078:0:0:0:0:
192,192,114990,128,0,115431:0:0:0:0:
64,192,115078,128,0,115255:0:0:0:0:
448,192,115078,1,0,0:0:0:0:
320,192,115167,128,0,115343:0:0:0:0:
448,192,115255,128,0,115343:0:0:0:0:
64,192,115343,128,0,115431:0:0:0:0:
320,192,115431,128,0,115696:0:0:0:0:
448,192,115431,1,0,0:0:0:0:
192,192,115520,128,0,115784:0:0:0:0:
448,192,115696,128,0,115961:0:0:0:0:
320,192,115784,128,0,115873:0:0:0:0:
64,192,115784,1,0,0:0:0:0:
192,192,115873,128,0,116137:0:0:0:0:
320,192,115961,128,0,116049:0:0:0:0:
448,192,116049,128,0,116402:0:0:0:0:
320,192,116137,128,0,116314:0:0:0:0:
64,192,116137,128,0,116225:0:0:0:0:
192,192,116225,128,0,116402:0:0:0:0:
64,192,116314,128,0,116490:0:0:0:0:
320,192,116402,128,0,116578:0:0:0:0:
192,192,116490,128,0,116667:0:0:0:0:
448,192,116490,1,0,0:0:0:0:
64,192,116578,128,0,116755:0:0:0:0:
448,192,116667,128,0,116843:0:0:0:0:
192,192,116755,128,0,116843:0:0:0:0:
320,192,116843,1,0,0:0:0:0:
64,192,116843,1,0,0:0:0:0:
448,192,116931,128,0,117108:0:0:0:0:
64,192,117020,128,0,117108:0:0:0:0:
320,192,117108,128,0,117284:0:0:0:0:
192,192,117108,128,0,117196:0:0:0:0:
448,192,117196,1,0,0:0:0:0:
64,192,117196,128,0,117373:0:0:0:0:
192,192,117284,128,0,117461:0:0:0:0:
448,192,117373,128,0,117461:0:0:0:0:
64,192,117461,128,0,117549:0:0:0:0:
192,192,117549,128,0,117637:0:0:0:0:
448,192,117549,1,0,0:0:0:0:
320,192,117637,128,0,117814:0:0:0:0:
448,192,117725,128,0,117814:0:0:0:0:
64,192,117814,128,0,117990:0:0:0:0:
192,192,117814,128,0,117902:0:0:0:0:
320,192,117902,1,0,0:0:0:0:
448,192,117902,128,0,118167:0:0:0:0:
192,192,117990,128,0,118078:0:0:0:0:
320,192,118078,128,0,118167:0:0:0:0:
64,192,118167,128,0,118343:0:0:0:0:
320,192,118255,1,0,0:0:0:0:
448,192,118255,1,0,0:0:0:0:
192,192,118343,128,0,118520:0:0:0:0:
64,192,118431,128,0,118520:0:0:0:0:
448,192,118520,128,0,118696:0:0:0:0:
320,192,118520,128,0,118696:0:0:0:0:
192,192,118608,1,0,0:0:0:0:
64,192,118608,1,0,0:0:0:0:
320,192,118784,128,0,118961:0:0:0:0:
192,192,118784,128,0,118873:0:0:0:0:
64,192,118961,128,0,119137:0:0:0:0:
448,192,118961,128,0,119049:0:0:0:0:
320,192,119049,128,0,119137:0:0:0:0:
448,192,119137,128,0,119314:0:0:0:0:
192,192,119137,128,0,119225:0:0:0:0:
320,192,119314,128,0,119578:0:0:0:0:
64,192,119314,1,0,0:0:0:0:
192,192,119402,128,0,119490:0:0:0:0:
448,192,119490,128,0,119667:0:0:0:0:
192,192,119578,128,0,119843:0:0:0:0:
320,192,119667,128,0,119843:0:0:0:0:
64,192,119667,1,0,0:0:0:0:
448,192,119755,128,0,119843:0:0:0:0:
64,192,119843,128,0,119931:0:0:0:0:
320,192,119931,128,0,120196:0:0:0:0:
192,192,120020,1,0,0:0:0:0:
448,192,120108,128,0,120284:0:0:0:0:
192,192,120196,128,0,120373:0:0:0:0:
320,192,120284,128,0,120373:0:0:0:0:
64,192,120373,128,0,120637:0:0:0:0:
448,192,120373,1,0,0:0:0:0:
192,192,120461,128,0,120725:0:0:0:0:
448,192,120549,128,0,120637:0:0:0:0:
320,192,120637,128,0,120814:0:0:0:0:
64,192,120725,128,0,120902:0:0:0:0:
448,192,120725,1,0,0:0:0:0:
192,192,120814,128,0,121078:0:0:0:0:
320,192,120902,128,0,120990:0:0:0:0:
64,192,120990,128,0,121078:0:0:0:0:
320,192,121078,128,0,121343:0:0:0:0:
448,192,121078,1,0,0:0:0:0:
192,192,121167,128,0,121431:0:0:0:0:
448,192,121343,128,0,121608:0:0:0:0:
64,192,121431,1,0,0:0:0:0:
320,192,121431,128,0,121520:0:0:0:0:
192,192,121520,128,0,121696:0:0:0:0:
320,192,121608,128,0,121961:0:0:0:0:
448,192,121696,128,0,121784:0:0:0:0:
192,192,121784,128,0,122137:0:0:0:0:
64,192,121784,128,0,121873:0:0:0:0:
448,192,121873,128,0,122049:0:0:0:0:
64,192,121961,128,0,122049:0:0:0:0:
320,192,122049,128,0,122137:0:0:0:0:
448,192,122137,128,0,122314:0:0:0:0:
64,192,122137,1,0,0:0:0:0:
320,192,122225,128,0,122402:0:0:0:0:
192,192,122314,128,0,122490:0:0:0:0:
64,192,122402,128,0,122578:0:0:0:0:
448,192,122490,1,0,0:0:0:0:
320,192,122490,128,0,122667:0:0:0:0:
192,192,122578,128,0,122667:0:0:0:0:
64,192,122667,128,0,122755:0:0:0:0:
192,192,122755,128,0,122843:0:0:0:0:
320,192,122843,128,0,122931:0:0:0:0:
448,192,122843,1,0,0:0:0:0:
320,192,123020,128,0,123108:0:0:0:0:
64,192,123020,128,0,123108:0:0:0:0:
448,192,123108,128,0,123284:0:0:0:0:
192,192,123196,1,0,0:0:0:0:
320,192,123196,128,0,123284:0:0:0:0:
64,192,123284,128,0,123461:0:0:0:0:
448,192,123373,128,0,123461:0:0:0:0:
192,192,123461,128,0,123725:0:0:0:0:
64,192,123549,1,0,0:0:0:0:
320,192,123549,128,0,123725:0:0:0:0:
448,192,123725,128,0,123814:0:0:0:0:
64,192,123814,128,0,123990:0:0:0:0:
320,192,123902,1,0,0:0:0:0:
448,192,123902,128,0,124078:0:0:0:0:
192,192,123990,128,0,124078:0:0:0:0:
320,192,124078,128,0,124167:0:0:0:0:
64,192,124167,128,0,124520:0:0:0:0:
192,192,124255,128,0,124431:0:0:0:0:
448,192,124343,128,0,124520:0:0:0:0:
320,192,124431,128,0,124608:0:0:0:0:
192,192,124520,128,0,124608:0:0:0:0:
64,192,124608,128,0,124961:0:0:0:0:
448,192,124608,1,0,0:0:0:0:
192,192,124784,128,0,124961:0:0:0:0:
320,192,124961,128,0,125049:0:0:0:0:
448,192,124961,1,0,0:0:0:0:
192,192,125049,128,0,125225:0:0:0:0:
320,192,125137,128,0,125225:0:0:0:0:
64,192,125225,128,0,125490:0:0:0:0:
192,192,125314,128,0,125490:0:0:0:0:
320,192,125314,128,0,125402:0:0:0:0:
448,192,125402,128,0,125578:0:0:0:0:
320,192,125578,128,0,125843:0:0:0:0:
64,192,125667,1,0,0:0:0:0:
448,192,125667,128,0,125843:0:0:0:0:
192,192,125755,128,0,125931:0:0:0:0:
64,192,125843,128,0,125931:0:0:0:0:
320,192,125931,128,0,126020:0:0:0:0:
448,192,125931,128,0,126020:0:0:0:0:
64,192,126020,128,0,126196:0:0:0:0:
192,192,126020,1,0,0:0:0:0:
448,192,126108,128,0,126284:0:0:0:0:
192,192,126196,128,0,126373:0:0:0:0:
320,192,126196,1,0,0:0:0:0:
64,192,126284,128,0,126549:0:0:0:0:
320,192,126373,128,0,126461:0:0:0:0:
448,192,126373,1,0,0:0:0:0:
192,192,126461,128,0,126549:0:0:0:0:
320,192,126549,128,0,126637:0:0:0:0:
448,192,126637,128,0,126990:0:0:0:0:
64,192,126725,1,0,0:0:0:0:
320,192,126725,128,0,126902:0:0:0:0:
192,192,126814,128,0,127078:0:0:0:0:
320,192,126990,128,0,127167:0:0:0:0:
448,192,127078,128,0,127255:0:0:0:0:
64,192,127078,1,0,0:0:0:0:
192,192,127167,128,0,127343:0:0:0:0:
320,192,127255,128,0,127343:0:0:0:0:
64,192,127343,1,0,0:0:0:0:
448,192,127343,128,0,127520:0:0:0:0:
192,192,127431,128,0,127608:0:0:0:0:
320,192,127431,128,0,127520:0:0:0:0:
64,192,127520,128,0,127696:0:0:0:0:
320,192,127608,128,0,127784:0:0:0:0:
448,192,127608,128,0,127696:0:0:0:0:
192,192,127696,128,0,127784:0:0:0:0:
448,192,127784,128,0,127961:0:0:0:0:
64,192,127784,1,0,0:0:0:0:
320,192,127873,128,0,128049:0:0:0:0:
192,192,127961,128,0,128049:0:0:0:0:
64,192,128049,128,0,128225:0:0:0:0:
320,192,128137,1,0,0:0:0:0:
192,192,128137,1,0,0:0:0:0:
448,192,128225,128,0,128402:0:0:0:0:
320,192,128402,128,0,128578:0:0:0:0:
192,192,128490,1,0,0:0:0:0:
448,192,128490,128,0,128667:0:0:0:0:
64,192,128578,128,0,128755:0:0:0:0:
192,192,128667,128,0,128755:0:0:0:0:
320,192,128755,128,0,128843:0:0:0:0:
448,192,128755,1,0,0:0:0:0:
192,192,128843,128,0,128931:0:0:0:0:
64,192,128843,1,0,0:0:0:0:
448,192,128931,128,0,129108:0:0:0:0:
192,192,129020,1,0,0:0:0:0:
320,192,129020,128,0,129108:0:0:0:0:
64,192,129108,128,0,129284:0:0:0:0:
320,192,129196,1,0,0:0:0:0:
448,192,129196,128,0,129373:0:0:0:0:
192,192,129284,128,0,129373:0:0:0:0:
320,192,129373,128,0,129461:0:0:0:0:
64,192,129461,128,0,129637:0:0:0:0:
448,192,129549,1,0,0:0:0:0:
192,192,129549,128,0,129637:0:0:0:0:
320,192,129637,128,0,129814:0:0:0:0:
448,192,129814,128,0,130078:0:0:0:0:
64,192,129902,1,0,0:0:0:0:
192,192,129902,128,0,130078:0:0:0:0:
320,192,130078,128,0,130255:0:0:0:0:
192,192,130255,128,0,130431:0:0:0:0:
64,192,130255,128,0,130343:0:0:0:0:
320,192,130431,128,0,130608:0:0:0:0:
448,192,130431,128,0,130520:0:0:0:0:
192,192,130608,1,0,0:0:0:0:
64,192,130608,128,0,130873:0:0:0:0:
448,192,130696,128,0,130873:0:0:0:0:
192,192,130784,128,0,130961:0:0:0:0:
320,192,130873,128,0,130961:0:0:0:0:
64,192,130961,1,0,0:0:0:0:
448,192,130961,128,0,131225:0:0:0:0:
320,192,131049,128,0,131225:0:0:0:0:
64,192,131137,128,0,131314:0:0:0:0:
192,192,131225,128,0,131314:0:0:0:0:
448,192,131314,1,0,0:0:0:0:
320,192,131314,128,0,131578:0:0:0:0:
192,192,131402,128,0,131667:0:0:0:0:
448,192,131490,128,0,131667:0:0:0:0:
64,192,131578,128,0,131667:0:0:0:0:
320,192,131667,128,0,131755:0:0:0:0:
448,192,131755,128,0,131843:0:0:0:0:
64,192,131843,128,0,131931:0:0:0:0:
192,192,131931,128,0,132020:0:0:0:0:
320,192,132020,1,0,0:0:0:0:
448,192,132020,128,0,132284:0:0:0:0:
64,192,132108,128,0,132284:0:0:0:0:
320,192,132196,128,0,132373:0:0:0:0:
192,192,132284,128,0,132373:0:0:0:0:
448,192,132373,1,0,0:0:0:0:
64,192,132373,128,0,132637:0:0:0:0:
192,192,132461,128,0,132637:0:0:0:0:
448,192,132549,128,0,132725:0:0:0:0:
320,192,132637,128,0,132725:0:0:0:0:
64,192,132725,1,0,0:0:0:0:
192,192,132725,128,0,132990:0:0:0:0:
320,192,132814,128,0,133078:0:0:0:0:
64,192,132902,128,0,133078:0:0:0:0:
448,192,132990,128,0,133078:0:0:0:0:
192,192,133078,128,0,133167:0:0:0:0:
64,192,133167,128,0,133255:0:0:0:0:
448,192,133255,128,0,133343:0:0:0:0:
320,192,133343,128,0,133431:0:0:0:0:
192,192,133431,128,0,133520:0:0:0:0:
64,192,133431,1,0,0:0:0:0:
320,192,133520,128,0,133608:0:0:0:0:
448,192,133520,1,0,0:0:0:0:
64,192,133608,1,0,0:0:0:0:
192,192,133608,128,0,133696:0:0:0:0:
448,192,133696,1,0,0:0:0:0:
320,192,133696,128,0,133784:0:0:0:0:
192,192,133784,128,0,134049:0:0:0:0:
320,192,133873,128,0,134049:0:0:0:0:
448,192,133961,128,0,134137:0:0:0:0:
64,192,134049,128,0,134137:0:0:0:0:
320,192,134137,1,0,0:0:0:0:
192,192,134137,128,0,134225:0:0:0:0:
64,192,134225,1,0,0:0:0:0:
448,192,134225,128,0,134314:0:0:0:0:
320,192,134314,1,0,0:0:0:0:
192,192,134314,128,0,134402:0:0:0:0:
64,192,134402,1,0,0:0:0:0:
448,192,134402,128,0,134490:0:0:0:0:
320,192,134490,128,0,134755:0:0:0:0:
192,192,134578,128,0,134755:0:0:0:0:
64,192,134667,128,0,134755:0:0:0:0:
448,192,134755,128,0,134843:0:0:0:0:
320,192,134843,1,0,0:0:0:0:
192,192,134843,1,0,0:0:0:0:
64,192,134887,1,0,0:0:0:0:
448,192,134931,1,0,0:0:0:0:
320,192,134975,1,0,0:0:0:0:
192,192,135020,1,0,0:0:0:0:
64,192,135064,1,0,0:0:0:0:
448,192,135108,1,0,0:0:0:0:
320,192,135152,1,0,0:0:0:0:
192,192,135196,1,0,0:0:0:0:
64,192,135240,1,0,0:0:0:0:
448,192,135284,1,0,0:0:0:0:
320,192,135328,1,0,0:0:0:0:
192,192,135373,1,0,0:0:0:0:
64,192,135417,1,0,0:0:0:0:
448,192,135461,1,0,0:0:0:0:
320,192,135505,1,0,0:0:0:0:
192,192,135549,1,0,0:0:0:0:
64,192,135549,128,0,136255:0:0:0:0:
448,192,136255,1,0,0:0:0:0:
320,192,136255,1,0,0:0:0:0:
