osu file format v14

[General]
AudioFilename: audio.mp3
AudioLeadIn: 0
PreviewTime: 67748
Countdown: 0
SampleSet: Soft
StackLeniency: 0.7
Mode: 3
LetterboxInBreaks: 0
SpecialStyle: 0
WidescreenStoryboard: 0

[Editor]
Bookmarks: 199395
DistanceSpacing: 1.5
BeatDivisor: 4
GridSize: 4
TimelineZoom: 1.899999

[Metadata]
Title:Sunshine
TitleUnicode:Sunshine
Artist:DJ Genki vs. Camellia feat. moimoi
ArtistUnicode:DJ Genki vs. かめりあ feat. moimoi
Creator:Turrim
Version:4K Brightness
Source:
Tags:ultra happy collection senya moimoi morinaga mayumi uk hardcore camellia DJ Genki 4th Solo Album
BeatmapID:1512399
BeatmapSetID:715728

[Difficulty]
HPDrainRate:8.5
CircleSize:4
OverallDifficulty:8
ApproachRate:5
SliderMultiplier:1.4
SliderTickRate:1

[Events]
//Background and Video events
0,0,"back2.jpg",0,0
//Break Periods
//Storyboard Layer 0 (Background)
//Storyboard Layer 1 (Fail)
//Storyboard Layer 2 (Pass)
//Storyboard Layer 3 (Foreground)
//Storyboard Sound Samples
Sample,85395,0,"shout.wav",40
Sample,86807,0,"shout.wav",40
Sample,91395,0,"shout.wav",40
Sample,102690,0,"shout.wav",40
Sample,107984,0,"shout.wav",40
Sample,109395,0,"shout.wav",40
Sample,113631,0,"shout.wav",40
Sample,130572,0,"shout.wav",40
Sample,131984,0,"shout.wav",40
Sample,181395,0,"finish.wav",40
Sample,220925,0,"shout.wav",40
Sample,222337,0,"shout.wav",40
Sample,226925,0,"shout.wav",40
Sample,243513,0,"shout.wav",40
Sample,244925,0,"shout.wav",40
Sample,249160,0,"shout.wav",40
Sample,266101,0,"shout.wav",40
Sample,267513,0,"shout.wav",40

[TimingPoints]
690,352.941176470588,4,2,1,15,1,0
23278,-100,4,2,1,30,0,0
45866,-100,4,2,1,40,0,0
85043,-66.6666666666667,4,2,1,40,0,0
85160,-111.111111111111,4,2,1,40,0,0
85278,-166.666666666667,4,2,1,40,0,0
85395,-100,4,2,1,40,0,0
91043,-200,4,2,1,40,0,0
91087,-161.290322580645,4,2,1,40,0,0
91131,-133.333333333333,4,2,1,40,0,0
91175,-117.647058823529,4,2,1,40,0,0
91219,-100,4,2,1,40,0,0
91263,-88.4955752212389,4,2,1,40,0,0
91307,-74.0740740740741,4,2,1,40,0,0
91351,-55.5555555555556,4,2,1,40,0,0
91395,-100,4,2,1,40,0,0
95984,-200,4,2,1,40,0,0
96028,-161.290322580645,4,2,1,40,0,0
96072,-133.333333333333,4,2,1,40,0,0
96116,-117.647058823529,4,2,1,40,0,0
96160,-100,4,2,1,40,0,0
96204,-88.4955752212389,4,2,1,40,0,0
96248,-74.0740740740741,4,2,1,40,0,0
96292,-55.5555555555556,4,2,1,40,0,0
96336,-100,4,2,1,40,0,0
102337,-200,4,2,1,40,0,0
102381,-161.290322580645,4,2,1,40,0,0
102425,-133.333333333333,4,2,1,40,0,0
102469,-117.647058823529,4,2,1,40,0,0
102513,-100,4,2,1,40,0,0
102557,-88.4955752212389,4,2,1,40,0,0
102601,-74.0740740740741,4,2,1,40,0,0
102645,-55.5555555555556,4,2,1,40,0,0
102689,-100,4,2,1,40,0,0
107278,-200,4,2,1,40,0,0
107322,-161.290322580645,4,2,1,40,0,0
107366,-133.333333333333,4,2,1,40,0,0
107410,-117.647058823529,4,2,1,40,0,0
107454,-100,4,2,1,40,0,0
107498,-88.4955752212389,4,2,1,40,0,0
107542,-74.0740740740741,4,2,1,40,0,0
107586,-55.5555555555556,4,2,1,40,0,0
107630,-100,4,2,1,40,0,0
113278,-66.6666666666667,4,2,1,40,0,0
113395,-111.111111111111,4,2,1,40,0,0
113513,-166.666666666667,4,2,1,40,0,0
113631,-100,4,2,1,40,0,1
134807,-100,4,2,1,40,0,1
136219,-100,4,2,1,40,0,0
179278,-100,4,2,1,35,0,0
179631,-100,4,2,1,30,0,0
179984,-100,4,2,1,25,0,0
180337,-100,4,2,1,20,0,0
180690,-100,4,2,1,15,0,0
181395,-100,4,2,1,40,0,0
226572,-200,4,2,1,40,0,0
226616,-161.290322580645,4,2,1,40,0,0
226660,-133.333333333333,4,2,1,40,0,0
226704,-117.647058823529,4,2,1,40,0,0
226748,-100,4,2,1,40,0,0
226792,-88.4955752212389,4,2,1,40,0,0
226836,-74.0740740740741,4,2,1,40,0,0
226880,-55.5555555555556,4,2,1,40,0,0
226925,-100,4,2,1,40,0,1
237866,-200,4,2,1,40,0,1
237910,-161.290322580645,4,2,1,40,0,1
237954,-133.333333333333,4,2,1,40,0,1
237998,-117.647058823529,4,2,1,40,0,1
238042,-100,4,2,1,40,0,1
238086,-88.4955752212389,4,2,1,40,0,1
238130,-74.0740740740741,4,2,1,40,0,1
238174,-55.5555555555556,4,2,1,40,0,1
238218,-100,4,2,1,40,0,1
247748,-100,4,2,1,40,0,0
248807,-66.6666666666667,4,2,1,40,0,0
248924,-111.111111111111,4,2,1,40,0,0
249042,-166.666666666667,4,2,1,40,0,0
249160,-100,4,2,1,40,0,1
271748,-100,4,2,1,40,0,0

[HitObjects]
64,192,690,5,0,0:0:0:0:
448,192,690,1,0,0:0:0:0:
320,192,690,1,0,0:0:0:0:
192,192,1042,1,0,0:0:0:0:
320,192,1219,1,0,0:0:0:0:
64,192,1395,1,0,0:0:0:0:
448,192,1395,1,0,0:0:0:0:
320,192,1748,1,0,0:0:0:0:
192,192,1748,1,0,0:0:0:0:
448,192,1925,1,0,0:0:0:0:
64,192,2101,1,0,0:0:0:0:
192,192,2278,1,0,0:0:0:0:
320,192,2454,1,0,0:0:0:0:
192,192,2631,1,0,0:0:0:0:
448,192,2807,1,0,0:0:0:0:
64,192,2807,1,0,0:0:0:0:
64,192,3160,1,0,0:0:0:0:
320,192,3160,1,0,0:0:0:0:
192,192,3513,1,0,0:0:0:0:
448,192,3513,1,0,0:0:0:0:
64,192,3866,1,0,0:0:0:0:
192,192,4042,1,0,0:0:0:0:
448,192,4219,1,0,0:0:0:0:
64,192,4219,1,0,0:0:0:0:
320,192,4395,1,0,0:0:0:0:
448,192,4572,1,0,0:0:0:0:
192,192,4572,1,0,0:0:0:0:
448,192,4925,1,0,0:0:0:0:
320,192,5101,1,0,0:0:0:0:
64,192,5278,1,0,0:0:0:0:
448,192,5454,1,0,0:0:0:0:
320,192,5631,1,0,0:0:0:0:
192,192,5631,1,0,0:0:0:0:
64,192,5984,1,0,0:0:0:0:
192,192,6160,1,0,0:0:0:0:
448,192,6337,1,0,0:0:0:0:
320,192,6337,1,0,0:0:0:0:
64,192,6689,1,0,0:0:0:0:
320,192,6866,1,0,0:0:0:0:
192,192,7042,1,0,0:0:0:0:
448,192,7042,1,0,0:0:0:0:
64,192,7219,1,0,0:0:0:0:
320,192,7395,1,0,0:0:0:0:
448,192,7395,1,0,0:0:0:0:
192,192,7748,1,0,0:0:0:0:
64,192,7925,1,0,0:0:0:0:
320,192,8101,1,0,0:0:0:0:
448,192,8278,1,0,0:0:0:0:
192,192,8454,1,0,0:0:0:0:
64,192,8454,1,0,0:0:0:0:
320,192,8631,1,0,0:0:0:0:
448,192,8807,1,0,0:0:0:0:
64,192,8984,1,0,0:0:0:0:
192,192,9160,1,0,0:0:0:0:
320,192,9160,1,0,0:0:0:0:
448,192,9513,1,0,0:0:0:0:
192,192,9689,1,0,0:0:0:0:
320,192,9866,1,0,0:0:0:0:
448,192,9866,1,0,0:0:0:0:
192,192,10042,1,0,0:0:0:0:
448,192,10219,1,0,0:0:0:0:
64,192,10219,1,0,0:0:0:0:
192,192,10572,1,0,0:0:0:0:
448,192,10748,1,0,0:0:0:0:
320,192,10925,1,0,0:0:0:0:
64,192,11101,1,0,0:0:0:0:
192,192,11278,1,0,0:0:0:0:
448,192,11278,1,0,0:0:0:0:
320,192,11454,1,0,0:0:0:0:
192,192,11631,1,0,0:0:0:0:
320,192,11984,1,0,0:0:0:0:
64,192,11984,1,0,0:0:0:0:
192,192,12337,1,0,0:0:0:0:
320,192,12513,1,0,0:0:0:0:
448,192,12689,1,0,0:0:0:0:
64,192,12689,1,0,0:0:0:0:
320,192,12866,1,0,0:0:0:0:
192,192,13042,1,0,0:0:0:0:
64,192,13042,1,0,0:0:0:0:
448,192,13219,1,0,0:0:0:0:
64,192,13395,1,0,0:0:0:0:
192,192,13572,1,0,0:0:0:0:
320,192,13748,1,0,0:0:0:0:
192,192,13925,1,0,0:0:0:0:
448,192,14101,1,0,0:0:0:0:
320,192,14101,1,0,0:0:0:0:
64,192,14454,1,0,0:0:0:0:
320,192,14454,1,0,0:0:0:0:
64,192,14807,1,0,0:0:0:0:
448,192,14807,1,0,0:0:0:0:
192,192,15160,1,0,0:0:0:0:
64,192,15337,1,0,0:0:0:0:
320,192,15513,1,0,0:0:0:0:
448,192,15513,1,0,0:0:0:0:
64,192,15689,1,0,0:0:0:0:
192,192,15866,1,0,0:0:0:0:
448,192,15866,1,0,0:0:0:0:
192,192,16219,1,0,0:0:0:0:
320,192,16395,1,0,0:0:0:0:
448,192,16572,1,0,0:0:0:0:
64,192,16572,1,0,0:0:0:0:
320,192,16748,1,0,0:0:0:0:
192,192,16925,1,0,0:0:0:0:
64,192,16925,1,0,0:0:0:0:
320,192,17101,1,0,0:0:0:0:
64,192,17278,1,0,0:0:0:0:
192,192,17454,1,0,0:0:0:0:
448,192,17631,1,0,0:0:0:0:
320,192,17631,1,0,0:0:0:0:
192,192,17984,1,0,0:0:0:0:
320,192,18160,1,0,0:0:0:0:
64,192,18337,1,0,0:0:0:0:
448,192,18337,1,0,0:0:0:0:
192,192,18689,1,0,0:0:0:0:
64,192,18689,1,0,0:0:0:0:
320,192,19042,1,0,0:0:0:0:
448,192,19219,1,0,0:0:0:0:
320,192,19395,1,0,0:0:0:0:
192,192,19572,1,0,0:0:0:0:
448,192,19748,1,0,0:0:0:0:
64,192,19748,1,0,0:0:0:0:
192,192,20101,1,0,0:0:0:0:
320,192,20278,1,0,0:0:0:0:
64,192,20454,128,0,23189:0:0:0:0:
448,192,20454,128,0,23189:0:0:0:0:
192,192,20454,128,0,20631:0:0:0:0:
192,192,20984,128,0,21160:0:0:0:0:
192,192,21513,128,0,21689:0:0:0:0:
192,192,22042,128,0,22219:0:0:0:0:
320,192,22572,128,0,23189:0:0:0:0:
192,192,22572,128,0,23189:0:0:0:0:
448,192,23278,5,0,0:0:0:0:
64,192,23278,1,0,0:0:0:0:
320,192,23278,1,0,0:0:0:0:
192,192,23278,1,0,0:0:0:0:
192,192,23631,1,0,0:0:0:0:
64,192,23984,1,0,0:0:0:0:
448,192,24337,1,0,0:0:0:0:
320,192,24359,1,0,0:0:0:0:
192,192,24381,1,0,0:0:0:0:
64,192,25042,1,0,0:0:0:0:
192,192,25395,1,0,0:0:0:0:
320,192,25748,1,0,0:0:0:0:
448,192,26101,1,0,0:0:0:0:
64,192,26101,1,0,0:0:0:0:
192,192,26454,1,0,0:0:0:0:
320,192,26807,1,0,0:0:0:0:
448,192,27160,1,0,0:0:0:0:
192,192,27182,1,0,0:0:0:0:
64,192,27204,1,0,0:0:0:0:
448,192,27866,1,0,0:0:0:0:
320,192,28219,1,0,0:0:0:0:
64,192,28572,1,0,0:0:0:0:
192,192,28925,1,0,0:0:0:0:
320,192,28947,1,0,0:0:0:0:
448,192,28969,1,0,0:0:0:0:
64,192,29278,1,0,0:0:0:0:
320,192,29631,1,0,0:0:0:0:
64,192,29984,1,0,0:0:0:0:
192,192,30006,1,0,0:0:0:0:
320,192,30028,1,0,0:0:0:0:
448,192,30689,1,0,0:0:0:0:
320,192,31042,1,0,0:0:0:0:
64,192,31395,1,0,0:0:0:0:
448,192,31748,1,0,0:0:0:0:
192,192,31748,1,0,0:0:0:0:
192,192,32101,1,0,0:0:0:0:
64,192,32454,1,0,0:0:0:0:
64,192,32807,1,0,0:0:0:0:
320,192,32829,1,0,0:0:0:0:
448,192,32851,1,0,0:0:0:0:
320,192,33513,1,0,0:0:0:0:
192,192,33866,1,0,0:0:0:0:
64,192,34219,1,0,0:0:0:0:
64,192,34572,128,0,34925:0:0:0:0:
192,192,34572,1,0,0:0:0:0:
320,192,34748,1,0,0:0:0:0:
448,192,34925,1,0,0:0:0:0:
448,192,35101,1,0,0:0:0:0:
64,192,35278,128,0,35631:0:0:0:0:
192,192,35278,1,0,0:0:0:0:
320,192,35631,1,0,0:0:0:0:
320,192,35807,128,0,36689:0:0:0:0:
64,192,35984,128,0,36337:0:0:0:0:
448,192,36337,1,0,0:0:0:0:
64,192,36689,128,0,37042:0:0:0:0:
192,192,36689,1,0,0:0:0:0:
448,192,37042,1,0,0:0:0:0:
320,192,37219,1,0,0:0:0:0:
192,192,37395,128,0,37748:0:0:0:0:
64,192,37395,1,0,0:0:0:0:
448,192,37572,1,0,0:0:0:0:
320,192,37748,1,0,0:0:0:0:
320,192,37925,1,0,0:0:0:0:
192,192,38101,128,0,38454:0:0:0:0:
64,192,38101,1,0,0:0:0:0:
448,192,38454,1,0,0:0:0:0:
448,192,38631,128,0,39160:0:0:0:0:
192,192,38807,128,0,39160:0:0:0:0:
320,192,39160,1,0,0:0:0:0:
192,192,39513,128,0,39866:0:0:0:0:
64,192,39513,1,0,0:0:0:0:
320,192,39689,1,0,0:0:0:0:
448,192,39866,1,0,0:0:0:0:
320,192,40219,128,0,40572:0:0:0:0:
64,192,40219,128,0,41101:0:0:0:0:
192,192,40572,1,0,0:0:0:0:
320,192,40925,128,0,41278:0:0:0:0:
448,192,40925,1,0,0:0:0:0:
192,192,41278,1,0,0:0:0:0:
64,192,41454,128,0,42160:0:0:0:0:
320,192,41631,128,0,41984:0:0:0:0:
448,192,41631,1,0,0:0:0:0:
192,192,41984,1,0,0:0:0:0:
320,192,42337,128,0,42689:0:0:0:0:
64,192,42337,1,0,0:0:0:0:
192,192,42689,128,0,43042:0:0:0:0:
448,192,43042,128,0,43484:0:0:0:0:
64,192,43042,128,0,44366:0:0:0:0:
192,192,43395,128,0,43572:0:0:0:0:
320,192,43484,128,0,43660:0:0:0:0:
448,192,43572,128,0,43748:0:0:0:0:
192,192,43660,128,0,43837:0:0:0:0:
320,192,43748,128,0,43925:0:0:0:0:
448,192,43837,128,0,44013:0:0:0:0:
192,192,43925,128,0,44101:0:0:0:0:
320,192,44013,128,0,44189:0:0:0:0:
448,192,44101,128,0,44278:0:0:0:0:
192,192,44189,128,0,44366:0:0:0:0:
320,192,44278,128,0,44454:0:0:0:0:
448,192,44366,128,0,44454:0:0:0:0:
192,192,44454,1,0,0:0:0:0:
64,192,44454,1,0,0:0:0:0:
64,192,44807,128,0,45160:0:0:0:0:
320,192,44984,128,0,45337:0:0:0:0:
192,192,45160,128,0,45513:0:0:0:0:
448,192,45337,128,0,45513:0:0:0:0:
64,192,45513,1,0,0:0:0:0:
320,192,45866,128,2,46572:0:0:0:0:
448,192,45866,128,0,46572:0:0:0:0:
64,192,45866,128,0,46572:0:0:0:0:
192,192,47278,128,2,47984:0:0:0:0:
64,192,47278,128,0,47984:0:0:0:0:
320,192,47278,128,0,47984:0:0:0:0:
448,192,47984,128,0,48337:0:0:0:0:
64,192,48337,128,0,48425:0:0:0:0:
192,192,48337,128,0,48425:0:0:0:0:
192,192,48513,128,0,48601:0:0:0:0:
64,192,48513,128,0,48601:0:0:0:0:
320,192,48689,128,2,49042:0:0:0:0:
192,192,48689,128,0,49042:0:0:0:0:
448,192,48689,128,0,49042:0:0:0:0:
64,192,49219,128,2,49572:0:0:0:0:
192,192,49219,128,0,49572:0:0:0:0:
448,192,49219,128,0,49572:0:0:0:0:
320,192,49748,128,2,50454:0:0:0:0:
192,192,49748,128,0,50454:0:0:0:0:
448,192,49748,128,0,50454:0:0:0:0:
64,192,50454,1,0,0:0:0:0:
192,192,50498,1,0,0:0:0:0:
320,192,50542,1,0,0:0:0:0:
448,192,50587,1,0,0:0:0:0:
192,192,50631,1,0,0:0:0:0:
64,192,50675,1,0,0:0:0:0:
448,192,50719,1,0,0:0:0:0:
320,192,50763,1,0,0:0:0:0:
192,192,50807,1,0,0:0:0:0:
64,192,50866,1,0,0:0:0:0:
320,192,50925,1,0,0:0:0:0:
448,192,50984,1,0,0:0:0:0:
192,192,51042,1,0,0:0:0:0:
64,192,51101,1,0,0:0:0:0:
448,192,51160,1,0,0:0:0:0:
320,192,51248,1,0,0:0:0:0:
192,192,51337,1,0,0:0:0:0:
64,192,51425,1,0,0:0:0:0:
448,192,51513,128,2,52219:0:0:0:0:
320,192,51513,128,0,52219:0:0:0:0:
192,192,51513,128,0,52219:0:0:0:0:
320,192,52925,128,2,53631:0:0:0:0:
192,192,52925,128,0,53631:0:0:0:0:
64,192,52925,128,0,53631:0:0:0:0:
448,192,53631,128,0,53807:0:0:0:0:
64,192,53807,1,0,0:0:0:0:
192,192,53851,1,0,0:0:0:0:
448,192,53895,1,0,0:0:0:0:
320,192,53939,1,0,0:0:0:0:
192,192,53984,1,0,0:0:0:0:
64,192,54028,1,0,0:0:0:0:
320,192,54072,1,0,0:0:0:0:
448,192,54116,1,0,0:0:0:0:
64,192,54160,1,0,0:0:0:0:
192,192,54204,1,0,0:0:0:0:
320,192,54248,1,0,0:0:0:0:
448,192,54292,1,0,0:0:0:0:
192,192,54337,128,2,54689:0:0:0:0:
64,192,54337,128,0,54689:0:0:0:0:
320,192,54337,128,0,54689:0:0:0:0:
192,192,54866,128,2,55219:0:0:0:0:
320,192,54866,128,0,55219:0:0:0:0:
448,192,54866,128,0,55219:0:0:0:0:
64,192,55395,128,2,56101:0:0:0:0:
192,192,55395,128,0,56101:0:0:0:0:
320,192,55395,128,0,56101:0:0:0:0:
448,192,56101,1,0,0:0:0:0:
320,192,56278,1,0,0:0:0:0:
192,192,56454,1,0,0:0:0:0:
320,192,56542,1,0,0:0:0:0:
64,192,56631,1,0,0:0:0:0:
192,192,56719,1,0,0:0:0:0:
320,192,56807,128,0,57160:0:0:0:0:
192,192,57160,128,2,57866:0:0:0:0:
64,192,57160,128,0,57866:0:0:0:0:
448,192,57160,128,0,57866:0:0:0:0:
320,192,57866,128,0,58042:0:0:0:0:
192,192,58042,128,0,58219:0:0:0:0:
64,192,58219,128,0,58395:0:0:0:0:
448,192,58395,128,0,58572:0:0:0:0:
64,192,58572,128,2,59278:0:0:0:0:
320,192,58572,128,0,59278:0:0:0:0:
192,192,58572,128,0,59278:0:0:0:0:
448,192,59278,1,0,0:0:0:0:
192,192,59366,1,0,0:0:0:0:
64,192,59366,1,0,0:0:0:0:
320,192,59454,1,0,0:0:0:0:
448,192,59454,1,0,0:0:0:0:
64,192,59631,128,0,59984:0:0:0:0:
192,192,59631,1,0,0:0:0:0:
448,192,59984,128,2,60337:0:0:0:0:
320,192,59984,128,0,60337:0:0:0:0:
192,192,59984,128,0,60337:0:0:0:0:
64,192,60513,128,2,60866:0:0:0:0:
192,192,60513,128,0,60866:0:0:0:0:
448,192,60513,128,0,60866:0:0:0:0:
448,192,61042,128,2,61748:0:0:0:0:
320,192,61042,128,0,61748:0:0:0:0:
192,192,61042,128,0,61748:0:0:0:0:
64,192,61748,1,0,0:0:0:0:
192,192,61792,1,0,0:0:0:0:
320,192,61837,1,0,0:0:0:0:
448,192,61881,1,0,0:0:0:0:
192,192,61925,1,0,0:0:0:0:
64,192,61969,1,0,0:0:0:0:
448,192,62013,1,0,0:0:0:0:
320,192,62057,1,0,0:0:0:0:
192,192,62101,1,0,0:0:0:0:
64,192,62160,1,0,0:0:0:0:
320,192,62219,1,0,0:0:0:0:
448,192,62278,1,0,0:0:0:0:
64,192,62337,1,0,0:0:0:0:
192,192,62395,1,0,0:0:0:0:
448,192,62454,1,0,0:0:0:0:
320,192,62542,1,0,0:0:0:0:
192,192,62631,1,0,0:0:0:0:
64,192,62719,1,0,0:0:0:0:
192,192,62807,128,2,63160:0:0:0:0:
448,192,62807,128,0,63160:0:0:0:0:
320,192,62807,128,0,63160:0:0:0:0:
64,192,63337,128,2,63689:0:0:0:0:
192,192,63337,128,0,63689:0:0:0:0:
320,192,63337,128,0,63689:0:0:0:0:
64,192,63866,128,2,64572:0:0:0:0:
448,192,63866,128,0,64572:0:0:0:0:
320,192,63866,128,0,64572:0:0:0:0:
192,192,64572,128,0,64748:0:0:0:0:
320,192,64925,128,0,65101:0:0:0:0:
192,192,65101,128,0,65278:0:0:0:0:
320,192,65278,1,0,0:0:0:0:
448,192,65278,128,0,65454:0:0:0:0:
320,192,65631,128,2,65984:0:0:0:0:
192,192,65631,128,0,65984:0:0:0:0:
64,192,65631,128,0,65984:0:0:0:0:
448,192,65984,1,0,0:0:0:0:
64,192,66160,128,2,66513:0:0:0:0:
192,192,66160,128,0,66513:0:0:0:0:
448,192,66160,128,0,66513:0:0:0:0:
320,192,66513,1,0,0:0:0:0:
192,192,66689,1,2,0:0:0:0:
64,192,66689,1,0,0:0:0:0:
448,192,66689,1,0,0:0:0:0:
320,192,66866,1,0,0:0:0:0:
64,192,66954,1,0,0:0:0:0:
448,192,67042,1,0,0:0:0:0:
192,192,67131,1,0,0:0:0:0:
320,192,67219,1,0,0:0:0:0:
192,192,67307,1,0,0:0:0:0:
64,192,67395,1,0,0:0:0:0:
320,192,67484,1,0,0:0:0:0:
192,192,67572,1,0,0:0:0:0:
320,192,67660,1,0,0:0:0:0:
448,192,67748,1,0,0:0:0:0:
320,192,68101,1,0,0:0:0:40:LR3_Snare FCSRL.wav
64,192,68101,1,0,0:0:0:0:
448,192,68101,1,0,0:0:0:0:
192,192,68101,1,0,0:0:0:0:
320,192,68454,1,4,0:0:0:0:
448,192,68454,1,0,0:0:0:0:
64,192,68454,128,0,68631:0:0:0:0:
192,192,68631,1,0,0:0:0:0:
320,192,68807,128,8,68984:0:0:0:0:
64,192,68807,1,0,0:0:0:0:
192,192,68984,128,0,69160:0:0:0:0:
448,192,69160,1,8,0:0:0:0:
320,192,69160,1,0,0:0:0:0:
64,192,69337,128,0,69513:0:0:0:0:
192,192,69513,128,8,69689:0:0:0:0:
448,192,69513,1,0,0:0:0:0:
320,192,69689,128,0,69866:0:0:0:0:
64,192,69866,128,8,70219:0:0:0:0:
192,192,69866,1,0,0:0:0:0:
448,192,70042,128,0,70219:0:0:0:0:
192,192,70219,128,8,70572:0:0:0:0:
320,192,70219,1,0,0:0:0:0:
448,192,70395,128,0,70572:0:0:0:0:
320,192,70572,128,8,70925:0:0:0:0:
64,192,70572,1,0,0:0:0:0:
192,192,70748,1,0,0:0:0:0:
64,192,70925,128,8,71278:0:0:0:0:
448,192,70925,1,0,0:0:0:0:
320,192,71101,1,0,0:0:0:0:
448,192,71278,128,8,71454:0:0:0:0:
192,192,71278,1,0,0:0:0:0:
64,192,71454,1,0,0:0:0:0:
320,192,71631,128,8,71807:0:0:0:0:
448,192,71631,1,0,0:0:0:0:
64,192,71807,1,0,0:0:0:0:
192,192,71984,128,8,72160:0:0:0:0:
320,192,71984,1,0,0:0:0:0:
448,192,72160,1,0,0:0:0:0:
64,192,72337,128,8,72513:0:0:0:0:
192,192,72337,1,0,0:0:0:0:
320,192,72513,1,0,0:0:0:0:
192,192,72689,128,8,73042:0:0:0:0:
448,192,72689,1,0,0:0:0:0:
320,192,72866,128,0,73042:0:0:0:0:
448,192,73042,128,8,73395:0:0:0:0:
64,192,73042,1,0,0:0:0:0:
64,192,73219,128,0,73395:0:0:0:0:
320,192,73395,128,8,73572:0:0:0:0:
192,192,73395,1,0,0:0:0:0:
192,192,73572,128,0,73748:0:0:0:0:
448,192,73748,128,8,73925:0:0:0:0:
64,192,73748,1,0,0:0:0:0:
320,192,73925,128,0,74101:0:0:0:0:
448,192,74101,1,8,0:0:0:0:
192,192,74101,128,0,74278:0:0:0:0:
64,192,74278,1,0,0:0:0:0:
192,192,74454,128,8,74631:0:0:0:0:
448,192,74454,1,0,0:0:0:0:
320,192,74631,128,0,74807:0:0:0:0:
64,192,74807,1,8,0:0:0:0:
192,192,74807,1,0,0:0:0:0:
448,192,74984,128,0,75160:0:0:0:0:
320,192,75160,128,8,75337:0:0:0:0:
64,192,75160,1,0,0:0:0:0:
192,192,75337,128,0,75513:0:0:0:0:
320,192,75513,1,8,0:0:0:0:
448,192,75513,128,0,75866:0:0:0:0:
64,192,75689,128,0,75866:0:0:0:0:
320,192,75866,128,8,76219:0:0:0:0:
192,192,75866,1,0,0:0:0:0:
64,192,76042,128,0,76219:0:0:0:0:
448,192,76219,1,8,0:0:0:0:
192,192,76219,128,0,76572:0:0:0:0:
320,192,76395,1,0,0:0:0:0:
448,192,76572,128,8,76925:0:0:0:0:
64,192,76572,1,0,0:0:0:0:
192,192,76748,1,0,0:0:0:0:
64,192,76925,128,8,77101:0:0:0:0:
320,192,76925,1,0,0:0:0:0:
448,192,77101,1,0,0:0:0:0:
320,192,77278,128,8,77454:0:0:0:0:
64,192,77278,1,0,0:0:0:0:
192,192,77454,128,0,77631:0:0:0:0:
448,192,77631,1,8,0:0:0:0:
320,192,77631,1,0,0:0:0:0:
64,192,77807,128,0,77984:0:0:0:0:
192,192,77984,128,8,78160:0:0:0:0:
448,192,77984,1,0,0:0:0:0:
320,192,78160,128,0,78337:0:0:0:0:
192,192,78337,1,8,0:0:0:0:
64,192,78337,128,0,78689:0:0:0:0:
448,192,78513,128,0,78689:0:0:0:0:
192,192,78689,128,8,78866:0:0:0:0:
320,192,78689,1,0,0:0:0:0:
448,192,78866,128,0,79042:0:0:0:0:
320,192,78866,128,0,79042:0:0:0:0:
192,192,79042,128,8,79219:0:0:0:0:
64,192,79042,128,0,79219:0:0:0:0:
448,192,79219,128,0,79395:0:0:0:0:
320,192,79219,128,0,79395:0:0:0:0:
192,192,79395,1,2,0:0:0:0:
320,192,79484,1,2,0:0:0:0:
192,192,79572,1,2,0:0:0:0:
320,192,79660,1,2,0:0:0:0:
192,192,79748,1,0,0:0:0:40:whistle2.wav
64,192,79748,1,0,0:0:0:0:
448,192,79748,1,0,0:0:0:0:
448,192,79925,1,2,0:0:0:0:
192,192,80101,1,0,0:0:0:40:whistle2.wav
64,192,80101,1,0,0:0:0:0:
320,192,80101,1,0,0:0:0:0:
64,192,80278,1,2,0:0:0:0:
320,192,80454,1,0,0:0:0:40:whistle2.wav
448,192,80454,1,0,0:0:0:0:
192,192,80454,1,0,0:0:0:0:
320,192,80631,1,2,0:0:0:0:
192,192,80719,1,2,0:0:0:0:
64,192,80719,1,0,0:0:0:0:
320,192,80807,1,0,0:0:0:40:whistle2.wav
448,192,80807,1,0,0:0:0:0:
192,192,80984,1,0,0:0:0:40:whistle2.wav
64,192,80984,1,0,0:0:0:0:
320,192,81160,1,0,0:0:0:40:whistle2.wav
448,192,81160,1,0,0:0:0:0:
64,192,81160,1,0,0:0:0:0:
64,192,81337,1,2,0:0:0:0:
320,192,81513,1,0,0:0:0:40:whistle2.wav
192,192,81513,1,0,0:0:0:0:
448,192,81513,1,0,0:0:0:0:
320,192,81689,1,2,0:0:0:0:
192,192,81866,1,0,0:0:0:40:whistle2.wav
64,192,81866,1,0,0:0:0:0:
448,192,81866,1,0,0:0:0:0:
192,192,82042,1,2,0:0:0:0:
448,192,82131,1,2,0:0:0:0:
320,192,82131,1,0,0:0:0:0:
192,192,82219,1,0,0:0:0:40:whistle2.wav
64,192,82219,1,0,0:0:0:0:
320,192,82395,1,2,0:0:0:0:
192,192,82395,1,0,0:0:0:0:
448,192,82572,1,0,0:0:0:40:whistle2.wav
64,192,82572,1,0,0:0:0:0:
320,192,82572,1,0,0:0:0:0:
448,192,82748,1,2,0:0:0:0:
192,192,82925,1,0,0:0:0:40:whistle2.wav
320,192,82925,1,0,0:0:0:0:
64,192,82925,1,0,0:0:0:0:
192,192,83101,1,2,0:0:0:0:
448,192,83278,1,0,0:0:0:40:whistle2.wav
320,192,83278,1,0,0:0:0:0:
64,192,83278,1,0,0:0:0:0:
320,192,83454,1,2,0:0:0:0:
192,192,83542,1,2,0:0:0:0:
320,192,83631,1,0,0:0:0:40:whistle2.wav
448,192,83631,1,0,0:0:0:0:
64,192,83631,1,0,0:0:0:0:
448,192,83807,1,2,0:0:0:0:
64,192,83807,1,0,0:0:0:0:
64,192,83895,1,2,0:0:0:0:
320,192,83984,1,0,0:0:0:40:whistle2.wav
192,192,83984,1,0,0:0:0:0:
448,192,83984,1,0,0:0:0:0:
320,192,84072,1,2,0:0:0:0:
192,192,84160,1,2,0:0:0:0:
192,192,84248,1,2,0:0:0:0:
448,192,84337,1,0,0:0:0:40:whistle2.wav
64,192,84337,1,0,0:0:0:0:
320,192,84337,1,0,0:0:0:0:
448,192,84513,1,2,0:0:0:0:
448,192,84601,1,2,0:0:0:0:
320,192,84689,1,0,0:0:0:40:whistle2.wav
64,192,84689,1,0,0:0:0:0:
192,192,84689,1,0,0:0:0:0:
192,192,84866,1,0,0:0:0:40:whistle2.wav
320,192,84866,1,0,0:0:0:0:
64,192,85042,1,0,0:0:0:0:
448,192,85042,1,0,0:0:0:0:
448,192,85395,1,4,0:0:0:0:
64,192,85395,1,0,0:0:0:0:
192,192,85439,1,2,0:0:0:0:
320,192,85484,1,2,0:0:0:0:
448,192,85572,1,2,0:0:0:0:
64,192,85572,1,0,0:0:0:0:
192,192,85660,1,2,0:0:0:0:
320,192,85748,1,2,0:0:0:0:
448,192,85748,1,0,0:0:0:0:
64,192,85837,1,2,0:0:0:0:
192,192,85925,1,2,0:0:0:0:
448,192,85925,1,0,0:0:0:0:
320,192,86013,1,2,0:0:0:0:
64,192,86101,1,2,0:0:0:0:
448,192,86101,1,0,0:0:0:0:
192,192,86189,1,2,0:0:0:0:
448,192,86278,1,2,0:0:0:0:
64,192,86278,1,0,0:0:0:0:
320,192,86366,1,2,0:0:0:0:
192,192,86454,1,2,0:0:0:0:
64,192,86454,1,0,0:0:0:0:
320,192,86498,1,2,0:0:0:0:
448,192,86542,1,2,0:0:0:0:
192,192,86631,1,2,0:0:0:0:
64,192,86631,1,0,0:0:0:0:
448,192,86675,1,2,0:0:0:0:
320,192,86719,1,2,0:0:0:0:
192,192,86807,1,4,0:0:0:0:
64,192,86807,1,0,0:0:0:0:
320,192,86851,1,2,0:0:0:0:
448,192,86895,1,2,0:0:0:0:
64,192,86984,1,2,0:0:0:0:
320,192,86984,1,0,0:0:0:0:
192,192,87072,1,2,0:0:0:0:
448,192,87160,1,2,0:0:0:0:
320,192,87160,1,0,0:0:0:0:
64,192,87248,1,2,0:0:0:0:
320,192,87337,1,2,0:0:0:0:
448,192,87337,1,0,0:0:0:0:
192,192,87425,1,2,0:0:0:0:
448,192,87513,1,2,0:0:0:0:
64,192,87513,1,0,0:0:0:0:
320,192,87601,1,2,0:0:0:0:
448,192,87689,1,2,0:0:0:0:
64,192,87689,1,0,0:0:0:0:
192,192,87778,1,2,0:0:0:0:
320,192,87866,1,2,0:0:0:0:
448,192,87866,1,0,0:0:0:0:
64,192,87910,1,2,0:0:0:0:
192,192,87954,1,2,0:0:0:0:
320,192,88042,1,2,0:0:0:0:
448,192,88042,1,0,0:0:0:0:
192,192,88087,1,2,0:0:0:0:
64,192,88131,1,2,0:0:0:0:
320,192,88219,1,4,0:0:0:0:
448,192,88219,1,0,0:0:0:0:
64,192,88263,1,0,0:0:0:0:
192,192,88307,1,2,0:0:0:0:
64,192,88395,1,2,0:0:0:0:
448,192,88395,1,0,0:0:0:0:
320,192,88484,1,2,0:0:0:0:
192,192,88572,1,2,0:0:0:0:
64,192,88572,1,0,0:0:0:0:
320,192,88616,1,2,0:0:0:0:
448,192,88660,1,2,0:0:0:0:
64,192,88748,1,2,0:0:0:0:
320,192,88748,1,0,0:0:0:0:
192,192,88837,1,2,0:0:0:0:
448,192,88925,1,2,0:0:0:0:
320,192,88925,1,0,0:0:0:0:
192,192,88969,1,2,0:0:0:0:
64,192,89013,1,2,0:0:0:0:
320,192,89101,1,2,0:0:0:0:
448,192,89101,1,0,0:0:0:0:
192,192,89189,1,2,0:0:0:0:
64,192,89278,1,2,0:0:0:0:
448,192,89278,1,0,0:0:0:0:
320,192,89322,1,2,0:0:0:0:
192,192,89366,1,2,0:0:0:0:
64,192,89454,1,2,0:0:0:0:
448,192,89454,1,0,0:0:0:0:
320,192,89542,1,2,0:0:0:0:
192,192,89631,1,2,0:0:0:0:
64,192,89631,1,0,0:0:0:0:
320,192,89807,1,0,0:0:0:0:
64,192,89984,1,2,0:0:0:0:
448,192,89984,1,0,0:0:0:0:
320,192,90101,1,2,0:0:0:0:
192,192,90160,1,2,0:0:0:0:
64,192,90219,1,2,0:0:0:0:
448,192,90278,1,2,0:0:0:0:
320,192,90278,1,0,0:0:0:0:
192,192,90337,1,2,0:0:0:0:
64,192,90337,1,0,0:0:0:0:
448,192,90513,1,2,0:0:0:0:
320,192,90513,1,0,0:0:0:0:
192,192,90689,1,2,0:0:0:0:
64,192,90689,1,0,0:0:0:0:
448,192,90778,1,2,0:0:0:0:
320,192,90778,1,0,0:0:0:0:
192,192,90866,1,2,0:0:0:0:
64,192,90866,1,0,0:0:0:0:
448,192,91042,128,0,91351:0:0:0:40:LR3_Snare FCSRL.wav
64,192,91042,128,0,91351:0:0:0:0:
320,192,91042,128,0,91351:0:0:0:0:
192,192,91395,128,4,91572:0:0:0:0:
320,192,91395,1,0,0:0:0:0:
448,192,91395,1,0,0:0:0:0:
64,192,91395,1,0,0:0:0:0:
448,192,91572,128,0,91748:0:0:0:0:
64,192,91748,1,2,0:0:0:0:
320,192,91748,1,0,0:0:0:0:
192,192,91925,128,0,92101:0:0:0:0:
320,192,92101,128,0,92278:0:0:0:40:whistle2.wav
64,192,92101,1,0,0:0:0:0:
448,192,92278,128,0,92454:0:0:0:0:
320,192,92454,128,2,92807:0:0:0:0:
64,192,92454,128,0,92631:0:0:0:0:
192,192,92631,128,0,92807:0:0:0:0:
64,192,92807,128,0,93160:0:0:0:40:whistle2.wav
448,192,92807,128,0,92984:0:0:0:0:
320,192,92984,128,0,93160:0:0:0:0:
192,192,93160,128,2,93337:0:0:0:0:
448,192,93160,1,0,0:0:0:0:
320,192,93337,1,0,0:0:0:0:
448,192,93513,1,0,0:0:0:40:whistle2.wav
64,192,93513,128,0,93689:0:0:0:0:
192,192,93689,1,0,0:0:0:0:
448,192,93866,128,2,94042:0:0:0:0:
320,192,93866,1,0,0:0:0:0:
64,192,94042,1,0,0:0:0:0:
192,192,94219,1,0,0:0:0:40:whistle2.wav
320,192,94219,128,0,94395:0:0:0:0:
448,192,94395,1,0,0:0:0:0:
192,192,94572,128,2,94748:0:0:0:0:
64,192,94572,1,0,0:0:0:0:
320,192,94748,1,0,0:0:0:0:
448,192,94925,1,0,0:0:0:40:whistle2.wav
64,192,94925,128,0,95101:0:0:0:0:
192,192,95101,1,0,0:0:0:0:
64,192,95278,128,2,95631:0:0:0:0:
448,192,95278,128,0,95454:0:0:0:0:
192,192,95454,128,0,95807:0:0:0:0:
320,192,95631,128,0,95807:0:0:0:40:whistle2.wav
448,192,95631,128,0,95807:0:0:0:0:
64,192,95807,128,0,95984:0:0:0:0:
320,192,95984,128,2,96292:0:0:0:0:
448,192,95984,128,0,96292:0:0:0:0:
192,192,95984,128,0,96292:0:0:0:0:
448,192,96337,1,4,0:0:0:0:
320,192,96337,1,0,0:0:0:0:
64,192,96337,1,0,0:0:0:0:
192,192,96337,1,0,0:0:0:0:
64,192,96689,1,2,0:0:0:0:
192,192,96689,128,0,96866:0:0:0:0:
448,192,96866,1,0,0:0:0:0:
320,192,97042,128,0,97219:0:0:0:40:whistle2.wav
64,192,97042,1,0,0:0:0:0:
448,192,97219,128,0,97395:0:0:0:0:
64,192,97395,1,2,0:0:0:0:
192,192,97395,1,0,0:0:0:0:
320,192,97572,128,0,97748:0:0:0:0:
448,192,97748,1,0,0:0:0:40:whistle2.wav
192,192,97748,128,0,97925:0:0:0:0:
64,192,97925,128,0,98101:0:0:0:0:
320,192,98101,128,2,98454:0:0:0:0:
192,192,98101,128,0,98278:0:0:0:0:
448,192,98278,128,0,98454:0:0:0:0:
192,192,98454,128,0,98807:0:0:0:40:whistle2.wav
64,192,98454,128,0,98631:0:0:0:0:
320,192,98631,128,0,98807:0:0:0:0:
448,192,98807,128,2,98984:0:0:0:0:
64,192,98807,1,0,0:0:0:0:
192,192,98984,1,0,0:0:0:0:
448,192,99160,1,0,0:0:0:40:whistle2.wav
320,192,99160,128,0,99337:0:0:0:0:
64,192,99337,1,0,0:0:0:0:
448,192,99513,1,2,0:0:0:0:
192,192,99513,128,0,99689:0:0:0:0:
320,192,99689,1,0,0:0:0:0:
448,192,99866,1,0,0:0:0:40:whistle2.wav
64,192,99866,128,0,100042:0:0:0:0:
192,192,100042,128,0,100219:0:0:0:0:
320,192,100219,1,2,0:0:0:0:
64,192,100219,1,0,0:0:0:0:
448,192,100395,128,0,100572:0:0:0:0:
320,192,100572,128,0,100748:0:0:0:40:whistle2.wav
192,192,100572,128,0,100925:0:0:0:0:
64,192,100748,128,0,100925:0:0:0:0:
320,192,100925,128,2,101101:0:0:0:0:
448,192,100925,1,0,0:0:0:0:
64,192,101101,128,0,101454:0:0:0:0:
192,192,101278,128,0,101454:0:0:0:40:whistle2.wav
320,192,101454,128,0,101719:0:0:0:0:
448,192,101454,128,0,101719:0:0:0:0:
192,192,101631,128,2,101895:0:0:0:0:
64,192,101631,128,0,101895:0:0:0:0:
448,192,101807,128,0,101984:0:0:0:0:
320,192,101807,128,0,101984:0:0:0:0:
192,192,101984,1,4,0:0:0:0:
64,192,101984,1,0,0:0:0:0:
64,192,102337,128,2,102645:0:0:0:0:
192,192,102337,128,0,102645:0:0:0:0:
448,192,102337,128,0,102645:0:0:0:0:
64,192,102689,1,0,0:0:0:40:whistle2.wav
448,192,102689,1,0,0:0:0:0:
320,192,102689,128,0,102866:0:0:0:0:
192,192,102689,1,0,0:0:0:0:
192,192,102866,128,0,103042:0:0:0:0:
320,192,103042,1,2,0:0:0:0:
448,192,103042,1,0,0:0:0:0:
64,192,103219,1,2,0:0:0:0:
192,192,103219,1,0,0:0:0:0:
320,192,103307,1,2,0:0:0:0:
448,192,103307,1,0,0:0:0:0:
64,192,103395,128,0,103572:0:0:0:40:whistle2.wav
192,192,103395,1,0,0:0:0:0:
320,192,103572,128,0,103748:0:0:0:0:
448,192,103572,1,0,0:0:0:0:
64,192,103748,1,2,0:0:0:0:
192,192,103748,1,0,0:0:0:0:
448,192,103925,128,0,104101:0:0:0:0:
192,192,104101,1,0,0:0:0:40:whistle2.wav
64,192,104101,1,0,0:0:0:0:
320,192,104278,128,0,104454:0:0:0:0:
64,192,104454,1,2,0:0:0:0:
192,192,104454,128,0,104631:0:0:0:0:
448,192,104631,1,2,0:0:0:0:
320,192,104631,1,0,0:0:0:0:
192,192,104719,1,2,0:0:0:0:
64,192,104719,1,0,0:0:0:0:
320,192,104807,1,0,0:0:0:40:whistle2.wav
448,192,104807,128,0,104984:0:0:0:0:
192,192,104984,128,2,105160:0:0:0:0:
64,192,104984,1,0,0:0:0:0:
320,192,105160,128,2,105337:0:0:0:0:
448,192,105160,1,0,0:0:0:0:
64,192,105337,1,0,0:0:0:0:
320,192,105513,128,0,105689:0:0:0:40:whistle2.wav
192,192,105513,1,0,0:0:0:0:
64,192,105689,128,0,105866:0:0:0:0:
320,192,105866,1,2,0:0:0:0:
448,192,105866,1,0,0:0:0:0:
64,192,106042,1,2,0:0:0:0:
192,192,106042,1,0,0:0:0:0:
320,192,106131,1,2,0:0:0:0:
448,192,106131,1,0,0:0:0:0:
64,192,106219,128,0,106395:0:0:0:40:whistle2.wav
192,192,106219,1,0,0:0:0:0:
320,192,106395,1,0,0:0:0:0:
448,192,106395,128,0,106748:0:0:0:0:
64,192,106572,128,2,106748:0:0:0:0:
192,192,106572,128,0,106748:0:0:0:0:
320,192,106748,128,0,107101:0:0:0:0:
64,192,106925,128,0,107101:0:0:0:40:whistle2.wav
192,192,106925,128,0,107101:0:0:0:0:
448,192,107101,128,0,107278:0:0:0:0:
64,192,107278,128,2,107587:0:0:0:0:
320,192,107278,128,0,107587:0:0:0:0:
192,192,107278,128,0,107587:0:0:0:0:
448,192,107631,1,4,0:0:0:0:
64,192,107631,1,0,0:0:0:0:
192,192,107631,1,0,0:0:0:0:
320,192,107631,1,0,0:0:0:0:
64,192,107984,1,2,0:0:0:0:
192,192,108028,1,2,0:0:0:0:
320,192,108072,1,2,0:0:0:0:
448,192,108072,1,0,0:0:0:0:
192,192,108160,1,2,0:0:0:0:
64,192,108160,1,0,0:0:0:0:
448,192,108248,1,2,0:0:0:0:
320,192,108337,1,2,0:0:0:0:
192,192,108337,1,0,0:0:0:0:
64,192,108425,1,2,0:0:0:0:
448,192,108425,1,0,0:0:0:0:
192,192,108513,1,2,0:0:0:0:
320,192,108513,1,0,0:0:0:0:
64,192,108601,1,2,0:0:0:0:
320,192,108689,1,2,0:0:0:0:
448,192,108689,1,0,0:0:0:0:
192,192,108778,1,2,0:0:0:0:
64,192,108778,1,0,0:0:0:0:
320,192,108866,1,2,0:0:0:0:
448,192,108866,1,0,0:0:0:0:
192,192,108954,1,2,0:0:0:0:
448,192,109042,128,4,109395:0:0:0:0:
320,192,109042,128,0,109395:0:0:0:0:
64,192,109395,1,2,0:0:0:0:
192,192,109439,1,2,0:0:0:0:
320,192,109484,1,2,0:0:0:0:
448,192,109484,1,0,0:0:0:0:
192,192,109572,1,2,0:0:0:0:
64,192,109572,1,0,0:0:0:0:
448,192,109660,1,2,0:0:0:0:
320,192,109748,1,2,0:0:0:0:
192,192,109748,1,0,0:0:0:0:
64,192,109837,1,2,0:0:0:0:
448,192,109837,1,0,0:0:0:0:
320,192,109925,1,2,0:0:0:0:
192,192,109925,1,0,0:0:0:0:
448,192,110013,1,2,0:0:0:0:
192,192,110101,1,2,0:0:0:0:
64,192,110101,1,0,0:0:0:0:
320,192,110189,1,2,0:0:0:0:
448,192,110189,1,0,0:0:0:0:
192,192,110278,1,2,0:0:0:0:
64,192,110278,1,0,0:0:0:0:
320,192,110366,1,2,0:0:0:0:
64,192,110454,128,2,110542:0:0:0:0:
192,192,110454,128,0,110542:0:0:0:0:
192,192,110631,128,2,110807:0:0:0:0:
64,192,110631,128,0,110807:0:0:0:0:
448,192,110807,1,2,0:0:0:0:
320,192,110851,1,2,0:0:0:0:
192,192,110895,1,2,0:0:0:0:
64,192,110895,1,0,0:0:0:0:
320,192,110984,1,2,0:0:0:0:
448,192,110984,1,0,0:0:0:0:
192,192,111072,1,2,0:0:0:0:
64,192,111072,1,0,0:0:0:0:
320,192,111160,128,2,111513:0:0:0:0:
448,192,111160,128,0,111513:0:0:0:0:
64,192,111513,1,2,0:0:0:0:
192,192,111557,1,2,0:0:0:0:
320,192,111601,1,2,0:0:0:0:
448,192,111601,1,0,0:0:0:0:
192,192,111689,1,2,0:0:0:0:
64,192,111689,1,0,0:0:0:0:
320,192,111778,1,2,0:0:0:0:
448,192,111778,1,0,0:0:0:0:
64,192,111866,128,2,112219:0:0:0:0:
192,192,111866,128,0,112219:0:0:0:0:
448,192,112219,1,2,0:0:0:0:
448,192,112572,1,2,0:0:0:0:
448,192,112925,1,2,0:0:0:0:
64,192,113278,1,0,0:0:0:40:LR3_Snare FCSRL.wav
448,192,113278,1,0,0:0:0:0:
192,192,113278,1,0,0:0:0:0:
320,192,113278,1,0,0:0:0:0:
448,192,113631,1,4,0:0:0:0:
320,192,113631,1,0,0:0:0:0:
64,192,113631,1,0,0:0:0:0:
192,192,113719,1,0,0:0:0:0:
64,192,113807,1,0,0:0:0:0:
320,192,113895,1,0,0:0:0:0:
192,192,113984,1,0,0:0:0:40:whistle2.wav
64,192,113984,1,0,0:0:0:0:
448,192,113984,1,0,0:0:0:0:
320,192,114072,1,0,0:0:0:0:
192,192,114160,1,0,0:0:0:0:
448,192,114248,1,0,0:0:0:0:
192,192,114337,1,2,0:0:0:0:
64,192,114337,1,0,0:0:0:0:
320,192,114425,1,0,0:0:0:0:
448,192,114513,1,0,0:0:0:0:
64,192,114601,1,0,0:0:0:0:
192,192,114689,1,0,0:0:0:40:whistle2.wav
320,192,114689,1,0,0:0:0:0:
448,192,114689,1,0,0:0:0:0:
64,192,114778,1,0,0:0:0:0:
448,192,114866,1,0,0:0:0:0:
320,192,114954,1,0,0:0:0:0:
192,192,115042,1,2,0:0:0:0:
64,192,115042,1,0,0:0:0:0:
320,192,115131,1,0,0:0:0:0:
64,192,115219,1,0,0:0:0:0:
448,192,115307,1,0,0:0:0:0:
192,192,115395,1,0,0:0:0:40:whistle2.wav
320,192,115395,1,0,0:0:0:0:
64,192,115395,1,0,0:0:0:0:
448,192,115484,1,0,0:0:0:0:
192,192,115572,1,0,0:0:0:0:
320,192,115660,1,0,0:0:0:0:
448,192,115748,1,2,0:0:0:0:
64,192,115748,1,0,0:0:0:0:
192,192,115837,1,0,0:0:0:0:
448,192,115925,1,0,0:0:0:0:
64,192,116013,1,0,0:0:0:0:
320,192,116101,1,0,0:0:0:40:whistle2.wav
192,192,116101,1,0,0:0:0:0:
448,192,116101,1,0,0:0:0:0:
64,192,116189,1,0,0:0:0:0:
320,192,116278,1,0,0:0:0:0:
192,192,116366,1,0,0:0:0:0:
320,192,116454,1,2,0:0:0:0:
448,192,116454,1,0,0:0:0:0:
64,192,116542,1,0,0:0:0:0:
192,192,116631,1,0,0:0:0:0:
448,192,116719,1,0,0:0:0:0:
192,192,116807,1,0,0:0:0:40:whistle2.wav
64,192,116807,1,0,0:0:0:0:
320,192,116807,1,0,0:0:0:0:
448,192,116895,1,0,0:0:0:0:
192,192,116984,1,0,0:0:0:0:
64,192,117072,1,0,0:0:0:0:
448,192,117160,1,2,0:0:0:0:
320,192,117160,1,0,0:0:0:0:
192,192,117248,1,0,0:0:0:0:
448,192,117337,1,0,0:0:0:0:
192,192,117425,1,0,0:0:0:0:
64,192,117513,1,0,0:0:0:40:whistle2.wav
320,192,117513,1,0,0:0:0:0:
448,192,117513,1,0,0:0:0:0:
192,192,117601,1,0,0:0:0:0:
448,192,117689,1,0,0:0:0:0:
192,192,117778,1,0,0:0:0:0:
320,192,117866,1,2,0:0:0:0:
64,192,117866,1,0,0:0:0:0:
448,192,117954,1,0,0:0:0:0:
192,192,118042,1,0,0:0:0:0:
320,192,118131,1,0,0:0:0:0:
192,192,118219,1,0,0:0:0:40:whistle2.wav
448,192,118219,1,0,0:0:0:0:
64,192,118219,1,0,0:0:0:0:
320,192,118307,1,0,0:0:0:0:
64,192,118395,1,0,0:0:0:0:
320,192,118484,1,0,0:0:0:0:
192,192,118572,1,2,0:0:0:0:
448,192,118572,1,0,0:0:0:0:
320,192,118660,1,0,0:0:0:0:
64,192,118748,1,0,0:0:0:0:
448,192,118837,1,0,0:0:0:0:
64,192,118925,1,4,0:0:0:0:
192,192,118925,1,0,0:0:0:0:
320,192,118925,1,0,0:0:0:0:
320,192,119278,1,2,0:0:0:0:
64,192,119278,1,0,0:0:0:0:
192,192,119366,1,0,0:0:0:0:
448,192,119454,1,0,0:0:0:0:
192,192,119542,1,0,0:0:0:0:
320,192,119631,1,0,0:0:0:40:whistle2.wav
448,192,119631,1,0,0:0:0:0:
64,192,119631,1,0,0:0:0:0:
192,192,119719,1,0,0:0:0:0:
320,192,119807,1,0,0:0:0:0:
64,192,119895,1,0,0:0:0:0:
192,192,119984,1,2,0:0:0:0:
448,192,119984,1,0,0:0:0:0:
320,192,120072,1,0,0:0:0:0:
64,192,120160,1,0,0:0:0:0:
448,192,120248,1,0,0:0:0:0:
320,192,120337,1,0,0:0:0:40:whistle2.wav
192,192,120337,1,0,0:0:0:0:
64,192,120337,1,0,0:0:0:0:
448,192,120425,1,0,0:0:0:0:
192,192,120513,1,0,0:0:0:0:
320,192,120601,1,0,0:0:0:0:
192,192,120689,1,2,0:0:0:0:
64,192,120689,1,0,0:0:0:0:
448,192,120778,1,0,0:0:0:0:
64,192,120866,1,0,0:0:0:0:
192,192,120954,1,0,0:0:0:0:
320,192,121042,1,0,0:0:0:40:whistle2.wav
448,192,121042,1,0,0:0:0:0:
64,192,121042,1,0,0:0:0:0:
192,192,121131,1,0,0:0:0:0:
320,192,121219,1,0,0:0:0:0:
448,192,121307,1,0,0:0:0:0:
192,192,121395,1,2,0:0:0:0:
64,192,121395,1,0,0:0:0:0:
320,192,121484,1,0,0:0:0:0:
192,192,121572,1,0,0:0:0:0:
448,192,121660,1,0,0:0:0:0:
192,192,121748,1,0,0:0:0:40:whistle2.wav
64,192,121748,1,0,0:0:0:0:
320,192,121748,1,0,0:0:0:0:
448,192,121837,1,0,0:0:0:0:
64,192,121925,1,0,0:0:0:0:
320,192,122013,1,0,0:0:0:0:
448,192,122101,1,2,0:0:0:0:
192,192,122101,1,0,0:0:0:0:
64,192,122189,1,0,0:0:0:0:
448,192,122278,1,0,0:0:0:0:
320,192,122366,1,0,0:0:0:0:
64,192,122454,1,0,0:0:0:40:whistle2.wav
448,192,122454,1,0,0:0:0:0:
192,192,122454,1,0,0:0:0:0:
320,192,122542,1,0,0:0:0:0:
64,192,122631,1,0,0:0:0:0:
192,192,122719,1,0,0:0:0:0:
448,192,122807,1,2,0:0:0:0:
320,192,122807,1,0,0:0:0:0:
192,192,122895,1,0,0:0:0:0:
320,192,122984,1,0,0:0:0:0:
64,192,123072,1,0,0:0:0:0:
192,192,123160,1,0,0:0:0:40:whistle2.wav
320,192,123160,1,0,0:0:0:0:
448,192,123160,1,0,0:0:0:0:
64,192,123248,1,0,0:0:0:0:
192,192,123292,1,0,0:0:0:0:
320,192,123337,1,0,0:0:0:0:
448,192,123425,1,0,0:0:0:0:
64,192,123513,1,2,0:0:0:0:
192,192,123513,1,0,0:0:0:0:
320,192,123601,1,0,0:0:0:0:
64,192,123689,1,0,0:0:0:0:
448,192,123778,1,0,0:0:0:0:
320,192,123866,1,0,0:0:0:40:whistle2.wav
192,192,123866,1,0,0:0:0:0:
64,192,123866,1,0,0:0:0:0:
448,192,123954,1,0,0:0:0:0:
192,192,124042,1,0,0:0:0:0:
320,192,124131,1,0,0:0:0:0:
192,192,124219,1,2,0:0:0:0:
64,192,124219,1,0,0:0:0:0:
448,192,124307,1,0,0:0:0:0:
320,192,124395,1,0,0:0:0:0:
192,192,124484,1,0,0:0:0:0:
320,192,124572,1,4,0:0:0:0:
448,192,124572,1,0,0:0:0:0:
64,192,124572,1,0,0:0:0:0:
448,192,124925,1,2,0:0:0:0:
192,192,124925,1,0,0:0:0:0:
64,192,124925,1,0,0:0:0:0:
320,192,125013,1,0,0:0:0:0:
192,192,125101,1,0,0:0:0:0:
448,192,125189,1,0,0:0:0:0:
320,192,125278,1,0,0:0:0:40:whistle2.wav
64,192,125278,1,0,0:0:0:0:
192,192,125278,1,0,0:0:0:0:
448,192,125366,1,0,0:0:0:0:
192,192,125454,1,2,0:0:0:0:
320,192,125542,1,2,0:0:0:0:
448,192,125631,1,2,0:0:0:0:
64,192,125631,1,0,0:0:0:0:
320,192,125719,1,0,0:0:0:0:
192,192,125807,1,2,0:0:0:0:
64,192,125807,1,0,0:0:0:0:
320,192,125895,1,2,0:0:0:0:
448,192,125895,1,0,0:0:0:0:
192,192,125984,1,0,0:0:0:40:whistle2.wav
64,192,125984,1,0,0:0:0:0:
320,192,126072,1,0,0:0:0:0:
64,192,126160,1,2,0:0:0:0:
192,192,126248,1,0,0:0:0:0:
320,192,126337,1,2,0:0:0:0:
448,192,126337,1,0,0:0:0:0:
64,192,126425,1,0,0:0:0:0:
320,192,126513,1,0,0:0:0:0:
192,192,126601,1,0,0:0:0:0:
320,192,126689,1,0,0:0:0:40:whistle2.wav
448,192,126689,1,0,0:0:0:0:
64,192,126689,1,0,0:0:0:0:
192,192,126778,1,0,0:0:0:0:
448,192,126866,1,2,0:0:0:0:
320,192,126954,1,2,0:0:0:0:
448,192,127042,1,2,0:0:0:0:
64,192,127042,1,0,0:0:0:0:
192,192,127131,1,0,0:0:0:0:
448,192,127219,1,2,0:0:0:0:
320,192,127219,1,0,0:0:0:0:
64,192,127307,1,2,0:0:0:0:
192,192,127307,1,0,0:0:0:0:
320,192,127395,1,0,0:0:0:40:whistle2.wav
448,192,127395,1,0,0:0:0:0:
192,192,127484,1,0,0:0:0:0:
320,192,127572,1,2,0:0:0:0:
64,192,127660,1,0,0:0:0:0:
192,192,127748,1,2,0:0:0:0:
448,192,127748,1,0,0:0:0:0:
64,192,127837,1,0,0:0:0:0:
320,192,127925,1,2,0:0:0:0:
192,192,128013,1,2,0:0:0:0:
320,192,128101,1,0,0:0:0:40:whistle2.wav
448,192,128101,1,0,0:0:0:0:
64,192,128101,1,0,0:0:0:0:
192,192,128189,1,0,0:0:0:0:
448,192,128278,1,2,0:0:0:0:
320,192,128366,1,2,0:0:0:0:
448,192,128454,1,2,0:0:0:0:
64,192,128454,1,0,0:0:0:0:
320,192,128542,1,0,0:0:0:0:
192,192,128631,1,2,0:0:0:0:
64,192,128631,1,0,0:0:0:0:
320,192,128719,1,2,0:0:0:0:
448,192,128719,1,0,0:0:0:0:
192,192,128807,1,0,0:0:0:40:whistle2.wav
64,192,128807,1,0,0:0:0:0:
448,192,128895,1,0,0:0:0:0:
64,192,128984,1,2,0:0:0:0:
320,192,129072,1,2,0:0:0:0:
192,192,129160,1,2,0:0:0:0:
448,192,129160,1,0,0:0:0:0:
64,192,129248,1,0,0:0:0:0:
448,192,129337,1,2,0:0:0:0:
192,192,129425,1,2,0:0:0:0:
320,192,129513,1,0,0:0:0:40:whistle2.wav
64,192,129513,1,0,0:0:0:0:
448,192,129513,1,0,0:0:0:0:
192,192,129601,1,0,0:0:0:0:
64,192,129689,1,2,0:0:0:0:
320,192,129778,1,2,0:0:0:0:
192,192,129866,1,2,0:0:0:0:
448,192,129866,1,0,0:0:0:0:
320,192,129954,1,0,0:0:0:0:
64,192,130042,1,2,0:0:0:0:
192,192,130131,1,2,0:0:0:0:
320,192,130219,1,4,0:0:0:0:
448,192,130219,1,0,0:0:0:0:
64,192,130219,1,0,0:0:0:0:
448,192,130572,1,2,0:0:0:0:
320,192,130616,1,2,0:0:0:0:
192,192,130660,1,2,0:0:0:0:
64,192,130660,1,0,0:0:0:0:
320,192,130748,1,2,0:0:0:0:
448,192,130748,1,0,0:0:0:0:
192,192,130837,1,2,0:0:0:0:
448,192,130925,1,2,0:0:0:0:
64,192,130925,1,0,0:0:0:0:
320,192,131013,1,2,0:0:0:0:
192,192,131013,1,0,0:0:0:0:
64,192,131101,1,2,0:0:0:0:
448,192,131101,1,0,0:0:0:0:
320,192,131189,1,2,0:0:0:0:
192,192,131278,1,2,0:0:0:0:
64,192,131278,1,0,0:0:0:0:
320,192,131366,1,2,0:0:0:0:
448,192,131366,1,0,0:0:0:0:
192,192,131454,1,2,0:0:0:0:
64,192,131454,1,0,0:0:0:0:
448,192,131542,1,2,0:0:0:0:
192,192,131631,128,2,131984:0:0:0:0:
64,192,131631,128,0,131984:0:0:0:0:
448,192,131984,1,2,0:0:0:0:
320,192,132028,1,2,0:0:0:0:
64,192,132072,1,2,0:0:0:0:
192,192,132072,1,0,0:0:0:0:
448,192,132160,1,2,0:0:0:0:
320,192,132160,1,0,0:0:0:0:
64,192,132248,1,2,0:0:0:0:
192,192,132337,1,2,0:0:0:0:
320,192,132337,1,0,0:0:0:0:
448,192,132425,1,2,0:0:0:0:
64,192,132425,1,0,0:0:0:0:
320,192,132513,1,2,0:0:0:0:
192,192,132513,1,0,0:0:0:0:
64,192,132601,1,2,0:0:0:0:
320,192,132689,1,2,0:0:0:0:
448,192,132689,1,0,0:0:0:0:
192,192,132778,1,2,0:0:0:0:
64,192,132778,1,0,0:0:0:0:
320,192,132866,1,2,0:0:0:0:
448,192,132866,1,0,0:0:0:0:
64,192,132954,1,2,0:0:0:0:
448,192,133042,128,2,133395:0:0:0:0:
320,192,133042,128,0,133395:0:0:0:0:
64,192,133395,1,2,0:0:0:0:
192,192,133439,1,2,0:0:0:0:
320,192,133484,1,2,0:0:0:0:
448,192,133484,1,0,0:0:0:0:
192,192,133572,1,2,0:0:0:0:
64,192,133572,1,0,0:0:0:0:
320,192,133660,1,2,0:0:0:0:
448,192,133660,1,0,0:0:0:0:
192,192,133837,128,0,134101:0:0:0:0:
64,192,133837,128,0,134101:0:0:0:0:
320,192,134101,1,2,0:0:0:0:
448,192,134145,1,2,0:0:0:0:
192,192,134189,1,2,0:0:0:0:
64,192,134189,1,0,0:0:0:0:
320,192,134278,1,2,0:0:0:0:
448,192,134278,1,0,0:0:0:0:
64,192,134366,1,2,0:0:0:0:
192,192,134366,1,0,0:0:0:0:
320,192,134542,128,0,134807:0:0:0:0:
448,192,134542,128,0,134807:0:0:0:0:
64,192,134807,1,2,0:0:0:0:
192,192,134851,1,2,0:0:0:0:
320,192,134895,1,2,0:0:0:0:
448,192,134939,1,2,0:0:0:0:
64,192,134984,1,2,0:0:0:0:
192,192,135028,1,2,0:0:0:0:
320,192,135072,1,2,0:0:0:0:
448,192,135072,1,0,0:0:0:0:
64,192,135116,1,2,0:0:0:0:
192,192,135160,1,2,0:0:0:0:
448,192,135204,1,2,0:0:0:0:
320,192,135248,1,2,0:0:0:0:
192,192,135292,1,2,0:0:0:0:
64,192,135337,1,2,0:0:0:0:
448,192,135337,1,0,0:0:0:0:
320,192,135381,1,2,0:0:0:0:
192,192,135425,1,2,0:0:0:0:
64,192,135469,1,2,0:0:0:0:
320,192,135513,1,2,0:0:0:0:
448,192,135513,1,0,0:0:0:0:
192,192,135866,128,0,136219:0:0:0:0:
320,192,136219,1,4,0:0:0:0:
448,192,136219,1,0,0:0:0:0:
64,192,136219,1,0,0:0:0:0:
192,192,136307,1,0,0:0:0:0:
320,192,136395,1,0,0:0:0:0:
448,192,136484,1,0,0:0:0:0:
192,192,136572,1,0,0:0:0:0:
320,192,136660,1,0,0:0:0:0:
448,192,136748,1,0,0:0:0:0:
192,192,136837,1,0,0:0:0:0:
448,192,136925,1,0,0:0:0:0:
320,192,137013,1,0,0:0:0:0:
192,192,137101,1,0,0:0:0:0:
448,192,137189,1,0,0:0:0:0:
192,192,137278,1,0,0:0:0:0:
320,192,137366,1,0,0:0:0:0:
448,192,137454,1,0,0:0:0:0:
320,192,137542,1,0,0:0:0:0:
192,192,137631,1,0,0:0:0:0:
64,192,137719,1,0,0:0:0:0:
320,192,137807,1,0,0:0:0:0:
192,192,137895,1,0,0:0:0:0:
64,192,137984,1,0,0:0:0:0:
320,192,138072,1,0,0:0:0:0:
64,192,138160,1,0,0:0:0:0:
192,192,138248,1,0,0:0:0:0:
320,192,138337,1,0,0:0:0:0:
192,192,138425,1,0,0:0:0:0:
64,192,138513,1,0,0:0:0:0:
320,192,138601,1,0,0:0:0:0:
192,192,138689,1,0,0:0:0:0:
448,192,138778,1,0,0:0:0:0:
320,192,138866,1,0,0:0:0:0:
192,192,138954,1,0,0:0:0:0:
448,192,139042,1,0,0:0:0:0:
192,192,139131,1,0,0:0:0:0:
320,192,139219,1,0,0:0:0:0:
192,192,139307,1,0,0:0:0:0:
448,192,139395,1,0,0:0:0:0:
320,192,139484,1,0,0:0:0:0:
448,192,139572,1,0,0:0:0:0:
192,192,139660,1,0,0:0:0:0:
320,192,139748,1,0,0:0:0:0:
64,192,139837,1,0,0:0:0:0:
192,192,139925,128,0,140101:0:0:0:0:
320,192,140101,128,0,140189:0:0:0:0:
64,192,140189,128,0,140278:0:0:0:0:
320,192,140278,128,0,140454:0:0:0:0:
192,192,140366,128,0,140542:0:0:0:0:
64,192,140454,128,0,140631:0:0:0:0:
320,192,140631,128,0,140984:0:0:0:0:
192,192,140807,128,0,140984:0:0:0:0:
64,192,140984,128,0,141337:0:0:0:0:
448,192,141072,128,0,141337:0:0:0:0:
320,192,141337,128,0,141689:0:0:0:0:
192,192,141513,128,0,141689:0:0:0:0:
64,192,141689,128,0,142572:0:0:0:0:
320,192,142572,128,0,142925:0:0:0:0:
192,192,142660,128,0,142925:0:0:0:0:
64,192,142748,128,0,142925:0:0:0:0:
448,192,142925,128,0,143984:0:0:0:0:
320,192,143101,128,0,143984:0:0:0:0:
64,192,143984,1,0,0:0:0:0:
192,192,144160,128,0,144337:0:0:0:0:
320,192,144337,128,0,144513:0:0:0:0:
64,192,144513,128,0,145219:0:0:0:0:
192,192,144866,128,0,145219:0:0:0:0:
448,192,145219,128,0,145925:0:0:0:0:
320,192,145572,128,0,145925:0:0:0:0:
64,192,145925,128,0,146631:0:0:0:0:
320,192,146631,1,0,0:0:0:0:
192,192,146719,128,0,146807:0:0:0:0:
320,192,146807,128,0,146925:0:0:0:0:
192,192,146866,128,0,146984:0:0:0:0:
64,192,146925,128,0,147042:0:0:0:0:
320,192,146984,128,0,147101:0:0:0:0:
192,192,147042,128,0,147160:0:0:0:0:
448,192,147101,128,0,147278:0:0:0:0:
320,192,147160,128,0,147337:0:0:0:0:
192,192,147248,128,0,147425:0:0:0:0:
64,192,147337,128,0,147425:0:0:0:0:
320,192,147425,128,0,147513:0:0:0:0:
448,192,147513,1,0,0:0:0:40:whistle2.wav
64,192,147513,1,0,0:0:0:0:
192,192,147513,1,0,0:0:0:0:
64,192,147866,1,0,0:0:0:40:whistle2.wav
320,192,147866,1,0,0:0:0:0:
448,192,147866,1,0,0:0:0:0:
192,192,148219,1,2,0:0:0:0:
64,192,148219,1,0,0:0:0:0:
448,192,148219,1,0,0:0:0:0:
64,192,148484,1,0,0:0:0:40:whistle2.wav
448,192,148484,1,0,0:0:0:0:
320,192,148572,1,2,0:0:0:0:
192,192,148572,1,0,0:0:0:0:
64,192,148748,1,2,0:0:0:0:
320,192,148748,1,0,0:0:0:0:
448,192,148748,1,0,0:0:0:0:
192,192,148925,1,0,0:0:0:40:whistle2.wav
320,192,148925,1,0,0:0:0:0:
64,192,148925,1,0,0:0:0:0:
192,192,149278,1,0,0:0:0:40:whistle2.wav
64,192,149278,1,0,0:0:0:0:
320,192,149278,1,0,0:0:0:0:
192,192,149631,1,2,0:0:0:0:
448,192,149631,1,0,0:0:0:0:
64,192,149631,1,0,0:0:0:0:
192,192,149895,1,0,0:0:0:40:whistle2.wav
320,192,149895,1,0,0:0:0:0:
448,192,149984,1,2,0:0:0:0:
64,192,149984,1,0,0:0:0:0:
64,192,150160,1,2,0:0:0:0:
192,192,150160,1,0,0:0:0:0:
320,192,150160,1,0,0:0:0:0:
320,192,150337,1,0,0:0:0:40:whistle2.wav
448,192,150337,1,0,0:0:0:0:
192,192,150337,1,0,0:0:0:0:
320,192,150689,1,0,0:0:0:40:whistle2.wav
192,192,150689,1,0,0:0:0:0:
448,192,150689,1,0,0:0:0:0:
64,192,151042,1,2,0:0:0:0:
320,192,151042,1,0,0:0:0:0:
192,192,151042,1,0,0:0:0:0:
64,192,151307,1,0,0:0:0:40:whistle2.wav
320,192,151307,1,0,0:0:0:0:
448,192,151395,1,2,0:0:0:0:
192,192,151395,1,0,0:0:0:0:
64,192,151572,1,2,0:0:0:0:
192,192,151572,1,0,0:0:0:0:
320,192,151748,1,0,0:0:0:40:whistle2.wav
448,192,151748,1,0,0:0:0:0:
64,192,151748,1,0,0:0:0:0:
192,192,152101,1,0,0:0:0:40:whistle2.wav
64,192,152101,1,0,0:0:0:0:
448,192,152101,1,0,0:0:0:0:
320,192,152454,1,2,0:0:0:0:
448,192,152454,1,0,0:0:0:0:
64,192,152454,1,0,0:0:0:0:
64,192,152807,1,2,0:0:0:0:
448,192,152807,1,0,0:0:0:0:
64,192,153160,1,2,0:0:0:0:
192,192,153160,1,0,0:0:0:0:
320,192,153204,1,2,0:0:0:0:
448,192,153248,1,2,0:0:0:0:
192,192,153337,1,2,0:0:0:0:
64,192,153337,1,0,0:0:0:0:
448,192,153425,1,2,0:0:0:0:
192,192,153513,1,2,0:0:0:0:
64,192,153513,1,0,0:0:0:0:
320,192,153513,1,0,0:0:0:0:
448,192,153601,1,2,0:0:0:0:
192,192,153689,1,2,0:0:0:0:
64,192,153689,1,0,0:0:0:0:
448,192,153778,1,2,0:0:0:0:
192,192,153866,1,2,0:0:0:0:
320,192,153866,1,0,0:0:0:0:
64,192,153954,1,2,0:0:0:0:
448,192,154042,1,2,0:0:0:0:
320,192,154042,1,0,0:0:0:0:
64,192,154131,1,2,0:0:0:0:
320,192,154219,1,2,0:0:0:0:
448,192,154219,1,0,0:0:0:0:
192,192,154263,1,2,0:0:0:0:
64,192,154307,1,2,0:0:0:0:
320,192,154395,1,2,0:0:0:0:
448,192,154395,1,0,0:0:0:0:
64,192,154439,1,2,0:0:0:0:
192,192,154484,1,2,0:0:0:0:
320,192,154572,1,2,0:0:0:0:
448,192,154572,1,0,0:0:0:0:
192,192,154616,1,2,0:0:0:0:
64,192,154660,1,2,0:0:0:0:
448,192,154748,1,2,0:0:0:0:
320,192,154748,1,0,0:0:0:0:
192,192,154837,1,2,0:0:0:0:
64,192,154837,1,0,0:0:0:0:
320,192,154925,1,2,0:0:0:0:
448,192,154925,1,0,0:0:0:0:
192,192,155013,1,2,0:0:0:0:
64,192,155013,1,0,0:0:0:0:
320,192,155101,1,2,0:0:0:0:
448,192,155101,1,0,0:0:0:0:
64,192,155189,1,2,0:0:0:0:
320,192,155278,1,2,0:0:0:0:
448,192,155278,1,0,0:0:0:0:
192,192,155278,1,0,0:0:0:0:
64,192,155366,1,2,0:0:0:0:
320,192,155454,1,2,0:0:0:0:
192,192,155454,1,0,0:0:0:0:
448,192,155542,1,2,0:0:0:0:
64,192,155631,1,2,0:0:0:0:
192,192,155631,1,0,0:0:0:0:
320,192,155675,1,2,0:0:0:0:
448,192,155719,1,2,0:0:0:0:
320,192,155807,1,2,0:0:0:0:
192,192,155807,1,0,0:0:0:0:
448,192,155851,1,2,0:0:0:0:
64,192,155895,1,2,0:0:0:0:
448,192,155984,1,2,0:0:0:0:
320,192,155984,1,0,0:0:0:0:
192,192,156028,1,2,0:0:0:0:
64,192,156072,1,2,0:0:0:0:
320,192,156160,1,2,0:0:0:0:
192,192,156160,1,0,0:0:0:0:
448,192,156248,1,2,0:0:0:0:
192,192,156337,1,2,0:0:0:0:
64,192,156337,1,0,0:0:0:0:
320,192,156381,1,2,0:0:0:0:
448,192,156425,1,2,0:0:0:0:
320,192,156513,1,2,0:0:0:0:
192,192,156513,1,0,0:0:0:0:
64,192,156601,1,2,0:0:0:0:
320,192,156689,1,2,0:0:0:0:
448,192,156689,1,0,0:0:0:0:
192,192,156734,1,2,0:0:0:0:
64,192,156778,1,2,0:0:0:0:
320,192,156866,1,2,0:0:0:0:
192,192,156866,1,0,0:0:0:0:
448,192,156954,1,2,0:0:0:0:
64,192,157042,1,2,0:0:0:0:
192,192,157042,1,0,0:0:0:0:
320,192,157087,1,2,0:0:0:0:
448,192,157131,1,2,0:0:0:0:
192,192,157219,1,2,0:0:0:0:
64,192,157219,1,0,0:0:0:0:
320,192,157307,1,2,0:0:0:0:
448,192,157307,1,0,0:0:0:0:
192,192,157395,1,2,0:0:0:0:
64,192,157572,1,0,0:0:0:0:
192,192,157660,1,0,0:0:0:0:
448,192,157748,1,0,0:0:0:0:
64,192,157837,1,0,0:0:0:0:
320,192,157925,1,0,0:0:0:0:
448,192,158013,1,0,0:0:0:0:
192,192,158101,1,0,0:0:0:0:
320,192,158189,1,0,0:0:0:0:
64,192,158278,1,0,0:0:0:0:
192,192,158366,1,0,0:0:0:0:
448,192,158454,1,0,0:0:0:40:LR3_Snare FCSRL.wav
320,192,158454,1,0,0:0:0:0:
448,192,158807,128,2,159160:0:0:0:0:
192,192,158807,128,0,159160:0:0:0:0:
64,192,158807,1,0,0:0:0:0:
320,192,158984,1,0,0:0:0:0:
64,192,159160,1,2,0:0:0:0:
320,192,159160,1,0,0:0:0:0:
448,192,159337,128,0,159689:0:0:0:0:
192,192,159513,1,2,0:0:0:0:
64,192,159513,1,0,0:0:0:0:
320,192,159689,1,0,0:0:0:0:
448,192,159866,128,2,160219:0:0:0:0:
64,192,159866,128,0,160219:0:0:0:0:
192,192,160042,1,0,0:0:0:0:
320,192,160219,1,2,0:0:0:0:
192,192,160219,1,0,0:0:0:0:
448,192,160395,128,0,160748:0:0:0:0:
64,192,160572,1,2,0:0:0:0:
192,192,160572,128,0,160748:0:0:0:0:
320,192,160748,128,0,160925:0:0:0:0:
448,192,160925,128,2,161101:0:0:0:0:
64,192,160925,1,0,0:0:0:0:
192,192,161101,128,0,161278:0:0:0:0:
320,192,161278,128,2,161454:0:0:0:0:
448,192,161278,1,0,0:0:0:0:
64,192,161454,128,0,161631:0:0:0:0:
320,192,161631,128,2,161984:0:0:0:0:
448,192,161631,128,0,161984:0:0:0:0:
192,192,161807,1,0,0:0:0:0:
192,192,161984,1,2,0:0:0:0:
64,192,161984,1,0,0:0:0:0:
320,192,162160,128,0,162513:0:0:0:0:
448,192,162337,1,2,0:0:0:0:
64,192,162337,1,0,0:0:0:0:
192,192,162513,1,0,0:0:0:0:
320,192,162689,128,2,163042:0:0:0:0:
64,192,162689,128,0,163042:0:0:0:0:
448,192,162866,1,0,0:0:0:0:
448,192,163042,1,2,0:0:0:0:
192,192,163042,1,0,0:0:0:0:
320,192,163219,128,0,163572:0:0:0:0:
192,192,163395,128,2,163572:0:0:0:0:
64,192,163395,1,0,0:0:0:0:
448,192,163572,128,0,163748:0:0:0:0:
320,192,163748,128,2,163925:0:0:0:0:
192,192,163748,1,0,0:0:0:0:
64,192,163925,128,0,164101:0:0:0:0:
192,192,164101,128,2,164278:0:0:0:0:
448,192,164101,1,0,0:0:0:0:
320,192,164278,128,0,164454:0:0:0:0:
448,192,164454,128,2,164807:0:0:0:0:
192,192,164454,128,0,164807:0:0:0:0:
64,192,164631,1,0,0:0:0:0:
64,192,164807,1,2,0:0:0:0:
320,192,164807,1,0,0:0:0:0:
192,192,164984,128,0,165337:0:0:0:0:
320,192,165160,1,2,0:0:0:0:
448,192,165160,1,0,0:0:0:0:
64,192,165337,1,0,0:0:0:0:
192,192,165513,128,2,165866:0:0:0:0:
448,192,165513,128,0,165866:0:0:0:0:
320,192,165689,1,0,0:0:0:0:
320,192,165866,1,2,0:0:0:0:
64,192,165866,1,0,0:0:0:0:
192,192,166042,128,0,166395:0:0:0:0:
320,192,166219,128,2,166395:0:0:0:0:
448,192,166219,1,0,0:0:0:0:
64,192,166395,128,0,166572:0:0:0:0:
320,192,166572,128,2,166748:0:0:0:0:
448,192,166572,1,0,0:0:0:0:
192,192,166748,128,0,166925:0:0:0:0:
64,192,166925,1,2,0:0:0:0:
448,192,166925,128,0,167101:0:0:0:0:
320,192,166925,1,0,0:0:0:0:
320,192,167101,128,0,167278:0:0:0:0:
448,192,167278,128,2,167631:0:0:0:0:
64,192,167278,128,0,167631:0:0:0:0:
192,192,167454,1,0,0:0:0:0:
320,192,167631,1,2,0:0:0:0:
192,192,167631,1,0,0:0:0:0:
64,192,167807,128,0,168160:0:0:0:0:
320,192,167984,1,2,0:0:0:0:
448,192,167984,1,0,0:0:0:0:
192,192,168160,1,0,0:0:0:0:
64,192,168337,128,2,168689:0:0:0:0:
320,192,168337,128,0,168689:0:0:0:0:
448,192,168513,1,0,0:0:0:0:
192,192,168689,1,2,0:0:0:0:
448,192,168689,1,0,0:0:0:0:
64,192,168866,128,0,169219:0:0:0:0:
320,192,169042,1,2,0:0:0:0:
448,192,169042,128,0,169219:0:0:0:0:
192,192,169219,128,0,169572:0:0:0:0:
320,192,169395,128,2,169748:0:0:0:0:
64,192,169395,1,0,0:0:0:0:
448,192,169572,128,0,169925:0:0:0:0:
64,192,169748,128,2,170101:0:0:0:0:
192,192,169925,128,0,170101:0:0:0:0:
320,192,170101,1,4,0:0:0:0:
448,192,170101,1,0,0:0:0:0:
320,192,170278,1,0,0:0:0:0:
64,192,170454,1,0,0:0:0:40:whistle2.wav
448,192,170454,1,0,0:0:0:0:
192,192,170454,1,0,0:0:0:0:
320,192,170631,1,0,0:0:0:0:
64,192,170807,1,2,0:0:0:0:
448,192,170807,1,0,0:0:0:0:
192,192,170984,1,0,0:0:0:0:
448,192,171160,1,0,0:0:0:40:whistle2.wav
64,192,171160,1,0,0:0:0:0:
320,192,171160,1,0,0:0:0:0:
192,192,171337,1,0,0:0:0:0:
448,192,171513,128,2,171689:0:0:0:0:
320,192,171513,1,0,0:0:0:0:
64,192,171689,128,0,171866:0:0:0:0:
448,192,171866,1,0,0:0:0:40:whistle2.wav
320,192,171866,128,0,172042:0:0:0:0:
192,192,171866,1,0,0:0:0:0:
448,192,172042,128,0,172219:0:0:0:0:
192,192,172219,128,2,172395:0:0:0:0:
64,192,172219,1,0,0:0:0:0:
320,192,172395,128,0,172572:0:0:0:0:
64,192,172572,128,0,172748:0:0:0:40:whistle2.wav
448,192,172572,1,0,0:0:0:0:
192,192,172572,1,0,0:0:0:0:
192,192,172748,128,0,172925:0:0:0:0:
320,192,172925,1,2,0:0:0:0:
448,192,172925,1,0,0:0:0:0:
192,192,173101,1,0,0:0:0:0:
448,192,173278,1,0,0:0:0:40:whistle2.wav
320,192,173278,1,0,0:0:0:0:
64,192,173278,1,0,0:0:0:0:
192,192,173454,1,0,0:0:0:0:
448,192,173631,1,2,0:0:0:0:
64,192,173631,1,0,0:0:0:0:
320,192,173807,1,0,0:0:0:0:
448,192,173984,1,0,0:0:0:40:whistle2.wav
64,192,173984,1,0,0:0:0:0:
192,192,173984,1,0,0:0:0:0:
320,192,174160,1,0,0:0:0:0:
192,192,174337,128,2,174513:0:0:0:0:
448,192,174337,1,0,0:0:0:0:
64,192,174513,128,0,174689:0:0:0:0:
448,192,174689,1,0,0:0:0:40:whistle2.wav
320,192,174689,128,0,174866:0:0:0:0:
192,192,174689,1,0,0:0:0:0:
192,192,174866,128,0,175042:0:0:0:0:
64,192,175042,128,2,175219:0:0:0:0:
448,192,175042,1,0,0:0:0:0:
320,192,175219,1,0,0:0:0:0:
448,192,175395,1,0,0:0:0:40:whistle2.wav
64,192,175395,1,0,0:0:0:0:
192,192,175395,1,0,0:0:0:0:
320,192,175572,1,0,0:0:0:0:
64,192,175748,1,2,0:0:0:0:
448,192,175748,1,0,0:0:0:0:
192,192,175792,1,0,0:0:0:0:
320,192,175837,1,2,0:0:0:0:
448,192,175925,1,2,0:0:0:0:
64,192,176013,1,2,0:0:0:0:
320,192,176101,1,0,0:0:0:40:whistle2.wav
448,192,176101,1,0,0:0:0:0:
192,192,176101,1,0,0:0:0:0:
64,192,176189,1,2,0:0:0:0:
192,192,176278,1,2,0:0:0:0:
448,192,176366,1,2,0:0:0:0:
64,192,176454,1,2,0:0:0:0:
320,192,176454,1,0,0:0:0:0:
192,192,176542,1,2,0:0:0:0:
448,192,176631,1,2,0:0:0:0:
64,192,176719,1,2,0:0:0:0:
320,192,176807,1,0,0:0:0:40:whistle2.wav
448,192,176807,1,0,0:0:0:0:
192,192,176807,1,0,0:0:0:0:
64,192,176895,1,2,0:0:0:0:
320,192,176984,1,2,0:0:0:0:
192,192,177072,1,2,0:0:0:0:
320,192,177160,1,2,0:0:0:0:
448,192,177160,1,0,0:0:0:0:
192,192,177248,1,2,0:0:0:0:
64,192,177337,1,2,0:0:0:0:
320,192,177425,1,2,0:0:0:0:
64,192,177513,1,0,0:0:0:40:whistle2.wav
192,192,177513,1,0,0:0:0:0:
448,192,177513,1,0,0:0:0:0:
320,192,177601,1,2,0:0:0:0:
448,192,177689,1,2,0:0:0:0:
192,192,177778,1,2,0:0:0:0:
320,192,177866,1,2,0:0:0:0:
448,192,177866,1,0,0:0:0:0:
64,192,177954,1,2,0:0:0:0:
192,192,178042,1,2,0:0:0:0:
448,192,178131,1,2,0:0:0:0:
320,192,178219,1,0,0:0:0:40:whistle2.wav
192,192,178219,1,0,0:0:0:0:
64,192,178219,1,0,0:0:0:0:
448,192,178307,1,2,0:0:0:0:
192,192,178395,1,2,0:0:0:0:
64,192,178484,1,2,0:0:0:0:
320,192,178572,1,2,0:0:0:0:
192,192,178616,1,2,0:0:0:0:
64,192,178660,1,2,0:0:0:0:
192,192,178748,1,2,0:0:0:0:
320,192,178792,1,2,0:0:0:0:
448,192,178837,1,2,0:0:0:0:
320,192,178925,1,2,0:0:0:0:
192,192,178969,1,2,0:0:0:0:
64,192,179013,1,2,0:0:0:0:
192,192,179101,1,2,0:0:0:0:
320,192,179145,1,2,0:0:0:0:
448,192,179189,1,2,0:0:0:0:
320,192,179278,1,2,0:0:0:0:
192,192,179322,1,2,0:0:0:0:
64,192,179366,1,2,0:0:0:0:
448,192,179410,1,2,0:0:0:0:
320,192,179454,1,2,0:0:0:0:
64,192,179498,1,2,0:0:0:0:
192,192,179542,1,2,0:0:0:0:
448,192,179587,1,2,0:0:0:0:
320,192,179631,1,2,0:0:0:0:
192,192,179675,1,2,0:0:0:0:
64,192,179719,1,2,0:0:0:0:
448,192,179763,1,2,0:0:0:0:
320,192,179807,1,2,0:0:0:0:
192,192,179851,1,2,0:0:0:0:
448,192,179895,1,2,0:0:0:0:
64,192,179939,1,2,0:0:0:0:
192,192,179984,1,2,0:0:0:0:
320,192,180028,1,2,0:0:0:0:
64,192,180072,1,2,0:0:0:0:
448,192,180116,1,2,0:0:0:0:
320,192,180160,1,2,0:0:0:0:
192,192,180204,1,2,0:0:0:0:
448,192,180248,1,2,0:0:0:0:
64,192,180292,1,2,0:0:0:0:
192,192,180337,1,2,0:0:0:0:
320,192,180381,1,2,0:0:0:0:
64,192,180425,1,2,0:0:0:0:
448,192,180469,1,2,0:0:0:0:
320,192,180513,1,2,0:0:0:0:
192,192,180557,1,2,0:0:0:0:
64,192,180601,1,2,0:0:0:0:
320,192,180645,1,2,0:0:0:0:
448,192,180689,1,2,0:0:0:0:
64,192,180734,1,2,0:0:0:0:
192,192,180778,1,2,0:0:0:0:
320,192,180822,1,2,0:0:0:0:
448,192,180866,1,2,0:0:0:0:
192,192,180910,1,2,0:0:0:0:
64,192,180954,1,2,0:0:0:0:
448,192,180998,1,2,0:0:0:0:
320,192,181042,1,2,0:0:0:0:
192,192,181087,1,2,0:0:0:0:
64,192,181131,1,2,0:0:0:0:
320,192,181175,1,2,0:0:0:0:
448,192,181219,1,2,0:0:0:0:
64,192,181263,1,2,0:0:0:0:
192,192,181307,1,2,0:0:0:0:
320,192,181351,1,2,0:0:0:0:
448,192,181395,1,0,0:0:0:0:
320,192,181925,1,0,0:0:0:0:
64,192,182278,1,0,0:0:0:0:
64,192,182454,1,0,0:0:0:0:
448,192,182631,1,0,0:0:0:0:
192,192,182807,1,0,0:0:0:0:
320,192,182851,1,0,0:0:0:0:
448,192,182895,1,0,0:0:0:0:
64,192,182939,1,0,0:0:0:0:
320,192,183513,1,0,0:0:0:0:
192,192,183866,1,0,0:0:0:0:
64,192,184219,1,0,0:0:0:0:
320,192,184278,1,0,0:0:0:0:
448,192,184337,1,0,0:0:0:0:
192,192,184572,1,0,0:0:0:0:
192,192,184925,1,0,0:0:0:0:
320,192,184925,1,0,0:0:0:0:
64,192,185278,1,0,0:0:0:0:
320,192,185631,1,0,0:0:0:0:
192,192,185675,1,0,0:0:0:0:
64,192,185719,1,0,0:0:0:0:
448,192,185763,1,0,0:0:0:0:
192,192,185984,1,0,0:0:0:0:
320,192,186160,1,0,0:0:0:0:
64,192,186337,1,0,0:0:0:0:
448,192,186337,1,0,0:0:0:0:
192,192,186513,1,0,0:0:0:0:
320,192,186689,1,0,0:0:0:0:
448,192,187042,1,0,0:0:0:0:
320,192,187087,1,0,0:0:0:0:
192,192,187131,1,0,0:0:0:0:
64,192,187175,1,0,0:0:0:0:
64,192,187572,1,0,0:0:0:0:
320,192,187925,1,0,0:0:0:0:
192,192,188101,1,0,0:0:0:0:
320,192,188278,1,0,0:0:0:0:
64,192,188454,1,0,0:0:0:0:
192,192,188476,1,0,0:0:0:0:
320,192,188498,1,0,0:0:0:0:
448,192,188520,1,0,0:0:0:0:
448,192,189160,1,0,0:0:0:0:
64,192,189513,1,0,0:0:0:0:
448,192,189866,1,0,0:0:0:0:
192,192,189925,1,0,0:0:0:0:
64,192,189984,1,0,0:0:0:0:
320,192,190219,1,0,0:0:0:0:
320,192,190395,1,0,0:0:0:0:
64,192,190572,1,0,0:0:0:0:
448,192,190572,1,0,0:0:0:0:
192,192,190748,1,0,0:0:0:0:
448,192,190925,1,0,0:0:0:0:
320,192,191101,1,0,0:0:0:0:
448,192,191278,1,0,0:0:0:0:
320,192,191366,1,0,0:0:0:0:
192,192,191454,1,0,0:0:0:0:
448,192,191542,1,0,0:0:0:0:
320,192,191631,1,0,0:0:0:0:
448,192,191719,1,0,0:0:0:0:
192,192,191807,1,0,0:0:0:0:
448,192,191895,1,0,0:0:0:0:
320,192,191984,1,0,0:0:0:0:
192,192,192072,1,0,0:0:0:0:
64,192,192160,1,0,0:0:0:0:
192,192,192248,1,0,0:0:0:0:
320,192,192337,128,0,192689:0:0:0:0:
192,192,192689,128,2,193395:0:0:0:0:
64,192,192689,128,0,193395:0:0:0:0:
448,192,192689,128,0,193395:0:0:0:0:
320,192,193395,128,0,193572:0:0:0:0:
192,192,193572,128,0,193748:0:0:0:0:
64,192,193748,128,0,193925:0:0:0:0:
448,192,193925,128,0,194101:0:0:0:0:
192,192,194101,128,2,194807:0:0:0:0:
320,192,194101,128,0,194807:0:0:0:0:
64,192,194101,128,0,194807:0:0:0:0:
448,192,194807,1,0,0:0:0:0:
64,192,194895,1,0,0:0:0:0:
192,192,194895,1,0,0:0:0:0:
448,192,194984,1,0,0:0:0:0:
320,192,194984,1,0,0:0:0:0:
192,192,195160,128,0,195513:0:0:0:0:
64,192,195160,1,0,0:0:0:0:
448,192,195513,128,2,195866:0:0:0:0:
320,192,195513,128,0,195866:0:0:0:0:
64,192,195513,128,0,195866:0:0:0:0:
192,192,196042,128,2,196395:0:0:0:0:
320,192,196042,128,0,196395:0:0:0:0:
64,192,196042,128,0,196395:0:0:0:0:
64,192,196572,128,2,197278:0:0:0:0:
320,192,196572,128,0,197278:0:0:0:0:
448,192,196572,128,0,197278:0:0:0:0:
192,192,197278,1,0,0:0:0:0:
320,192,197322,1,0,0:0:0:0:
448,192,197366,1,0,0:0:0:0:
64,192,197410,1,0,0:0:0:0:
192,192,197454,1,0,0:0:0:0:
320,192,197498,1,0,0:0:0:0:
448,192,197542,1,0,0:0:0:0:
64,192,197587,1,0,0:0:0:0:
192,192,197631,1,0,0:0:0:0:
448,192,197689,1,0,0:0:0:0:
320,192,197748,1,0,0:0:0:0:
192,192,197807,1,0,0:0:0:0:
64,192,197866,1,0,0:0:0:0:
448,192,197925,1,0,0:0:0:0:
320,192,197984,1,0,0:0:0:0:
64,192,198072,1,0,0:0:0:0:
192,192,198160,1,0,0:0:0:0:
320,192,198248,1,0,0:0:0:0:
192,192,198337,128,2,198689:0:0:0:0:
448,192,198337,128,0,198689:0:0:0:0:
64,192,198337,128,0,198689:0:0:0:0:
320,192,198866,128,2,199219:0:0:0:0:
448,192,198866,128,0,199219:0:0:0:0:
64,192,198866,128,0,199219:0:0:0:0:
64,192,199395,128,2,200454:0:0:0:0:
192,192,199395,128,0,200454:0:0:0:0:
448,192,199395,128,0,200454:0:0:0:0:
320,192,200454,128,0,200631:0:0:0:0:
192,192,200631,128,0,200807:0:0:0:0:
320,192,200807,128,0,201160:0:0:0:0:
64,192,201160,128,2,201513:0:0:0:0:
448,192,201160,128,0,201513:0:0:0:0:
192,192,201160,128,0,201513:0:0:0:0:
320,192,201689,128,2,202042:0:0:0:0:
64,192,201689,128,0,202042:0:0:0:0:
192,192,201689,128,0,202042:0:0:0:0:
448,192,202219,128,2,203278:0:0:0:0:
64,192,202219,128,0,203278:0:0:0:0:
192,192,202219,1,0,0:0:0:0:
320,192,202572,128,0,203278:0:0:0:0:
192,192,202925,128,0,203278:0:0:0:0:
192,192,203631,5,0,0:0:0:40:LR3_Snare FCSRL.wav
64,192,203631,1,0,0:0:0:0:
320,192,203631,1,0,0:0:0:0:
448,192,203631,1,0,0:0:0:0:
192,192,203984,1,4,0:0:0:0:
448,192,203984,128,0,204160:0:0:0:0:
64,192,203984,1,0,0:0:0:0:
320,192,203984,128,0,204160:0:0:0:0:
192,192,204160,128,0,204248:0:0:0:0:
64,192,204248,128,0,204337:0:0:0:0:
448,192,204337,128,8,204425:0:0:0:0:
320,192,204337,128,0,204425:0:0:0:0:
192,192,204425,128,0,204513:0:0:0:0:
64,192,204425,128,0,204513:0:0:0:0:
64,192,204601,128,0,204689:0:0:0:0:
320,192,204601,128,0,204689:0:0:0:0:
192,192,204689,128,8,204778:0:0:0:0:
448,192,204689,128,0,204778:0:0:0:0:
320,192,204778,128,0,204866:0:0:0:0:
192,192,204866,128,0,204954:0:0:0:0:
448,192,204954,128,0,205042:0:0:0:0:
320,192,205042,128,8,205131:0:0:0:0:
64,192,205042,128,0,205131:0:0:0:0:
192,192,205131,128,0,205219:0:0:0:0:
320,192,205307,128,0,205395:0:0:0:0:
448,192,205395,128,8,205484:0:0:0:0:
192,192,205395,128,0,205484:0:0:0:0:
64,192,205484,128,0,205572:0:0:0:0:
320,192,205572,128,0,205660:0:0:0:0:
192,192,205660,128,0,205748:0:0:0:0:
448,192,205748,128,8,205837:0:0:0:0:
64,192,205748,128,0,205837:0:0:0:0:
320,192,205837,128,0,205925:0:0:0:0:
192,192,206013,128,0,206189:0:0:0:0:
448,192,206101,128,8,206278:0:0:0:0:
64,192,206101,128,0,206189:0:0:0:0:
320,192,206189,128,0,206366:0:0:0:0:
192,192,206278,128,0,206454:0:0:0:0:
64,192,206366,128,0,206542:0:0:0:0:
448,192,206454,128,8,206719:0:0:0:0:
320,192,206542,128,0,206719:0:0:0:0:
192,192,206631,128,0,206719:0:0:0:0:
64,192,206719,128,0,206807:0:0:0:0:
320,192,206807,128,8,206895:0:0:0:0:
448,192,206807,128,0,206895:0:0:0:0:
64,192,206895,128,0,206984:0:0:0:0:
192,192,206984,128,0,207072:0:0:0:0:
320,192,207072,128,0,207160:0:0:0:0:
64,192,207160,128,8,207248:0:0:0:0:
448,192,207160,128,0,207248:0:0:0:0:
320,192,207248,128,0,207337:0:0:0:0:
192,192,207248,128,0,207337:0:0:0:0:
192,192,207425,128,0,207601:0:0:0:0:
64,192,207425,128,0,207513:0:0:0:0:
320,192,207513,128,8,207601:0:0:0:0:
448,192,207513,128,0,207601:0:0:0:0:
64,192,207601,128,0,207689:0:0:0:0:
192,192,207689,128,0,207778:0:0:0:0:
320,192,207778,128,0,207866:0:0:0:0:
448,192,207866,128,8,207954:0:0:0:0:
64,192,207866,128,0,207954:0:0:0:0:
192,192,207954,128,0,208042:0:0:0:0:
64,192,208131,128,0,208307:0:0:0:0:
320,192,208219,128,8,208307:0:0:0:0:
448,192,208219,128,0,208307:0:0:0:0:
192,192,208307,128,0,208395:0:0:0:0:
64,192,208395,128,0,208484:0:0:0:0:
192,192,208484,128,0,208572:0:0:0:0:
448,192,208572,128,8,208660:0:0:0:0:
320,192,208572,128,0,208660:0:0:0:0:
64,192,208660,128,0,208748:0:0:0:0:
192,192,208660,128,0,208748:0:0:0:0:
320,192,208837,128,0,209013:0:0:0:0:
448,192,208837,128,0,209013:0:0:0:0:
192,192,208925,128,8,209013:0:0:0:0:
64,192,208925,128,0,209013:0:0:0:0:
320,192,209101,128,0,209189:0:0:0:0:
192,192,209101,128,0,209189:0:0:0:0:
64,192,209278,128,8,209366:0:0:0:0:
192,192,209278,128,0,209366:0:0:0:0:
320,192,209366,128,0,209454:0:0:0:0:
192,192,209454,128,0,209542:0:0:0:0:
64,192,209542,128,0,209631:0:0:0:0:
448,192,209631,128,8,209719:0:0:0:0:
320,192,209631,128,0,209719:0:0:0:0:
192,192,209719,128,0,209807:0:0:0:0:
320,192,209807,128,0,209895:0:0:0:0:
64,192,209895,128,0,209984:0:0:0:0:
448,192,209984,128,8,210072:0:0:0:0:
192,192,209984,128,0,210072:0:0:0:0:
320,192,210072,128,0,210160:0:0:0:0:
64,192,210072,128,0,210160:0:0:0:0:
64,192,210248,128,0,210425:0:0:0:0:
320,192,210248,128,0,210337:0:0:0:0:
192,192,210337,128,8,210425:0:0:0:0:
448,192,210337,128,0,210425:0:0:0:0:
320,192,210425,128,0,210513:0:0:0:0:
192,192,210513,128,0,210601:0:0:0:0:
64,192,210601,128,0,210689:0:0:0:0:
448,192,210689,128,8,210778:0:0:0:0:
320,192,210689,128,0,210778:0:0:0:0:
192,192,210778,128,0,210866:0:0:0:0:
64,192,210954,128,0,211131:0:0:0:0:
448,192,211042,128,8,211131:0:0:0:0:
192,192,211042,128,0,211131:0:0:0:0:
320,192,211131,128,0,211219:0:0:0:0:
192,192,211219,128,0,211307:0:0:0:0:
64,192,211307,128,0,211395:0:0:0:0:
320,192,211395,128,8,211484:0:0:0:0:
448,192,211395,128,0,211484:0:0:0:0:
192,192,211484,128,0,211572:0:0:0:0:
320,192,211660,128,0,211837:0:0:0:0:
448,192,211748,128,8,211837:0:0:0:0:
64,192,211748,128,0,211925:0:0:0:0:
192,192,211837,128,0,212013:0:0:0:0:
320,192,211925,128,0,212101:0:0:0:0:
448,192,212013,128,0,212189:0:0:0:0:
64,192,212101,128,8,212366:0:0:0:0:
192,192,212189,128,0,212366:0:0:0:0:
320,192,212278,128,0,212366:0:0:0:0:
448,192,212366,128,0,212454:0:0:0:0:
192,192,212454,128,8,212542:0:0:0:0:
64,192,212454,128,0,212542:0:0:0:0:
320,192,212542,128,0,212631:0:0:0:0:
192,192,212631,128,0,212719:0:0:0:0:
64,192,212719,128,0,212807:0:0:0:0:
320,192,212807,128,8,212895:0:0:0:0:
448,192,212807,128,0,212895:0:0:0:0:
192,192,212895,128,0,212984:0:0:0:0:
64,192,212895,128,0,212984:0:0:0:0:
64,192,213072,128,0,213160:0:0:0:0:
448,192,213072,128,0,213160:0:0:0:0:
320,192,213160,128,8,213248:0:0:0:0:
192,192,213160,128,0,213248:0:0:0:0:
320,192,213337,128,0,213425:0:0:0:0:
448,192,213337,128,0,213425:0:0:0:0:
192,192,213425,128,0,213513:0:0:0:0:
64,192,213425,128,0,213513:0:0:0:0:
320,192,213513,128,8,213601:0:0:0:0:
448,192,213513,128,0,213601:0:0:0:0:
64,192,213601,128,0,213689:0:0:0:0:
448,192,213689,128,0,213778:0:0:0:0:
320,192,213778,128,0,213866:0:0:0:0:
64,192,213778,128,0,213954:0:0:0:0:
448,192,213866,128,8,213954:0:0:0:0:
192,192,213866,128,0,213954:0:0:0:0:
192,192,214042,128,0,214131:0:0:0:0:
320,192,214131,128,0,214219:0:0:0:0:
64,192,214131,128,0,214219:0:0:0:0:
448,192,214219,128,8,214307:0:0:0:0:
192,192,214219,128,0,214307:0:0:0:0:
64,192,214307,128,0,214395:0:0:0:0:
320,192,214395,128,0,214484:0:0:0:0:
192,192,214484,128,0,214572:0:0:0:0:
64,192,214572,128,8,214660:0:0:0:0:
448,192,214572,128,0,214748:0:0:0:0:
320,192,214660,128,0,214837:0:0:0:0:
192,192,214748,128,0,214925:0:0:0:0:
64,192,214837,128,0,214925:0:0:0:0:
448,192,214925,1,8,0:0:0:0:
320,192,214925,1,0,0:0:0:0:
192,192,215013,1,0,0:0:0:0:
320,192,215101,1,0,0:0:0:0:
192,192,215189,1,0,0:0:0:0:
320,192,215278,1,2,0:0:0:0:
64,192,215278,1,0,0:0:0:0:
448,192,215278,1,0,0:0:0:0:
192,192,215366,1,2,0:0:0:0:
64,192,215454,1,2,0:0:0:0:
448,192,215454,1,0,0:0:0:0:
320,192,215542,1,2,0:0:0:0:
192,192,215631,1,2,0:0:0:0:
448,192,215631,1,0,0:0:0:0:
64,192,215631,1,0,0:0:0:0:
320,192,215719,1,2,0:0:0:0:
192,192,215807,1,2,0:0:0:0:
448,192,215807,1,0,0:0:0:0:
64,192,215895,1,2,0:0:0:0:
192,192,215984,1,2,0:0:0:0:
320,192,215984,1,0,0:0:0:0:
448,192,215984,1,0,0:0:0:0:
64,192,216072,1,2,0:0:0:0:
192,192,216160,1,2,0:0:0:0:
448,192,216160,1,0,0:0:0:0:
320,192,216248,1,2,0:0:0:0:
192,192,216337,1,2,0:0:0:0:
64,192,216337,1,0,0:0:0:0:
448,192,216337,1,0,0:0:0:0:
320,192,216425,1,2,0:0:0:0:
192,192,216513,1,2,0:0:0:0:
64,192,216513,1,0,0:0:0:0:
448,192,216601,1,2,0:0:0:0:
320,192,216689,1,2,0:0:0:0:
192,192,216689,1,0,0:0:0:0:
64,192,216689,1,0,0:0:0:0:
448,192,216778,1,2,0:0:0:0:
64,192,216866,1,2,0:0:0:0:
320,192,216866,1,0,0:0:0:0:
192,192,216954,1,2,0:0:0:0:
320,192,217042,1,2,0:0:0:0:
448,192,217042,1,0,0:0:0:0:
64,192,217042,1,0,0:0:0:0:
192,192,217131,1,2,0:0:0:0:
448,192,217219,1,2,0:0:0:0:
320,192,217219,1,0,0:0:0:0:
64,192,217307,1,2,0:0:0:0:
192,192,217395,1,2,0:0:0:0:
320,192,217395,1,0,0:0:0:0:
448,192,217395,1,0,0:0:0:0:
64,192,217484,1,2,0:0:0:0:
448,192,217572,1,2,0:0:0:0:
192,192,217572,1,0,0:0:0:0:
320,192,217660,1,2,0:0:0:0:
64,192,217748,1,4,0:0:0:0:
448,192,217748,1,0,0:0:0:0:
192,192,217748,1,0,0:0:0:0:
64,192,218101,1,2,0:0:0:0:
448,192,218101,1,0,0:0:0:0:
192,192,218101,1,0,0:0:0:0:
320,192,218189,1,2,0:0:0:0:
192,192,218278,1,2,0:0:0:0:
64,192,218278,1,0,0:0:0:0:
448,192,218366,1,2,0:0:0:0:
320,192,218454,1,2,0:0:0:0:
192,192,218454,1,0,0:0:0:0:
64,192,218454,1,0,0:0:0:0:
448,192,218542,1,2,0:0:0:0:
64,192,218631,1,2,0:0:0:0:
320,192,218631,1,0,0:0:0:0:
192,192,218719,1,2,0:0:0:0:
448,192,218807,1,2,0:0:0:0:
320,192,218807,1,0,0:0:0:0:
64,192,218807,1,0,0:0:0:0:
192,192,218895,1,2,0:0:0:0:
448,192,218984,1,2,0:0:0:0:
64,192,218984,1,0,0:0:0:0:
320,192,219072,1,2,0:0:0:0:
192,192,219160,1,2,0:0:0:0:
64,192,219160,1,0,0:0:0:0:
448,192,219160,1,0,0:0:0:0:
320,192,219248,1,2,0:0:0:0:
448,192,219337,1,2,0:0:0:0:
192,192,219337,1,0,0:0:0:0:
64,192,219337,1,0,0:0:0:0:
192,192,219425,1,2,0:0:0:0:
64,192,219425,1,0,0:0:0:0:
320,192,219513,1,2,0:0:0:0:
448,192,219513,1,0,0:0:0:0:
320,192,219601,1,2,0:0:0:0:
448,192,219601,1,0,0:0:0:0:
192,192,219689,1,2,0:0:0:0:
64,192,219689,1,0,0:0:0:0:
192,192,219778,1,2,0:0:0:0:
64,192,219778,1,0,0:0:0:0:
320,192,219866,1,2,0:0:0:0:
448,192,219866,1,0,0:0:0:0:
192,192,219954,1,2,0:0:0:0:
64,192,220042,1,2,0:0:0:0:
320,192,220042,1,0,0:0:0:0:
448,192,220131,1,2,0:0:0:0:
192,192,220219,1,2,0:0:0:0:
64,192,220219,1,0,0:0:0:0:
320,192,220219,1,0,0:0:0:0:
448,192,220307,1,2,0:0:0:0:
64,192,220395,1,2,0:0:0:0:
192,192,220395,1,0,0:0:0:0:
320,192,220484,1,2,0:0:0:0:
64,192,220572,1,4,0:0:0:0:
448,192,220572,1,0,0:0:0:0:
192,192,220572,1,0,0:0:0:0:
192,192,220925,1,2,0:0:0:0:
64,192,220925,1,0,0:0:0:0:
320,192,220925,1,0,0:0:0:0:
448,192,220925,1,0,0:0:0:0:
448,192,221013,1,2,0:0:0:0:
320,192,221013,1,0,0:0:0:0:
192,192,221101,1,2,0:0:0:0:
64,192,221101,1,0,0:0:0:0:
448,192,221189,1,2,0:0:0:0:
320,192,221189,1,0,0:0:0:0:
192,192,221278,1,2,0:0:0:0:
64,192,221278,1,0,0:0:0:0:
448,192,221366,1,2,0:0:0:0:
320,192,221366,1,0,0:0:0:0:
192,192,221454,1,2,0:0:0:0:
64,192,221454,1,0,0:0:0:0:
320,192,221542,1,2,0:0:0:0:
448,192,221542,1,0,0:0:0:0:
192,192,221631,1,2,0:0:0:0:
64,192,221631,1,0,0:0:0:0:
320,192,221719,1,2,0:0:0:0:
448,192,221719,1,0,0:0:0:0:
192,192,221807,1,2,0:0:0:0:
64,192,221807,1,0,0:0:0:0:
320,192,221895,1,2,0:0:0:0:
448,192,221895,1,0,0:0:0:0:
192,192,221984,1,2,0:0:0:0:
64,192,221984,1,0,0:0:0:0:
448,192,221984,1,0,0:0:0:0:
448,192,222337,1,4,0:0:0:0:
320,192,222337,1,0,0:0:0:0:
64,192,222337,1,0,0:0:0:0:
192,192,222337,1,0,0:0:0:0:
64,192,222425,1,2,0:0:0:0:
192,192,222425,1,0,0:0:0:0:
320,192,222513,1,2,0:0:0:0:
448,192,222513,1,0,0:0:0:0:
64,192,222601,1,2,0:0:0:0:
192,192,222601,1,0,0:0:0:0:
320,192,222689,1,2,0:0:0:0:
448,192,222689,1,0,0:0:0:0:
64,192,222778,1,2,0:0:0:0:
192,192,222778,1,0,0:0:0:0:
320,192,222866,1,2,0:0:0:0:
448,192,222866,1,0,0:0:0:0:
64,192,222954,1,2,0:0:0:0:
192,192,222954,1,0,0:0:0:0:
320,192,223042,1,2,0:0:0:0:
448,192,223042,1,0,0:0:0:0:
192,192,223131,1,2,0:0:0:0:
64,192,223131,1,0,0:0:0:0:
320,192,223219,1,2,0:0:0:0:
448,192,223219,1,0,0:0:0:0:
192,192,223307,1,2,0:0:0:0:
64,192,223307,1,0,0:0:0:0:
320,192,223395,1,2,0:0:0:0:
448,192,223395,1,0,0:0:0:0:
64,192,223395,1,0,0:0:0:0:
320,192,223748,1,4,0:0:0:0:
448,192,223748,1,0,0:0:0:0:
192,192,223792,1,2,0:0:0:0:
64,192,223837,1,2,0:0:0:0:
320,192,223881,1,2,0:0:0:0:
448,192,223925,1,2,0:0:0:0:
64,192,223969,1,2,0:0:0:0:
192,192,224013,1,2,0:0:0:0:
320,192,224057,1,2,0:0:0:0:
448,192,224101,1,2,0:0:0:0:
192,192,224145,1,2,0:0:0:0:
64,192,224189,1,2,0:0:0:0:
448,192,224234,1,2,0:0:0:0:
320,192,224278,1,2,0:0:0:0:
192,192,224322,1,2,0:0:0:0:
64,192,224366,1,2,0:0:0:0:
320,192,224410,1,2,0:0:0:0:
448,192,224454,1,2,0:0:0:0:
64,192,224498,1,2,0:0:0:0:
192,192,224542,1,2,0:0:0:0:
320,192,224587,1,2,0:0:0:0:
448,192,224631,1,2,0:0:0:0:
192,192,224675,1,2,0:0:0:0:
64,192,224719,1,2,0:0:0:0:
448,192,224763,1,2,0:0:0:0:
320,192,224807,1,2,0:0:0:0:
192,192,224851,1,2,0:0:0:0:
64,192,224895,1,2,0:0:0:0:
320,192,224939,1,2,0:0:0:0:
448,192,224984,1,2,0:0:0:0:
64,192,225028,1,2,0:0:0:0:
192,192,225072,1,2,0:0:0:0:
320,192,225116,1,2,0:0:0:0:
64,192,225160,1,2,0:0:0:0:
448,192,225160,1,0,0:0:0:0:
320,192,225513,1,2,0:0:0:0:
448,192,225513,1,0,0:0:0:0:
64,192,225689,1,2,0:0:0:0:
192,192,225778,1,2,0:0:0:0:
320,192,225866,1,2,0:0:0:0:
448,192,225866,1,0,0:0:0:0:
192,192,226042,1,2,0:0:0:0:
320,192,226042,1,0,0:0:0:0:
448,192,226219,1,0,0:0:0:0:
64,192,226219,128,0,226484:0:0:0:0:
192,192,226307,128,0,226484:0:0:0:0:
320,192,226395,128,0,226572:0:0:0:0:
448,192,226484,128,0,226572:0:0:0:0:
64,192,226572,128,0,226881:0:0:0:0:
192,192,226572,128,0,226881:0:0:0:0:
448,192,226925,128,4,227101:0:0:0:0:
320,192,226925,128,0,227101:0:0:0:0:
64,192,226925,128,0,227101:0:0:0:0:
192,192,227013,128,0,227101:0:0:0:0:
320,192,227189,128,0,227278:0:0:0:0:
64,192,227189,128,0,227278:0:0:0:0:
192,192,227278,128,2,227542:0:0:0:0:
448,192,227278,128,0,227454:0:0:0:0:
320,192,227366,128,0,227542:0:0:0:0:
64,192,227454,128,0,227631:0:0:0:0:
448,192,227542,128,0,227719:0:0:0:0:
192,192,227631,128,8,227895:0:0:0:0:
320,192,227631,128,0,227807:0:0:0:0:
64,192,227719,128,0,227984:0:0:0:0:
448,192,227807,128,0,227895:0:0:0:0:
320,192,227895,128,0,227984:0:0:0:0:
192,192,227984,128,2,228160:0:0:0:0:
448,192,227984,128,0,228160:0:0:0:0:
320,192,228072,128,0,228160:0:0:0:0:
64,192,228160,128,0,228248:0:0:0:0:
192,192,228248,128,0,228337:0:0:0:0:
320,192,228337,128,8,228513:0:0:0:0:
448,192,228337,128,0,228513:0:0:0:0:
192,192,228425,128,0,228513:0:0:0:0:
64,192,228425,128,0,228513:0:0:0:0:
192,192,228601,128,0,228689:0:0:0:0:
320,192,228601,128,0,228689:0:0:0:0:
64,192,228689,128,2,229131:0:0:0:0:
448,192,228689,128,0,228866:0:0:0:0:
192,192,228778,128,0,229042:0:0:0:0:
320,192,228866,128,0,228954:0:0:0:0:
448,192,228954,128,0,229307:0:0:0:0:
320,192,229042,128,8,229307:0:0:0:0:
192,192,229131,128,0,229219:0:0:0:0:
64,192,229219,128,0,229395:0:0:0:0:
192,192,229307,128,0,229395:0:0:0:0:
448,192,229395,128,2,229572:0:0:0:0:
320,192,229395,128,0,229484:0:0:0:0:
64,192,229484,128,0,229572:0:0:0:0:
320,192,229572,128,0,229748:0:0:0:0:
192,192,229572,128,0,229660:0:0:0:0:
64,192,229660,128,0,229748:0:0:0:0:
448,192,229748,128,8,229837:0:0:0:0:
192,192,229748,128,0,229925:0:0:0:0:
64,192,229837,128,0,229925:0:0:0:0:
448,192,229925,128,0,230013:0:0:0:0:
320,192,229925,128,0,230101:0:0:0:0:
64,192,230013,128,0,230101:0:0:0:0:
192,192,230101,128,2,230278:0:0:0:0:
448,192,230101,128,0,230366:0:0:0:0:
64,192,230189,128,0,230366:0:0:0:0:
320,192,230278,128,0,230454:0:0:0:0:
192,192,230366,128,0,230454:0:0:0:0:
448,192,230454,128,8,230542:0:0:0:0:
64,192,230454,128,0,230631:0:0:0:0:
320,192,230542,128,0,230631:0:0:0:0:
448,192,230631,128,0,230807:0:0:0:0:
192,192,230631,128,0,230719:0:0:0:0:
64,192,230719,128,0,230807:0:0:0:0:
192,192,230807,128,2,230984:0:0:0:0:
320,192,230807,128,0,230895:0:0:0:0:
448,192,230895,128,0,231072:0:0:0:0:
320,192,230984,128,0,231160:0:0:0:0:
64,192,230984,128,0,231072:0:0:0:0:
192,192,231072,128,0,231160:0:0:0:0:
448,192,231160,128,8,231337:0:0:0:0:
64,192,231160,128,0,231337:0:0:0:0:
320,192,231248,128,0,231337:0:0:0:0:
192,192,231248,128,0,231337:0:0:0:0:
192,192,231425,128,0,231601:0:0:0:0:
64,192,231425,128,0,231601:0:0:0:0:
448,192,231513,128,2,231822:0:0:0:0:
320,192,231513,128,0,231822:0:0:0:0:
64,192,231689,128,0,231822:0:0:0:0:
192,192,231689,128,0,231822:0:0:0:0:
448,192,231866,1,4,0:0:0:0:
320,192,231866,1,0,0:0:0:0:
192,192,231866,1,0,0:0:0:0:
64,192,231866,1,0,0:0:0:0:
448,192,232219,128,2,232484:0:0:0:0:
320,192,232219,128,0,232395:0:0:0:0:
64,192,232307,128,0,232484:0:0:0:0:
192,192,232395,128,0,232572:0:0:0:0:
320,192,232484,128,0,232572:0:0:0:0:
64,192,232572,128,8,232748:0:0:0:0:
448,192,232572,128,0,232660:0:0:0:0:
320,192,232660,128,0,232748:0:0:0:0:
192,192,232748,128,0,232837:0:0:0:0:
448,192,232748,128,0,232925:0:0:0:0:
64,192,232837,128,0,232925:0:0:0:0:
320,192,232925,128,2,233013:0:0:0:0:
192,192,232925,128,0,233101:0:0:0:0:
64,192,233013,128,0,233189:0:0:0:0:
320,192,233101,128,0,233278:0:0:0:0:
192,192,233189,128,0,233278:0:0:0:0:
64,192,233278,128,8,233366:0:0:0:0:
448,192,233278,128,0,233454:0:0:0:0:
320,192,233366,128,0,233454:0:0:0:0:
64,192,233454,128,0,233631:0:0:0:0:
192,192,233454,128,0,233542:0:0:0:0:
448,192,233542,128,0,233631:0:0:0:0:
192,192,233631,128,2,233719:0:0:0:0:
320,192,233631,128,0,233807:0:0:0:0:
448,192,233719,128,0,233895:0:0:0:0:
192,192,233807,128,0,233984:0:0:0:0:
320,192,233895,128,0,233984:0:0:0:0:
448,192,233984,128,8,234072:0:0:0:0:
64,192,233984,128,0,234160:0:0:0:0:
192,192,234072,128,0,234160:0:0:0:0:
320,192,234072,128,0,234160:0:0:0:0:
320,192,234248,128,0,234337:0:0:0:0:
64,192,234248,128,0,234337:0:0:0:0:
448,192,234337,128,2,234689:0:0:0:0:
192,192,234337,128,0,234513:0:0:0:0:
64,192,234425,128,0,234601:0:0:0:0:
320,192,234513,128,0,234601:0:0:0:0:
192,192,234601,128,0,234778:0:0:0:0:
320,192,234689,128,8,234954:0:0:0:0:
64,192,234689,128,0,234866:0:0:0:0:
448,192,234778,128,0,235042:0:0:0:0:
192,192,234866,128,0,234954:0:0:0:0:
64,192,234954,128,0,235042:0:0:0:0:
320,192,235042,128,2,235219:0:0:0:0:
192,192,235042,128,0,235131:0:0:0:0:
448,192,235131,128,0,235307:0:0:0:0:
64,192,235219,128,0,235395:0:0:0:0:
192,192,235307,128,0,235395:0:0:0:0:
320,192,235395,128,8,235572:0:0:0:0:
448,192,235395,128,0,235572:0:0:0:0:
64,192,235484,128,0,235572:0:0:0:0:
192,192,235484,128,0,235572:0:0:0:0:
64,192,235660,128,0,235837:0:0:0:0:
192,192,235660,128,0,235837:0:0:0:0:
320,192,235748,128,2,235837:0:0:0:0:
448,192,235748,128,0,235837:0:0:0:0:
448,192,235925,128,0,236013:0:0:0:0:
64,192,235925,128,0,236013:0:0:0:0:
320,192,236013,128,0,236101:0:0:0:0:
192,192,236013,128,0,236101:0:0:0:0:
64,192,236101,128,8,236278:0:0:0:0:
448,192,236101,128,0,236189:0:0:0:0:
320,192,236189,128,0,236278:0:0:0:0:
448,192,236278,128,0,236366:0:0:0:0:
192,192,236278,128,0,236366:0:0:0:0:
320,192,236366,128,0,236454:0:0:0:0:
64,192,236454,128,2,236542:0:0:0:0:
192,192,236454,128,0,236542:0:0:0:0:
448,192,236631,128,0,236719:0:0:0:0:
192,192,236631,128,0,236807:0:0:0:0:
64,192,236719,128,0,236807:0:0:0:0:
448,192,236807,128,8,236984:0:0:0:0:
320,192,236807,128,0,236895:0:0:0:0:
64,192,236895,128,0,237072:0:0:0:0:
320,192,236984,128,0,237072:0:0:0:0:
192,192,236984,128,0,237072:0:0:0:0:
448,192,237072,128,0,237160:0:0:0:0:
64,192,237160,128,2,237425:0:0:0:0:
320,192,237160,128,0,237337:0:0:0:0:
192,192,237248,128,0,237425:0:0:0:0:
448,192,237337,128,0,237425:0:0:0:0:
320,192,237425,128,0,237513:0:0:0:0:
448,192,237513,1,4,0:0:0:0:
192,192,237513,1,0,0:0:0:0:
64,192,237513,1,0,0:0:0:0:
64,192,237866,128,0,238175:0:0:0:0:
448,192,237866,128,0,238175:0:0:0:0:
320,192,237866,128,0,238175:0:0:0:0:
448,192,238219,128,8,238395:0:0:0:0:
192,192,238219,128,0,238395:0:0:0:0:
64,192,238219,128,0,238395:0:0:0:0:
320,192,238307,128,0,238395:0:0:0:0:
192,192,238484,128,0,238572:0:0:0:0:
64,192,238484,128,0,238572:0:0:0:0:
448,192,238572,128,2,238837:0:0:0:0:
320,192,238572,128,0,238748:0:0:0:0:
64,192,238660,128,0,238925:0:0:0:0:
192,192,238748,128,0,238837:0:0:0:0:
320,192,238837,128,0,238925:0:0:0:0:
448,192,238925,128,8,239013:0:0:0:0:
192,192,238925,128,0,239101:0:0:0:0:
64,192,239013,128,0,239101:0:0:0:0:
320,192,239101,128,0,239278:0:0:0:0:
448,192,239101,128,0,239189:0:0:0:0:
192,192,239189,128,0,239278:0:0:0:0:
64,192,239278,128,2,239366:0:0:0:0:
448,192,239278,128,0,239454:0:0:0:0:
192,192,239366,128,0,239454:0:0:0:0:
64,192,239454,128,0,239631:0:0:0:0:
320,192,239454,128,0,239542:0:0:0:0:
192,192,239542,128,0,239631:0:0:0:0:
320,192,239631,128,8,239807:0:0:0:0:
448,192,239631,128,0,239807:0:0:0:0:
192,192,239719,128,0,239807:0:0:0:0:
64,192,239719,128,0,239807:0:0:0:0:
320,192,239895,128,0,239984:0:0:0:0:
192,192,239895,128,0,239984:0:0:0:0:
448,192,239984,128,2,240248:0:0:0:0:
64,192,239984,128,0,240072:0:0:0:0:
320,192,240072,128,0,240248:0:0:0:0:
192,192,240160,128,0,240425:0:0:0:0:
64,192,240248,128,0,240337:0:0:0:0:
448,192,240337,128,8,240601:0:0:0:0:
320,192,240337,128,0,240513:0:0:0:0:
64,192,240425,128,0,240601:0:0:0:0:
192,192,240513,128,0,240689:0:0:0:0:
320,192,240601,128,0,240689:0:0:0:0:
448,192,240689,128,2,240778:0:0:0:0:
64,192,240689,128,0,240866:0:0:0:0:
320,192,240778,128,0,240866:0:0:0:0:
192,192,240866,128,0,241042:0:0:0:0:
448,192,240866,128,0,240954:0:0:0:0:
64,192,240954,128,0,241042:0:0:0:0:
320,192,241042,128,8,241219:0:0:0:0:
448,192,241042,128,0,241219:0:0:0:0:
64,192,241131,128,0,241219:0:0:0:0:
192,192,241131,128,0,241219:0:0:0:0:
64,192,241307,128,0,241395:0:0:0:0:
448,192,241307,128,0,241395:0:0:0:0:
192,192,241395,128,2,241484:0:0:0:0:
320,192,241395,128,0,241572:0:0:0:0:
448,192,241484,128,0,241660:0:0:0:0:
192,192,241572,128,0,241748:0:0:0:0:
320,192,241660,128,0,241748:0:0:0:0:
448,192,241748,128,8,241837:0:0:0:0:
64,192,241748,128,0,241925:0:0:0:0:
192,192,241837,128,0,241925:0:0:0:0:
448,192,241925,128,0,242013:0:0:0:0:
320,192,241925,128,0,242101:0:0:0:0:
192,192,242013,128,0,242101:0:0:0:0:
448,192,242101,128,2,242278:0:0:0:0:
64,192,242101,128,0,242189:0:0:0:0:
320,192,242189,128,0,242366:0:0:0:0:
192,192,242278,128,0,242454:0:0:0:0:
64,192,242366,128,0,242454:0:0:0:0:
448,192,242454,128,8,242542:0:0:0:0:
320,192,242454,128,0,242631:0:0:0:0:
192,192,242542,128,0,242631:0:0:0:0:
64,192,242542,128,0,242631:0:0:0:0:
448,192,242631,128,0,242719:0:0:0:0:
192,192,242719,128,0,242895:0:0:0:0:
320,192,242719,128,0,242895:0:0:0:0:
448,192,242807,128,2,243116:0:0:0:0:
64,192,242807,128,0,243116:0:0:0:0:
192,192,242984,128,0,243116:0:0:0:0:
320,192,242984,128,0,243116:0:0:0:0:
192,192,243160,1,4,0:0:0:0:
64,192,243160,1,0,0:0:0:0:
320,192,243160,1,0,0:0:0:0:
448,192,243160,1,0,0:0:0:0:
64,192,243513,1,2,0:0:0:0:
192,192,243557,1,2,0:0:0:0:
320,192,243601,1,2,0:0:0:0:
448,192,243601,1,0,0:0:0:0:
192,192,243689,1,2,0:0:0:0:
64,192,243689,1,0,0:0:0:0:
320,192,243778,1,2,0:0:0:0:
448,192,243778,1,0,0:0:0:0:
192,192,243866,1,2,0:0:0:0:
64,192,243866,1,0,0:0:0:0:
320,192,243954,1,2,0:0:0:0:
448,192,243954,1,0,0:0:0:0:
192,192,244042,1,2,0:0:0:0:
64,192,244042,1,0,0:0:0:0:
320,192,244131,1,2,0:0:0:0:
448,192,244131,1,0,0:0:0:0:
192,192,244219,1,2,0:0:0:0:
64,192,244219,1,0,0:0:0:0:
320,192,244307,1,2,0:0:0:0:
448,192,244307,1,0,0:0:0:0:
192,192,244395,1,2,0:0:0:0:
64,192,244395,1,0,0:0:0:0:
320,192,244484,1,2,0:0:0:0:
448,192,244484,1,0,0:0:0:0:
64,192,244572,128,2,244925:0:0:0:0:
192,192,244572,128,0,244925:0:0:0:0:
448,192,244925,1,2,0:0:0:0:
320,192,244969,1,2,0:0:0:0:
192,192,245013,1,2,0:0:0:0:
64,192,245013,1,0,0:0:0:0:
320,192,245101,1,2,0:0:0:0:
448,192,245101,1,0,0:0:0:0:
192,192,245189,1,2,0:0:0:0:
64,192,245189,1,0,0:0:0:0:
320,192,245278,1,2,0:0:0:0:
448,192,245278,1,0,0:0:0:0:
192,192,245366,1,2,0:0:0:0:
64,192,245366,1,0,0:0:0:0:
320,192,245454,1,2,0:0:0:0:
448,192,245454,1,0,0:0:0:0:
192,192,245542,1,2,0:0:0:0:
64,192,245542,1,0,0:0:0:0:
320,192,245631,1,2,0:0:0:0:
448,192,245631,1,0,0:0:0:0:
192,192,245719,1,2,0:0:0:0:
64,192,245719,1,0,0:0:0:0:
320,192,245807,1,2,0:0:0:0:
448,192,245807,1,0,0:0:0:0:
64,192,245895,1,2,0:0:0:0:
192,192,245895,1,0,0:0:0:0:
320,192,245984,128,2,246072:0:0:0:0:
448,192,245984,128,0,246072:0:0:0:0:
320,192,246160,128,2,246337:0:0:0:0:
448,192,246160,128,0,246337:0:0:0:0:
64,192,246337,1,2,0:0:0:0:
192,192,246381,1,2,0:0:0:0:
320,192,246425,1,2,0:0:0:0:
448,192,246425,1,0,0:0:0:0:
192,192,246513,1,2,0:0:0:0:
64,192,246513,1,0,0:0:0:0:
320,192,246601,1,2,0:0:0:0:
448,192,246601,1,0,0:0:0:0:
64,192,246689,1,2,0:0:0:0:
192,192,246689,1,0,0:0:0:0:
320,192,246778,1,2,0:0:0:0:
448,192,246866,1,2,0:0:0:0:
64,192,246866,1,0,0:0:0:0:
192,192,246954,1,2,0:0:0:0:
320,192,247042,1,2,0:0:0:0:
448,192,247042,1,0,0:0:0:0:
192,192,247087,1,2,0:0:0:0:
64,192,247131,1,2,0:0:0:0:
320,192,247219,1,2,0:0:0:0:
448,192,247219,1,0,0:0:0:0:
64,192,247307,1,2,0:0:0:0:
320,192,247395,1,2,0:0:0:0:
448,192,247395,1,0,0:0:0:0:
192,192,247439,1,2,0:0:0:0:
64,192,247484,1,2,0:0:0:0:
448,192,247528,1,2,0:0:0:0:
320,192,247572,1,2,0:0:0:0:
192,192,247616,1,2,0:0:0:0:
448,192,247660,1,2,0:0:0:0:
320,192,247704,1,2,0:0:0:0:
192,192,247748,1,2,0:0:0:0:
64,192,247748,1,0,0:0:0:0:
64,192,248101,1,2,0:0:0:0:
448,192,248101,1,0,0:0:0:0:
64,192,248454,1,2,0:0:0:0:
448,192,248454,1,0,0:0:0:0:
192,192,248807,1,4,0:0:0:0:
64,192,248807,1,0,0:0:0:0:
448,192,248807,1,0,0:0:0:0:
320,192,248807,1,0,0:0:0:0:
448,192,249160,128,2,249248:0:0:0:0:
320,192,249160,128,0,249248:0:0:0:0:
64,192,249160,128,0,249337:0:0:0:0:
192,192,249248,128,0,249337:0:0:0:0:
320,192,249337,128,0,249513:0:0:0:0:
448,192,249337,128,0,249425:0:0:0:0:
64,192,249425,128,0,249513:0:0:0:0:
192,192,249513,128,8,249601:0:0:0:0:
448,192,249513,128,0,249689:0:0:0:0:
320,192,249601,128,0,249778:0:0:0:0:
64,192,249601,128,0,249778:0:0:0:0:
448,192,249778,128,0,249954:0:0:0:0:
192,192,249778,128,0,249866:0:0:0:0:
320,192,249866,128,2,249954:0:0:0:0:
64,192,249866,128,0,250131:0:0:0:0:
192,192,249954,128,0,250131:0:0:0:0:
448,192,250042,128,0,250219:0:0:0:0:
320,192,250131,128,0,250219:0:0:0:0:
192,192,250219,128,8,250307:0:0:0:0:
64,192,250219,128,0,250395:0:0:0:0:
320,192,250307,128,0,250484:0:0:0:0:
448,192,250307,128,0,250484:0:0:0:0:
192,192,250484,128,0,250660:0:0:0:0:
64,192,250484,128,0,250572:0:0:0:0:
448,192,250572,128,2,250660:0:0:0:0:
320,192,250572,128,0,250748:0:0:0:0:
64,192,250660,128,0,250748:0:0:0:0:
192,192,250748,128,0,250837:0:0:0:0:
448,192,250748,128,0,250837:0:0:0:0:
320,192,250837,128,0,250925:0:0:0:0:
192,192,250925,128,8,251101:0:0:0:0:
448,192,250925,128,0,251013:0:0:0:0:
320,192,251013,128,0,251189:0:0:0:0:
64,192,251013,128,0,251189:0:0:0:0:
192,192,251189,128,0,251366:0:0:0:0:
448,192,251278,128,2,251454:0:0:0:0:
64,192,251278,128,0,251366:0:0:0:0:
320,192,251366,128,0,251542:0:0:0:0:
64,192,251454,128,0,251719:0:0:0:0:
192,192,251542,128,0,251631:0:0:0:0:
320,192,251631,128,8,251807:0:0:0:0:
448,192,251631,128,0,251719:0:0:0:0:
192,192,251719,128,0,251895:0:0:0:0:
64,192,251807,128,0,251984:0:0:0:0:
448,192,251895,128,0,251984:0:0:0:0:
192,192,251984,128,2,252160:0:0:0:0:
320,192,251984,128,0,252072:0:0:0:0:
64,192,252072,128,0,252248:0:0:0:0:
320,192,252160,128,0,252337:0:0:0:0:
448,192,252248,128,0,252337:0:0:0:0:
64,192,252337,128,8,252513:0:0:0:0:
192,192,252337,128,0,252425:0:0:0:0:
448,192,252425,128,0,252601:0:0:0:0:
320,192,252425,128,0,252601:0:0:0:0:
64,192,252601,128,0,252778:0:0:0:0:
320,192,252689,128,2,252866:0:0:0:0:
192,192,252689,128,0,252778:0:0:0:0:
448,192,252778,128,0,252954:0:0:0:0:
192,192,252866,128,0,253042:0:0:0:0:
64,192,252866,128,0,252954:0:0:0:0:
320,192,252954,128,0,253042:0:0:0:0:
64,192,253042,128,8,253219:0:0:0:0:
448,192,253042,128,0,253131:0:0:0:0:
192,192,253131,128,0,253307:0:0:0:0:
320,192,253131,128,0,253307:0:0:0:0:
64,192,253307,128,0,253484:0:0:0:0:
320,192,253395,128,2,253484:0:0:0:0:
192,192,253395,128,0,253572:0:0:0:0:
448,192,253484,128,0,253660:0:0:0:0:
320,192,253572,128,0,253748:0:0:0:0:
192,192,253660,128,0,253748:0:0:0:0:
64,192,253748,128,8,253925:0:0:0:0:
448,192,253748,128,0,254013:0:0:0:0:
192,192,253837,128,0,253925:0:0:0:0:
320,192,253837,128,0,254013:0:0:0:0:
64,192,254013,128,0,254410:0:0:0:0:
192,192,254013,128,0,254189:0:0:0:0:
448,192,254101,128,2,254410:0:0:0:0:
320,192,254101,128,0,254189:0:0:0:0:
320,192,254278,128,0,254410:0:0:0:0:
192,192,254278,128,0,254410:0:0:0:0:
64,192,254454,1,4,0:0:0:0:
192,192,254454,1,0,0:0:0:0:
320,192,254454,1,0,0:0:0:0:
448,192,254454,1,0,0:0:0:0:
320,192,254807,128,2,254895:0:0:0:0:
64,192,254807,128,0,254984:0:0:0:0:
192,192,254895,128,0,255072:0:0:0:0:
320,192,254984,128,0,255160:0:0:0:0:
448,192,255072,128,0,255160:0:0:0:0:
64,192,255160,128,8,255248:0:0:0:0:
192,192,255160,128,0,255337:0:0:0:0:
320,192,255248,128,0,255425:0:0:0:0:
448,192,255248,128,0,255425:0:0:0:0:
192,192,255425,128,0,255601:0:0:0:0:
448,192,255513,128,2,255778:0:0:0:0:
320,192,255513,128,0,255689:0:0:0:0:
64,192,255601,128,0,255778:0:0:0:0:
192,192,255689,128,0,255866:0:0:0:0:
320,192,255778,128,0,255866:0:0:0:0:
64,192,255866,128,8,256042:0:0:0:0:
448,192,255866,128,0,255954:0:0:0:0:
192,192,255954,128,0,256131:0:0:0:0:
320,192,255954,128,0,256131:0:0:0:0:
64,192,256131,128,0,256307:0:0:0:0:
320,192,256219,128,2,256395:0:0:0:0:
448,192,256219,128,0,256307:0:0:0:0:
192,192,256307,128,0,256484:0:0:0:0:
448,192,256395,128,0,256572:0:0:0:0:
64,192,256395,128,0,256484:0:0:0:0:
320,192,256484,128,0,256572:0:0:0:0:
192,192,256572,128,8,256660:0:0:0:0:
64,192,256572,128,0,256748:0:0:0:0:
320,192,256660,128,0,256837:0:0:0:0:
448,192,256660,128,0,256837:0:0:0:0:
64,192,256837,128,0,257013:0:0:0:0:
320,192,256925,128,2,257013:0:0:0:0:
192,192,256925,128,0,257101:0:0:0:0:
448,192,257013,128,0,257189:0:0:0:0:
320,192,257101,128,0,257278:0:0:0:0:
192,192,257189,128,0,257366:0:0:0:0:
64,192,257278,128,8,257454:0:0:0:0:
448,192,257278,128,0,257366:0:0:0:0:
320,192,257366,128,0,257542:0:0:0:0:
192,192,257454,128,0,257631:0:0:0:0:
64,192,257542,128,0,257631:0:0:0:0:
448,192,257631,128,2,257719:0:0:0:0:
320,192,257631,128,0,257807:0:0:0:0:
192,192,257719,128,0,257895:0:0:0:0:
64,192,257807,128,0,257984:0:0:0:0:
320,192,257895,128,0,257984:0:0:0:0:
192,192,257984,128,8,258160:0:0:0:0:
448,192,257984,128,0,258160:0:0:0:0:
64,192,258072,128,0,258160:0:0:0:0:
320,192,258072,128,0,258160:0:0:0:0:
64,192,258248,128,0,258425:0:0:0:0:
320,192,258248,128,0,258425:0:0:0:0:
448,192,258337,128,2,258425:0:0:0:0:
192,192,258337,128,0,258425:0:0:0:0:
64,192,258513,128,0,258601:0:0:0:0:
192,192,258513,128,0,258601:0:0:0:0:
448,192,258601,128,0,258689:0:0:0:0:
320,192,258601,128,0,258689:0:0:0:0:
192,192,258689,128,8,258778:0:0:0:0:
64,192,258689,128,0,258778:0:0:0:0:
448,192,258778,128,0,258954:0:0:0:0:
192,192,258866,128,0,259042:0:0:0:0:
320,192,258954,128,0,259042:0:0:0:0:
64,192,259042,128,2,259131:0:0:0:0:
448,192,259042,128,0,259131:0:0:0:0:
192,192,259219,128,0,259307:0:0:0:0:
320,192,259219,128,0,259307:0:0:0:0:
448,192,259307,128,0,259395:0:0:0:0:
64,192,259307,128,0,259395:0:0:0:0:
192,192,259395,128,8,259484:0:0:0:0:
320,192,259395,128,0,259484:0:0:0:0:
448,192,259484,128,0,259572:0:0:0:0:
64,192,259572,128,0,259660:0:0:0:0:
320,192,259572,128,0,259660:0:0:0:0:
192,192,259660,128,0,259748:0:0:0:0:
448,192,259748,128,2,260013:0:0:0:0:
64,192,259748,128,0,259925:0:0:0:0:
320,192,259837,128,0,260013:0:0:0:0:
192,192,259925,128,0,260013:0:0:0:0:
64,192,260013,128,0,260101:0:0:0:0:
320,192,260101,1,4,0:0:0:0:
448,192,260101,1,0,0:0:0:0:
192,192,260101,1,0,0:0:0:0:
448,192,260454,128,2,260542:0:0:0:0:
320,192,260454,128,0,260631:0:0:0:0:
64,192,260542,128,0,260631:0:0:0:0:
192,192,260631,128,0,260719:0:0:0:0:
448,192,260631,128,0,260807:0:0:0:0:
64,192,260719,128,0,260807:0:0:0:0:
192,192,260807,128,8,260895:0:0:0:0:
320,192,260807,128,0,260984:0:0:0:0:
64,192,260895,128,0,261072:0:0:0:0:
448,192,260895,128,0,261072:0:0:0:0:
192,192,261072,128,0,261160:0:0:0:0:
64,192,261160,128,2,261337:0:0:0:0:
320,192,261160,128,0,261248:0:0:0:0:
448,192,261248,128,0,261425:0:0:0:0:
192,192,261337,128,0,261513:0:0:0:0:
64,192,261425,128,0,261513:0:0:0:0:
320,192,261513,128,8,261689:0:0:0:0:
448,192,261513,128,0,261601:0:0:0:0:
192,192,261601,128,0,261778:0:0:0:0:
64,192,261601,128,0,261778:0:0:0:0:
320,192,261778,128,0,261866:0:0:0:0:
448,192,261866,128,2,261954:0:0:0:0:
64,192,261866,128,0,262042:0:0:0:0:
320,192,261954,128,0,262042:0:0:0:0:
192,192,262042,128,0,262131:0:0:0:0:
448,192,262042,128,0,262131:0:0:0:0:
64,192,262131,128,0,262219:0:0:0:0:
448,192,262219,128,8,262307:0:0:0:0:
192,192,262219,128,0,262395:0:0:0:0:
320,192,262307,128,0,262484:0:0:0:0:
64,192,262307,128,0,262484:0:0:0:0:
192,192,262484,128,0,262572:0:0:0:0:
320,192,262572,128,2,262837:0:0:0:0:
448,192,262572,128,0,262748:0:0:0:0:
192,192,262660,128,0,262837:0:0:0:0:
64,192,262748,128,0,262925:0:0:0:0:
448,192,262837,128,0,263101:0:0:0:0:
320,192,262925,128,8,263013:0:0:0:0:
192,192,262925,128,0,263189:0:0:0:0:
64,192,263013,128,0,263189:0:0:0:0:
320,192,263101,128,0,263278:0:0:0:0:
448,192,263189,128,0,263278:0:0:0:0:
64,192,263278,128,2,263366:0:0:0:0:
192,192,263278,128,0,263454:0:0:0:0:
320,192,263366,128,0,263454:0:0:0:0:
64,192,263454,128,0,263542:0:0:0:0:
448,192,263454,128,0,263631:0:0:0:0:
192,192,263542,128,0,263631:0:0:0:0:
64,192,263631,128,8,263719:0:0:0:0:
320,192,263631,128,0,263807:0:0:0:0:
192,192,263719,128,0,263895:0:0:0:0:
448,192,263719,128,0,263895:0:0:0:0:
64,192,263807,128,0,263895:0:0:0:0:
320,192,263895,128,0,264072:0:0:0:0:
64,192,263984,128,2,264248:0:0:0:0:
192,192,263984,128,0,264072:0:0:0:0:
448,192,264072,128,0,264248:0:0:0:0:
320,192,264160,128,0,264337:0:0:0:0:
192,192,264248,128,0,264337:0:0:0:0:
64,192,264337,128,8,264425:0:0:0:0:
448,192,264337,128,0,264513:0:0:0:0:
192,192,264425,128,0,264601:0:0:0:0:
320,192,264425,128,0,264601:0:0:0:0:
448,192,264601,128,0,264778:0:0:0:0:
192,192,264689,128,2,264866:0:0:0:0:
64,192,264689,128,0,264778:0:0:0:0:
320,192,264778,128,0,264954:0:0:0:0:
448,192,264866,128,0,265042:0:0:0:0:
192,192,264954,128,0,265042:0:0:0:0:
320,192,265042,128,8,265219:0:0:0:0:
64,192,265042,128,0,265219:0:0:0:0:
192,192,265131,128,0,265219:0:0:0:0:
448,192,265131,128,0,265219:0:0:0:0:
448,192,265307,128,0,265704:0:0:0:0:
192,192,265307,128,0,265484:0:0:0:0:
320,192,265395,128,2,265484:0:0:0:0:
64,192,265395,128,0,265704:0:0:0:0:
192,192,265572,128,0,265704:0:0:0:0:
320,192,265572,128,0,265704:0:0:0:0:
64,192,265748,1,4,0:0:0:0:
192,192,265748,1,0,0:0:0:0:
320,192,265748,1,0,0:0:0:0:
448,192,265748,1,0,0:0:0:0:
448,192,266101,1,2,0:0:0:0:
320,192,266145,1,2,0:0:0:0:
192,192,266189,1,2,0:0:0:0:
64,192,266189,1,0,0:0:0:0:
320,192,266278,1,2,0:0:0:0:
448,192,266278,1,0,0:0:0:0:
192,192,266366,1,2,0:0:0:0:
64,192,266366,1,0,0:0:0:0:
320,192,266454,1,2,0:0:0:0:
448,192,266454,1,0,0:0:0:0:
192,192,266542,1,2,0:0:0:0:
64,192,266542,1,0,0:0:0:0:
320,192,266631,1,2,0:0:0:0:
448,192,266631,1,0,0:0:0:0:
192,192,266719,1,2,0:0:0:0:
64,192,266719,1,0,0:0:0:0:
320,192,266807,1,2,0:0:0:0:
448,192,266807,1,0,0:0:0:0:
192,192,266895,1,2,0:0:0:0:
64,192,266895,1,0,0:0:0:0:
320,192,266984,1,2,0:0:0:0:
448,192,266984,1,0,0:0:0:0:
192,192,267072,1,2,0:0:0:0:
64,192,267072,1,0,0:0:0:0:
448,192,267160,128,0,267513:0:0:0:0:
320,192,267160,128,2,267513:0:0:0:0:
64,192,267513,1,2,0:0:0:0:
192,192,267557,1,2,0:0:0:0:
320,192,267601,1,2,0:0:0:0:
448,192,267601,1,0,0:0:0:0:
192,192,267689,1,2,0:0:0:0:
64,192,267689,1,0,0:0:0:0:
320,192,267778,1,2,0:0:0:0:
448,192,267778,1,0,0:0:0:0:
192,192,267866,1,2,0:0:0:0:
64,192,267866,1,0,0:0:0:0:
320,192,267954,1,2,0:0:0:0:
448,192,267954,1,0,0:0:0:0:
192,192,268042,1,2,0:0:0:0:
64,192,268042,1,0,0:0:0:0:
320,192,268131,1,2,0:0:0:0:
448,192,268131,1,0,0:0:0:0:
192,192,268219,1,2,0:0:0:0:
64,192,268219,1,0,0:0:0:0:
320,192,268307,1,2,0:0:0:0:
448,192,268307,1,0,0:0:0:0:
192,192,268395,1,2,0:0:0:0:
64,192,268395,1,0,0:0:0:0:
448,192,268484,1,2,0:0:0:0:
320,192,268484,1,0,0:0:0:0:
64,192,268572,128,0,268925:0:0:0:0:
192,192,268572,128,2,268925:0:0:0:0:
448,192,268925,1,2,0:0:0:0:
320,192,268969,1,2,0:0:0:0:
192,192,269013,1,2,0:0:0:0:
64,192,269013,1,0,0:0:0:0:
320,192,269101,1,2,0:0:0:0:
448,192,269101,1,0,0:0:0:0:
192,192,269189,1,2,0:0:0:0:
64,192,269189,1,0,0:0:0:0:
448,192,269278,1,2,0:0:0:0:
192,192,269366,1,0,0:0:0:0:
320,192,269454,1,0,0:0:0:0:
448,192,269542,1,0,0:0:0:0:
64,192,269631,1,2,0:0:0:0:
192,192,269675,1,2,0:0:0:0:
320,192,269719,1,2,0:0:0:0:
448,192,269719,1,0,0:0:0:0:
192,192,269807,1,2,0:0:0:0:
64,192,269807,1,0,0:0:0:0:
320,192,269895,1,2,0:0:0:0:
448,192,269895,1,0,0:0:0:0:
64,192,269984,1,2,0:0:0:0:
320,192,270072,1,0,0:0:0:0:
192,192,270160,1,0,0:0:0:0:
64,192,270248,1,0,0:0:0:0:
320,192,270337,1,2,0:0:0:0:
448,192,270337,1,0,0:0:0:0:
192,192,270381,1,2,0:0:0:0:
64,192,270425,1,2,0:0:0:0:
448,192,270469,1,2,0:0:0:0:
192,192,270513,1,2,0:0:0:0:
320,192,270557,1,2,0:0:0:0:
64,192,270601,1,2,0:0:0:0:
448,192,270601,1,0,0:0:0:0:
192,192,270645,1,2,0:0:0:0:
320,192,270689,1,2,0:0:0:0:
64,192,270734,1,2,0:0:0:0:
448,192,270778,1,2,0:0:0:0:
320,192,270822,1,2,0:0:0:0:
192,192,270866,1,2,0:0:0:0:
64,192,270866,1,0,0:0:0:0:
448,192,270910,1,2,0:0:0:0:
320,192,270954,1,2,0:0:0:0:
192,192,270998,1,2,0:0:0:0:
64,192,271042,128,2,271660:0:0:0:0:
448,192,271042,1,0,0:0:0:0:
192,192,271748,1,4,0:0:0:0:
320,192,271748,1,0,0:0:0:0:
448,192,271748,1,0,0:0:0:0:
64,192,271748,128,0,272101:0:0:0:0:
64,192,272278,128,0,272631:0:0:0:0:
320,192,272454,1,0,0:0:0:0:
192,192,272454,1,0,0:0:0:0:
64,192,272807,128,0,273160:0:0:0:0:
448,192,272807,1,0,0:0:0:0:
192,192,273160,1,0,0:0:0:0:
64,192,273337,128,0,273689:0:0:0:0:
320,192,273513,1,0,0:0:0:0:
192,192,273866,1,0,0:0:0:0:
448,192,273866,1,0,0:0:0:0:
192,192,274572,128,0,274925:0:0:0:0:
192,192,275101,128,0,275454:0:0:0:0:
448,192,275278,1,0,0:0:0:0:
64,192,275278,1,0,0:0:0:0:
192,192,275631,128,0,275984:0:0:0:0:
448,192,275631,1,0,0:0:0:0:
192,192,276160,128,0,276513:0:0:0:0:
448,192,276337,1,0,0:0:0:0:
192,192,276689,1,0,0:0:0:0:
64,192,276689,1,0,0:0:0:0:
448,192,277395,128,0,277748:0:0:0:0:
320,192,277748,1,0,0:0:0:0:
448,192,277925,128,0,278278:0:0:0:0:
192,192,277925,1,0,0:0:0:0:
64,192,278101,1,0,0:0:0:0:
320,192,278101,1,0,0:0:0:0:
448,192,278454,128,0,278807:0:0:0:0:
192,192,278454,1,0,0:0:0:0:
448,192,278984,128,0,279337:0:0:0:0:
192,192,279160,1,0,0:0:0:0:
320,192,279337,1,0,0:0:0:0:
64,192,279513,1,0,0:0:0:0:
448,192,279513,1,0,0:0:0:0:
320,192,280219,128,0,280572:0:0:0:0:
64,192,280219,1,0,0:0:0:0:
192,192,280572,1,0,0:0:0:0:
320,192,280748,128,0,281101:0:0:0:0:
448,192,280748,1,0,0:0:0:0:
192,192,280925,1,0,0:0:0:0:
64,192,280925,1,0,0:0:0:0:
320,192,281278,128,0,281631:0:0:0:0:
448,192,281278,1,0,0:0:0:0:
320,192,281807,128,0,282160:0:0:0:0:
64,192,281984,1,0,0:0:0:0:
192,192,282160,1,0,0:0:0:0:
448,192,282337,1,0,0:0:0:0:
320,192,282337,1,0,0:0:0:0:
192,192,282513,1,0,0:0:0:0:
64,192,282689,1,0,0:0:0:0:
64,192,283042,128,0,283395:0:0:0:0:
448,192,283042,1,0,0:0:0:0:
64,192,283572,128,0,283925:0:0:0:0:
320,192,283748,1,0,0:0:0:0:
448,192,283748,1,0,0:0:0:0:
192,192,283925,1,0,0:0:0:0:
64,192,284101,128,0,284454:0:0:0:0:
320,192,284101,1,0,0:0:0:0:
448,192,284278,1,0,0:0:0:0:
64,192,284631,128,0,284984:0:0:0:0:
320,192,284807,1,0,0:0:0:0:
192,192,284807,1,0,0:0:0:0:
192,192,285160,1,0,0:0:0:0:
64,192,285160,1,0,0:0:0:0:
448,192,285513,1,0,0:0:0:0:
320,192,285866,128,0,286219:0:0:0:0:
64,192,285866,1,0,0:0:0:0:
192,192,286219,1,0,0:0:0:0:
320,192,286395,128,0,286748:0:0:0:0:
448,192,286395,1,0,0:0:0:0:
192,192,286572,1,0,0:0:0:0:
64,192,286572,1,0,0:0:0:0:
320,192,286925,128,0,287278:0:0:0:0:
448,192,286925,1,0,0:0:0:0:
320,192,287454,128,0,287807:0:0:0:0:
448,192,287454,1,0,0:0:0:0:
192,192,287631,1,0,0:0:0:0:
64,192,287631,1,0,0:0:0:0:
448,192,287807,1,0,0:0:0:0:
192,192,287984,1,0,0:0:0:0:
64,192,287984,1,0,0:0:0:0:
192,192,288337,1,0,0:0:0:0:
320,192,288513,1,0,0:0:0:0:
448,192,288689,128,0,289042:0:0:0:0:
64,192,288689,1,0,0:0:0:0:
192,192,289042,1,0,0:0:0:0:
448,192,289219,128,0,289572:0:0:0:0:
320,192,289219,1,0,0:0:0:0:
192,192,289395,1,0,0:0:0:0:
64,192,289395,1,0,0:0:0:0:
448,192,289748,128,0,290101:0:0:0:0:
192,192,289748,1,0,0:0:0:0:
64,192,290101,1,0,0:0:0:0:
448,192,290278,128,0,290631:0:0:0:0:
320,192,290278,1,0,0:0:0:0:
192,192,290454,1,0,0:0:0:0:
64,192,290807,1,0,0:0:0:0:
448,192,290807,1,0,0:0:0:0:
320,192,291160,1,0,0:0:0:0:
448,192,291337,1,0,0:0:0:0:
64,192,291513,128,0,296366:0:0:0:0:
192,192,291557,1,0,0:0:0:0:
192,192,293160,128,0,296366:0:0:0:0:
320,192,293219,1,0,0:0:0:0:
448,192,293278,1,0,0:0:0:0:
320,192,294337,128,0,296366:0:0:0:0:
448,192,295395,128,0,296366:0:0:0:0:
448,192,296454,128,0,297160:0:0:0:0:
64,192,297160,128,0,302807:0:0:0:70:LR4_BassKickReverbXD.wav
