osu file format v14

[General]
AudioFilename: audio.mp3
AudioLeadIn: 0
PreviewTime: 89491
Countdown: 0
SampleSet: Soft
StackLeniency: 0.5
Mode: 0
LetterboxInBreaks: 0
WidescreenStoryboard: 1

[Editor]
Bookmarks: 23138,45726,68314,90902,113491,136079,147373,158667,169961,181255,192549,203844,215138,226432,249020,271608,297020
DistanceSpacing: 1.3
BeatDivisor: 4
GridSize: 32
TimelineZoom: 1.6

[Metadata]
Title:Sunshine
TitleUnicode:Sunshine
Artist:DJ Genki vs. Camellia feat. moimoi
ArtistUnicode:DJ Genki vs. かめりあ feat. moimoi
Creator:Smug Nanachi
Version:Insane
Source:
Tags:ULTRA HAPPY COLLECTION!!! Mayumi Morinaga Senya UK Hardcore smugna
BeatmapID:2160150
BeatmapSetID:1033156

[Difficulty]
HPDrainRate:6
CircleSize:4
OverallDifficulty:8
ApproachRate:9
SliderMultiplier:1.6
SliderTickRate:1

[Events]
//Background and Video events
0,0,"70736090_p0.png",0,0
//Break Periods
2,23338,39479
2,139064,146773
//Storyboard Layer 0 (Background)
//Storyboard Layer 1 (Fail)
//Storyboard Layer 2 (Pass)
//Storyboard Layer 3 (Foreground)
//Storyboard Layer 4 (Overlay)
//Storyboard Sound Samples

[TimingPoints]
550,352.941176470588,4,2,1,50,1,0
550,-133.333333333333,4,2,1,50,0,0
1608,-200,4,2,1,50,0,0
3373,-133.333333333333,4,2,1,50,0,0
4432,-200,4,2,1,50,0,0
6197,-133.333333333333,4,2,1,50,0,0
7255,-200,4,2,1,50,0,0
9020,-133.333333333333,4,2,1,50,0,0
10079,-200,4,2,1,50,0,0
11844,-133.333333333333,4,2,1,50,0,0
16785,-200,4,2,1,50,0,0
17491,-133.333333333333,4,2,1,50,0,0
20314,-200,4,2,1,50,0,0
22255,-200,4,2,1,5,0,0
22432,-200,4,2,1,50,0,0
22961,-200,4,2,1,5,0,0
23138,-200,4,2,1,50,0,0
41402,-200,4,2,1,5,0,0
41491,-200,4,2,1,60,0,0
42814,-200,4,2,1,5,0,0
42902,-200,4,2,1,60,0,0
45726,-100,4,2,1,80,0,0
47844,-76.9230769230769,4,2,1,70,0,0
48197,-133.333333333333,4,2,1,60,0,0
48549,-100,4,2,1,80,0,0
49608,-200,4,2,1,80,0,0
51373,-100,4,2,1,80,0,0
52432,-100,4,2,1,50,0,0
52785,-100,4,2,1,80,0,0
53491,-100,4,2,1,50,0,0
54197,-100,4,2,1,80,0,0
55255,-200,4,2,1,80,0,0
57020,-100,4,2,1,80,0,0
60902,-200,4,2,1,80,0,0
62667,-100,4,2,1,80,0,0
63726,-200,4,2,1,80,0,0
64785,-200,4,2,1,50,0,0
65491,-100,4,2,1,80,0,0
66549,-100,4,2,1,70,0,0
67961,-200,4,2,1,60,0,0
68314,-100,4,2,1,60,0,0
79608,-100,4,2,1,70,0,0
84902,-58.8235294117647,4,2,1,70,0,0
85255,-100,4,2,1,70,0,0
88785,-100,4,2,1,75,0,0
89138,-100,4,2,1,80,0,0
89491,-100,4,2,1,50,0,0
90549,-66.6666666666667,4,2,1,70,0,0
90902,-133.333333333333,4,2,1,80,0,0
91255,-76.9230769230769,4,2,1,80,0,1
96197,-58.8235294117647,4,2,1,80,0,1
96549,-76.9230769230769,4,2,1,80,0,1
101844,-58.8235294117647,4,2,1,80,0,1
102197,-133.333333333333,4,2,1,80,0,0
102549,-76.9230769230769,4,2,1,80,0,1
107491,-58.8235294117647,4,2,1,80,0,1
107844,-76.9230769230769,4,2,1,80,0,1
108900,-133.333333333333,4,2,1,80,0,1
108902,-133.333333333333,4,2,1,70,0,1
109255,-76.9230769230769,4,2,1,80,0,1
110314,-133.333333333333,4,2,1,70,0,1
110667,-76.9230769230769,4,2,1,80,0,1
111020,-76.9230769230769,4,2,1,70,0,1
111373,-76.9230769230769,4,2,1,80,0,1
112079,-58.8235294117647,4,2,1,60,0,0
113138,-200,4,2,1,60,0,0
113491,-76.9230769230769,4,2,1,80,0,1
118785,-58.8235294117647,4,2,1,80,0,1
119138,-76.9230769230769,4,2,1,80,0,1
124432,-58.8235294117647,4,2,1,80,0,1
124785,-76.9230769230769,4,2,1,80,0,1
130079,-58.8235294117647,4,2,1,80,0,1
130432,-76.9230769230769,4,2,1,80,0,1
131491,-133.333333333333,4,2,1,70,0,1
131844,-76.9230769230769,4,2,1,80,0,1
132902,-133.333333333333,4,2,1,70,0,1
133255,-76.9230769230769,4,2,1,80,0,1
133608,-133.333333333333,4,2,1,70,0,1
133961,-76.9230769230769,4,2,1,80,0,1
134314,-133.333333333333,4,2,1,70,0,1
134667,-76.9230769230769,4,2,1,80,0,1
135373,-76.9230769230769,4,2,1,80,0,0
147373,-100,4,2,1,60,0,0
158667,-100,4,2,1,70,0,0
181167,-100,4,2,1,5,0,0
181255,-100,4,2,1,50,0,0
192549,-100,4,2,1,80,0,0
195020,-100,4,2,1,60,0,0
195373,-100,4,2,1,80,0,0
196432,-200,4,2,1,80,0,0
198197,-100,4,2,1,80,0,0
199255,-200,4,2,1,80,0,0
200314,-200,4,2,1,50,0,0
201020,-100,4,2,1,80,0,0
202079,-100,4,2,1,70,0,0
203491,-200,4,2,1,60,0,0
203844,-100,4,2,1,60,0,0
215138,-100,4,2,1,70,0,0
220432,-58.8235294117647,4,2,1,70,0,0
220785,-100,4,2,1,70,0,0
222197,-100,4,2,1,80,0,0
223608,-66.6666666666667,4,2,1,70,0,0
224314,-66.6666666666667,4,2,1,80,0,0
225020,-66.6666666666667,4,2,1,50,0,0
226079,-66.6666666666667,4,2,1,60,0,0
226432,-200,4,2,1,60,0,0
226785,-76.9230769230769,4,2,1,80,0,1
231726,-58.8235294117647,4,2,1,80,0,1
232079,-76.9230769230769,4,2,1,80,0,1
237373,-58.8235294117647,4,2,1,80,0,1
237726,-133.333333333333,4,2,1,80,0,0
238079,-76.9230769230769,4,2,1,80,0,1
243020,-58.8235294117647,4,2,1,80,0,1
243373,-76.9230769230769,4,2,1,80,0,1
244432,-133.333333333333,4,2,1,80,0,1
244785,-76.9230769230769,4,2,1,80,0,1
245844,-133.333333333333,4,2,1,80,0,1
246197,-76.9230769230769,4,2,1,80,0,1
247608,-76.9230769230769,4,2,1,60,0,0
248667,-200,4,2,1,60,0,0
249020,-76.9230769230769,4,2,1,80,0,1
254314,-58.8235294117647,4,2,1,80,0,1
254667,-76.9230769230769,4,2,1,80,0,1
259961,-58.8235294117647,4,2,1,80,0,1
260314,-76.9230769230769,4,2,1,80,0,1
265608,-58.8235294117647,4,2,1,80,0,1
265961,-76.9230769230769,4,2,1,80,0,1
267020,-133.333333333333,4,2,1,70,0,1
267373,-76.9230769230769,4,2,1,80,0,1
268432,-133.333333333333,4,2,1,70,0,1
268785,-76.9230769230769,4,2,1,80,0,1
269138,-133.333333333333,4,2,1,80,0,1
269491,-76.9230769230769,4,2,1,80,0,1
269844,-133.333333333333,4,2,1,80,0,1
270197,-76.9230769230769,4,2,1,80,0,1
270902,-76.9230769230769,4,2,1,80,0,0
271608,-133.333333333333,4,2,1,80,0,0
271697,-133.333333333333,4,2,1,40,0,0
272667,-200,4,2,1,40,0,0
274432,-133.333333333333,4,2,1,40,0,0
275491,-200,4,2,1,40,0,0
277255,-133.333333333333,4,2,1,40,0,0
278314,-200,4,2,1,40,0,0
280079,-133.333333333333,4,2,1,40,0,0
281138,-200,4,2,1,40,0,0
282902,-133.333333333333,4,2,1,40,0,0
291373,-200,4,2,1,40,0,0

[Colours]
Combo1 : 252,215,3
Combo2 : 255,167,79
Combo3 : 223,112,0
Combo4 : 255,255,128

[HitObjects]
23,177,550,6,0,P|108:205|196:223,1,180.000006866455,6|0,1:2|0:0,0:0:0:0:
192,133,1255,1,8,0:0:0:0:
192,133,1608,6,0,B|155:290|155:290|204:209,1,240,6|8,0:0|0:0,0:0:0:0:
192,133,3373,6,0,B|278:126|251:212|360:197,1,180.000006866455,6|0,0:0|0:0,0:0:0:0:
339,110,4079,1,8,0:0:0:0:
339,110,4432,6,0,L|292:356,1,240,6|8,0:0|0:0,0:0:0:0:
142,299,6197,6,0,B|166:252|149:210|149:210|168:251|235:278,1,180.000006866455,6|0,0:0|0:0,0:0:0:0:
202,360,6902,1,8,0:0:0:0:
202,360,7255,6,0,B|250:372|282:341|277:295|349:255|416:297,1,240,6|8,0:0|0:0,0:0:0:0:
361,379,9020,6,0,L|325:190,1,180.000006866455,6|0,0:0|0:0,0:0:0:0:
307,123,9726,1,8,0:0:0:0:
307,123,10079,6,0,B|239:142|239:142|218:176|218:176|130:207,1,200,6|2,0:0|0:0,0:0:0:0:
22,267,11138,5,10,0:0:0:0:
44,185,11314,1,2,0:0:0:0:
22,267,11491,1,2,0:0:0:0:
22,267,11844,6,0,B|104:293|104:293|136:343,1,120.000004577637,6|0,0:0|0:0,0:0:0:0:
133,205,12373,2,0,B|159:123|159:123|209:91,1,120.000004577637,2|2,0:0|0:0,0:0:0:0:
281,239,12902,1,6,0:0:0:0:
281,239,13079,2,0,P|205:270|114:327,1,180.000006866455,2|0,0:0|0:0,0:0:0:0:
368,365,13961,5,10,0:0:0:0:
373,354,14314,1,2,0:0:0:0:
470,267,14667,6,0,P|446:179|419:165,1,120.000004577637,6|0,0:0|0:0,0:0:0:0:
333,268,15197,1,6,0:0:0:0:
333,267,15373,2,0,P|352:245|381:245,1,60.0000022888184,10|0,0:0|0:0,0:0:0:0:
457,366,15726,2,0,P|417:288|333:267,1,180.000006866455,6|0,0:0|0:0,0:0:0:0:
264,313,16432,1,0,0:0:0:0:
85,218,16785,6,0,P|100:201|118:185,1,40,8|0,0:0|0:0,0:0:0:0:
159,260,17138,5,2,0:0:0:0:
188,260,17314,1,2,0:0:0:0:
264,313,17491,6,0,B|232:269|223:207|223:207|211:251|173:271,1,180.000006866455,6|2,0:0|0:0,0:0:0:0:
181,342,18197,1,8,0:0:0:0:
181,342,18549,2,0,L|377:353,1,180.000006866455,6|0,0:0|0:0,0:0:0:0:
400,278,19255,1,0,0:0:0:0:
360,352,19608,1,8,0:0:0:0:
64,228,20314,6,0,B|-7:212|-54:287|39:398|204:319|131:243|185:193|244:204|244:204|205:218|191:251,1,440,6|0,0:0|0:0,0:0:0:0:
328,303,22432,6,0,B|304:316|289:347|289:347|289:313|268:289,1,120,2|0,0:0|0:0,0:0:0:0:
312,217,23138,5,2,0:0:0:0:
256,192,40079,12,0,41402,0:0:0:0:
256,192,41491,12,0,42814,0:0:0:0:
256,192,42902,12,0,44314,0:0:0:0:
166,261,45726,6,0,B|303:230|303:230|329:194|329:194|297:62,1,320,4|0,1:0|0:0,0:0:0:0:
297,62,47138,2,0,B|342:36|342:36|172:65|172:65|180:143,1,280,4|0,1:0|0:0,0:0:0:0:
143,220,47844,6,0,P|122:166|205:175,1,155.999992858887,2|0,0:1|0:1,0:0:0:0:
247,230,48197,6,0,L|233:282,1,30.0000011444092,2|0,0:3|0:0,0:0:0:0:
205,363,48373,2,0,L|212:334,1,30.0000011444092,2|0,0:3|0:0,0:0:0:0:
325,186,48549,6,0,B|301:78|301:78|255:150,1,160,4|0,1:0|0:0,0:0:0:0:
325,276,49079,2,0,B|430:309|430:309|391:233,1,160,4|0,1:0|0:0,0:0:0:0:
247,230,49608,6,0,B|165:304|165:304|250:308,1,160,4|0,1:0|0:0,0:0:0:0:
139,160,51373,6,0,B|160:96|160:96|69:96|69:96|108:285,1,320,4|0,1:0|0:0,0:0:0:0:
101,254,52785,2,0,B|275:233|188:398|375:367,1,320,4|0,1:0|0:0,0:0:0:0:
299,158,54197,6,0,B|291:123|291:123|320:147|322:197|283:234,1,160,4|0,1:0|0:0,0:0:0:0:
153,329,54726,2,0,B|126:352|126:352|132:316|175:289|226:304,1,160,4|0,1:0|0:0,0:0:0:0:
375,370,55255,6,0,B|408:380|408:380|374:393|329:370|317:318,1,160,4|2,1:0|0:0,0:0:0:0:
430,234,57020,6,0,B|473:145|473:145|322:121|322:121|362:189,1,320,4|0,1:0|0:0,0:0:0:0:
356,179,58432,2,0,B|311:216|311:216|220:163|117:203|117:203|82:149,1,320,4|2,1:1|0:3,0:0:0:0:
82,148,59226,1,2,0:3:0:0:
79,142,59314,1,2,0:3:0:0:
271,168,59844,6,0,B|232:249|215:211|175:216|178:274|208:290|237:261|224:222,1,160,4|0,1:0|0:0,0:0:0:0:
178,135,60373,2,0,B|127:60|168:65|184:27|132:1|103:19|114:59|154:67,1,160,4|0,1:0|0:0,0:0:0:0:
253,70,60902,6,0,B|342:63|318:96|342:129|391:97|390:63|350:52|323:83,1,160,4|0,1:0|0:0,0:0:0:0:
201,309,62667,6,0,B|282:316|272:253|354:274,1,160,4|0,1:0|0:0,0:0:0:0:
253,70,63197,2,0,B|206:136|265:159|206:220,1,160,4|0,1:0|0:0,0:0:0:0:
433,235,63726,6,0,B|398:161|349:201|326:119,1,160,4|0,1:0|0:0,0:0:0:0:
264,286,65491,6,0,B|234:325|234:325|204:203,1,160,4|0,1:0|0:0,0:0:0:0:
322,100,66020,2,0,B|352:61|352:61|382:183,1,160,4|0,1:0|0:0,0:0:0:0:
293,193,66549,5,4,1:0:0:0:
256,192,66638,12,0,67608,0:0:0:0:
110,81,67961,6,0,L|88:145,1,60.0000022888184,2|0,0:3|0:0,0:0:0:0:
130,71,68314,6,0,L|73:245,1,160,4|10,1:0|0:0,0:0:0:0:
189,291,68844,2,0,B|193:251|193:251|170:218,1,80,2|8,0:0|0:0,0:0:0:0:
90,319,69197,1,2,0:0:0:0:
204,384,69373,1,10,0:0:0:0:
274,286,69549,6,0,P|303:260|342:265,1,80,2|8,0:0|0:0,0:0:0:0:
441,192,69902,2,0,P|402:196|372:171,1,80,2|8,0:0|0:0,0:0:0:0:
275,60,70255,1,2,0:0:0:0:
347,13,70432,2,0,L|376:195,1,160,8|8,0:0|0:0,0:0:0:0:
444,88,70961,1,8,0:0:0:0:
285,185,71138,6,0,P|247:175|199:170,1,80,10|0,0:0|0:0,0:0:0:0:
157,95,71491,2,0,P|123:114|85:145,1,80,10|0,0:0|0:0,0:0:0:0:
3,323,71844,2,0,P|41:313|89:308,1,80,10|0,0:0|0:0,0:0:0:0:
131,233,72197,2,0,P|164:252|202:283,1,80,10|0,0:0|0:0,0:0:0:0:
258,369,72549,1,8,0:0:0:0:
314,251,72726,5,2,0:0:0:0:
387,293,72902,1,10,0:0:0:0:
279,168,73079,1,2,0:0:0:0:
204,200,73255,2,0,P|192:248|201:290,1,80,10|2,0:0|0:0,0:0:0:0:
387,293,73608,2,0,P|399:245|390:203,1,80,10|2,0:0|0:0,0:0:0:0:
284,75,73961,6,0,B|224:87|224:87|203:112|203:112|137:126,1,160,10|10,0:0|0:0,0:0:0:0:
37,179,74491,2,0,P|45:140|48:100,1,80,2|8,0:0|0:0,0:0:0:0:
165,275,74844,1,2,0:0:0:0:
195,196,75020,1,10,0:0:0:0:
279,168,75197,6,0,P|353:179|383:179,1,80,2|8,0:0|0:0,0:0:0:0:
165,275,75549,2,0,P|125:278|85:286,1,80,2|8,0:0|0:0,0:0:0:0:
262,261,75902,1,2,0:0:0:0:
280,354,76079,2,0,P|203:341|164:274,1,160,10|8,0:0|0:0,0:0:0:0:
262,261,76608,1,8,0:0:0:0:
369,384,76785,6,0,L|389:279,1,80,10|0,0:0|0:0,0:0:0:0:
280,354,77138,1,10,0:0:0:0:
395,215,77314,2,0,B|435:198|435:198|471:204,1,80,2|8,0:0|0:0,0:0:0:0:
272,176,77667,1,2,0:0:0:0:
262,261,77844,1,10,0:0:0:0:
180,288,78020,6,0,L|92:270,1,80,2|8,0:0|0:0,0:0:0:0:
184,120,78373,2,0,L|166:208,1,80,2|8,0:0|0:0,0:0:0:0:
29,330,78726,5,2,0:0:0:0:
180,288,78902,1,10,0:0:0:0:
90,169,79079,1,2,0:0:0:0:
262,261,79255,1,10,0:0:0:0:
262,261,79608,6,0,P|303:251|348:245,1,80,4|0,1:0|0:0,0:0:0:0:
451,173,79961,2,0,P|411:167|372:157,1,80,0|0,1:0|0:0,0:0:0:0:
312,28,80314,2,0,L|283:131,1,80,0|0,1:0|0:0,0:0:0:0:
281,141,80579,1,0,1:0:0:0:
281,141,80667,5,0,1:0:0:0:
262,261,80844,1,0,1:0:0:0:
186,199,81020,6,0,P|147:192|112:212,1,80,0|0,1:0|0:0,0:0:0:0:
162,299,81373,2,0,L|150:401,1,80,0|0,1:0|0:0,0:0:0:0:
34,260,81726,2,0,L|22:158,1,80,0|0,1:0|0:0,0:0:0:0:
32,140,81991,1,0,1:0:0:0:
32,140,82079,6,0,P|61:125|94:128,1,40,0|0,1:0|0:0,0:0:0:0:
139,19,82255,2,0,P|158:22|175:32,1,40,0|0,1:0|0:0,0:0:0:0:
164,150,82432,6,0,P|232:149|250:115,1,80,0|0,1:0|0:0,0:0:0:0:
310,20,82785,2,0,B|293:43|293:43|305:116,1,80,0|0,1:0|0:0,0:0:0:0:
393,210,83138,2,0,B|376:187|376:187|388:114,1,80,0|0,1:0|0:0,0:0:0:0:
423,127,83402,1,0,1:0:0:0:
423,127,83491,1,0,1:0:0:0:
314,245,83667,5,2,1:2:0:0:
314,245,83755,1,2,0:2:0:0:
314,245,83844,2,0,L|263:257,3,40,2|2|2|2,1:2|0:2|0:2|0:2,0:0:0:0:
393,210,84197,2,0,B|433:221|433:221|471:274,1,80,2|2,1:2|0:0,0:0:0:0:
369,343,84549,1,2,1:2:0:0:
369,343,84726,1,2,0:0:0:0:
217,350,84902,6,0,P|276:305|203:320,1,204.000003890991,2|0,0:1|0:1,0:0:0:0:
140,366,85255,6,0,L|85:386,3,40,0|0|0|0,1:0|3:0|3:0|3:0,0:0:0:0:
107,289,85608,2,0,L|52:309,3,40,0|0|0|0,1:0|3:0|3:0|3:0,0:0:0:0:
74,212,85961,2,0,L|19:232,3,40,0|0|0|0,1:0|3:0|3:0|3:0,0:0:0:0:
166,222,86314,6,0,L|205:226,1,40,0|0,1:0|3:0,0:0:0:0:
287,238,86491,2,0,L|326:242,1,40,0|0,1:0|3:0,0:0:0:0:
400,201,86667,6,0,P|411:220|412:249,3,40,0|0|0|0,1:0|3:0|3:0|3:0,0:0:0:0:
357,99,87020,2,0,P|338:99|319:92,3,40,0|0|0|0,1:0|3:0|3:0|3:0,0:0:0:0:
468,112,87373,2,0,P|476:94|491:82,3,40,0|0|0|0,1:0|3:0|3:0|3:0,0:0:0:0:
491,195,87726,6,0,L|501:233,1,40,0|0,1:0|3:0,0:0:0:0:
326,242,87902,2,0,L|336:280,1,40,0|0,1:0|3:0,0:0:0:0:
473,331,88079,5,0,1:0:0:0:
453,331,88167,1,0,1:0:0:0:
433,334,88255,1,0,1:0:0:0:
414,341,88344,1,0,1:0:0:0:
398,353,88432,1,0,1:0:0:0:
382,365,88520,1,0,1:0:0:0:
364,373,88608,1,0,1:0:0:0:
344,375,88697,1,0,1:0:0:0:
324,375,88785,6,0,P|300:368|278:350,3,40,0|0|0|0,1:0|1:0|1:0|1:0,0:0:0:0:
252,247,89138,2,0,P|259:222|276:200,3,40,0|0|0|0,1:0|1:0|1:0|1:0,0:0:0:0:
336,280,89491,5,0,1:0:0:0:
336,280,89844,1,2,0:3:0:0:
225,139,90197,5,8,3:0:0:0:
225,139,90373,1,4,3:0:0:0:
225,139,90549,6,0,L|207:66,1,60.0000022888184,2|0,0:0|0:0,0:0:0:0:
162,191,90902,6,0,B|108:179|108:179|142:171,1,90.0000034332277,0|0,1:0|0:0,0:0:0:0:
225,139,91255,5,6,1:2:0:0:
164,284,91432,2,0,P|110:273|42:261,1,103.999995239258,6|0,0:0|1:0,0:0:0:0:
210,365,91785,1,6,0:0:0:0:
162,191,91961,1,6,1:2:0:0:
298,339,92138,2,0,P|339:329|366:250,1,103.999995239258,6|0,0:0|1:0,0:0:0:0:
512,240,92491,6,0,P|471:230|444:151,1,103.999995239258,6|0,0:0|1:0,0:0:0:0:
341,45,92844,1,6,0:0:0:0:
298,117,93020,2,0,B|291:167|291:167|341:229,1,103.999995239258,2|0,1:2|0:0,0:0:0:0:
440,179,93373,2,0,B|447:129|447:129|397:67,1,103.999995239258,6|0,1:2|0:0,0:0:0:0:
204,129,93726,6,0,P|124:112|93:79,1,103.999995239258,6|0,1:2|0:0,0:0:0:0:
229,238,94079,2,0,P|272:211|324:208,1,103.999995239258,6|0,1:2|0:0,0:0:0:0:
136,384,94432,2,0,L|156:256,1,103.999995239258,6|0,1:2|0:0,0:0:0:0:
108,200,94785,2,0,L|124:302,1,103.999995239258,6|0,1:2|0:0,0:0:0:0:
223,338,95138,1,0,1:0:0:0:
31,295,95314,5,6,0:0:0:0:
229,238,95491,1,0,1:0:0:0:
136,384,95667,1,6,0:0:0:0:
206,157,95844,2,0,P|253:150|299:180,1,103.999995239258,6|0,1:2|0:0,0:0:0:0:
424,211,96197,6,0,P|340:195|365:277,1,204.000003890991,2|0,1:0|0:0,0:0:0:0:
360,280,96549,6,0,P|306:297|243:326,1,103.999995239258,6|0,1:2|0:0,0:0:0:0:
206,157,96902,1,6,1:2:0:0:
164,347,97079,2,0,P|171:299|187:238,1,103.999995239258,6|0,0:2|1:0,0:0:0:0:
263,316,97432,1,6,0:0:0:0:
80,354,97608,1,6,1:2:0:0:
119,172,97785,2,0,P|131:222|139:273,1,103.999995239258,6|0,0:0|1:0,0:0:0:0:
292,142,98138,6,0,P|305:192|313:244,1,103.999995239258,6|0,0:0|1:0,0:0:0:0:
204,130,98491,1,6,0:0:0:0:
265,64,98667,2,0,B|297:52|297:52|384:83,1,103.999995239258,2|0,1:2|0:0,0:0:0:0:
410,232,99020,2,0,B|378:220|378:220|312:243,1,103.999995239258,6|0,1:2|0:0,0:0:0:0:
162,256,99373,6,0,P|237:284|226:369,1,155.999992858887,6|0,1:2|0:0,0:0:0:0:
240,351,99726,1,6,1:2:0:0:
80,222,99902,2,0,L|57:341,1,103.999995239258,6|0,0:0|1:0,0:0:0:0:
155,161,100255,1,6,0:0:0:0:
0,201,100432,1,6,1:2:0:0:
163,257,100608,2,0,L|287:225,1,103.999995239258,6|0,0:2|1:0,0:0:0:0:
344,82,100961,5,6,0:0:0:0:
314,160,101138,1,2,1:2:0:0:
433,231,101314,5,4,0:0:0:0:
241,120,101491,1,4,1:2:0:0:
428,135,101667,1,4,0:2:0:0:
278,305,101844,6,0,B|248:277|248:277|436:320,1,204.000003890991,2|0,1:0|0:0,0:0:0:0:
406,313,102197,6,0,B|379:350|379:350|326:370,1,90.0000034332277,0|0,1:0|0:0,0:0:0:0:
278,305,102549,5,4,1:2:0:0:
199,143,102726,2,0,B|166:184|166:184|165:256,1,103.999995239258,6|0,0:2|1:0,0:0:0:0:
294,212,103079,1,2,3:2:0:0:
294,212,103167,1,0,3:0:0:0:
294,212,103255,1,6,1:2:0:0:
176,329,103432,2,0,P|136:314|60:299,1,103.999995239258,6|0,1:2|1:0,0:0:0:0:
99,114,103785,6,0,P|139:129|215:144,1,103.999995239258,6|0,0:0|1:0,0:0:0:0:
265,76,104138,1,6,0:0:0:0:
385,233,104314,2,0,B|285:228|333:284|208:273,1,155.999992858887,6|0,1:2|0:0,0:0:0:0:
238,274,104667,1,6,1:2:0:0:
367,320,104844,1,6,1:2:0:0:
400,130,105020,6,0,L|381:256,1,103.999995239258,6|0,1:2|0:0,0:0:0:0:
252,179,105373,1,6,1:2:0:0:
335,13,105549,2,0,L|316:139,1,103.999995239258,6|0,0:2|1:0,0:0:0:0:
158,130,105902,1,2,3:2:0:0:
158,130,105991,1,0,3:0:0:0:
158,130,106079,1,6,1:2:0:0:
236,76,106255,2,0,L|255:202,1,103.999995239258,6|0,0:0|1:0,0:0:0:0:
367,320,106608,5,6,0:0:0:0:
384,232,106785,1,2,1:2:0:0:
199,259,106961,1,6,0:0:0:0:
204,344,107138,2,0,L|303:377,1,103.999995239258,6|0,1:2|0:0,0:0:0:0:
482,329,107491,6,0,B|507:289|507:229|460:195|460:195|476:241|454:278,1,204.000003890991,2|0,1:0|0:0,0:0:0:0:
384,232,107844,6,0,L|324:248,3,51.999997619629,0|0|0|0,1:0|3:0|3:0|3:0,0:0:0:0:
299,164,108197,2,0,L|248:150,1,51.999997619629,0|0,1:0|3:0,0:0:0:0:
93,190,108373,6,0,L|74:262,3,51.999997619629,0|0|0|0,3:0|3:0|1:0|3:0,0:0:0:0:
167,139,108726,2,0,L|153:88,1,51.999997619629,0|0,3:0|3:0,0:0:0:0:
68,72,108902,6,0,B|44:71|24:54|24:54|37:73|40:107,1,90.0000034332277,2|0,1:0|0:0,0:0:0:0:
42,182,109255,6,0,P|68:182|93:190,3,51.999997619629,4|0|0|0,1:0|3:0|3:0|3:0,0:0:0:0:
166,247,109608,2,0,P|185:229|209:219,3,51.999997619629,0|0|0|0,1:0|3:0|3:0|3:0,0:0:0:0:
300,206,109961,2,0,P|301:180|311:157,3,51.999997619629,0|0|0|0,1:0|3:0|3:0|3:0,0:0:0:0:
253,89,110314,6,0,L|243:52,1,30.0000011444092,2|0,1:3|0:1,0:0:0:0:
333,72,110491,2,0,L|323:35,1,30.0000011444092,2|0,0:3|0:1,0:0:0:0:
411,151,110667,6,0,L|469:138,3,51.999997619629,4|0|0|0,1:1|3:3|3:3|3:3,0:0:0:0:
300,206,111020,5,0,1:0:0:0:
300,206,111197,1,6,0:0:0:0:
406,308,111373,6,0,L|456:296,3,51.999997619629,4|0|0|0,1:1|3:3|3:3|3:3,0:0:0:0:
305,384,111726,6,0,P|318:361|324:336,1,51.999997619629,4|0,1:2|3:0,0:0:0:0:
208,194,111902,2,0,P|194:216|188:241,1,51.999997619629,4|0,3:2|3:0,0:0:0:0:
256,290,112079,5,2,1:3:0:0:
256,290,113138,6,0,P|277:294|258:283,1,60,8|0,0:3|0:0,0:0:0:0:
208,360,113491,6,0,B|326:350|278:276|383:260,1,207.999990478516,6|0,1:2|1:0,0:0:0:0:
502,312,114020,2,0,P|485:267|464:205,1,103.999995239258,6|0,0:2|1:0,0:0:0:0:
381,350,114373,1,6,0:0:0:0:
391,179,114549,1,6,1:2:0:0:
221,266,114726,1,6,0:2:0:0:
221,266,114902,2,0,L|68:295,1,155.999992858887,0|0,1:0|0:0,0:0:0:0:
68,296,115255,2,0,P|38:265|54:197,1,103.999995239258,4|0,1:2|0:0,0:0:0:0:
114,52,115608,6,0,B|102:115|102:115|123:148,1,103.999995239258,2|0,1:2|0:0,0:0:0:0:
310,238,115961,2,0,B|331:271|331:271|316:352,1,103.999995239258,2|0,1:2|0:0,0:0:0:0:
185,203,116314,2,0,P|234:184|275:112,1,103.999995239258,6|0,1:2|0:0,0:0:0:0:
427,134,116667,2,0,P|394:94|346:76,1,103.999995239258,6|0,1:2|0:0,0:0:0:0:
271,0,117020,1,6,1:2:0:0:
271,0,117197,1,0,0:0:0:0:
265,145,117373,1,6,1:2:0:0:
265,145,117549,1,0,0:0:0:0:
201,74,117726,6,0,P|224:163|225:250,1,155.999992858887,0|0,1:0|0:0,0:0:0:0:
226,226,118079,1,6,1:2:0:0:
114,195,118255,1,2,0:0:0:0:
41,344,118432,1,6,1:2:0:0:
145,295,118608,1,6,0:2:0:0:
301,330,118785,6,0,B|330:213|330:213|274:309,1,204.000003890991,2|0,1:0|0:0,0:0:0:0:
223,337,119138,6,0,B|288:348|288:348|319:371|319:371|463:390,1,207.999990478516,6|0,1:2|1:0,0:0:0:0:
380,192,119667,2,0,B|364:258|364:258|375:270|381:291,1,103.999995239258,6|0,0:0|1:0,0:0:0:0:
313,123,120020,1,6,0:0:0:0:
454,242,120197,1,6,1:2:0:0:
303,333,120373,1,6,0:0:0:0:
303,333,120549,6,0,P|243:321|139:284,1,155.999992858887,0|0,1:0|0:0,0:0:0:0:
152,287,120902,2,0,P|141:238|165:193,1,103.999995239258,4|0,1:2|0:0,0:0:0:0:
313,123,121255,6,0,P|293:176|283:230,1,103.999995239258,2|0,1:2|0:0,0:0:0:0:
406,332,121608,2,0,P|386:279|376:225,1,103.999995239258,6|0,1:2|0:0,0:0:0:0:
353,40,121961,2,0,B|277:29|277:29|201:97,1,155.999992858887,6|0,1:2|0:0,0:0:0:0:
217,81,122314,1,2,1:2:0:0:
395,154,122491,2,0,B|438:160|438:160|459:173|459:173|513:178,1,103.999995239258,6|0,0:0|1:0,0:0:0:0:
283,222,122844,1,2,0:0:0:0:
431,343,123020,1,6,1:2:0:0:
426,254,123197,1,6,1:2:0:0:
426,254,123285,1,0,0:0:0:0:
424,254,123373,6,0,B|352:264|370:315|281:328,1,155.999992858887,0|0,1:0|0:0,0:0:0:0:
289,326,123726,1,2,1:2:0:0:
283,222,123902,1,2,0:0:0:0:
128,138,124079,1,6,1:2:0:0:
134,242,124255,1,6,0:0:0:0:
95,384,124432,6,0,B|170:360|201:301|201:301|193:345|220:377,1,204.000003890991,2|0,1:0|0:0,0:0:0:0:
289,326,124785,6,0,L|526:365,1,207.999990478516,6|0,1:2|1:0,0:0:0:0:
474,193,125314,2,0,L|349:210,1,103.999995239258,6|0,0:2|1:0,0:0:0:0:
308,97,125667,1,2,1:2:0:0:
308,97,125755,1,0,1:0:0:0:
308,97,125844,1,6,1:2:0:0:
374,296,126020,1,6,0:0:0:0:
370,207,126197,2,0,P|289:175|189:187,1,155.999992858887,4|0,1:2|0:0,0:0:0:0:
221,177,126549,2,0,P|203:210|135:228,1,103.999995239258,0|0,1:0|0:0,0:0:0:0:
65,49,126902,6,0,P|166:40|227:91,1,155.999992858887,6|0,1:2|3:0,0:0:0:0:
208,68,127255,1,4,1:2:0:0:
71,171,127432,1,4,1:2:0:0:
142,229,127608,2,0,P|117:306|103:395,1,155.999992858887,0|0,1:0|0:0,0:0:0:0:
104,379,127961,2,0,P|164:363|214:390,1,103.999995239258,0|0,1:0|0:0,0:0:0:0:
337,309,128314,6,0,P|263:307|228:234,1,155.999992858887,6|0,1:2|3:0,0:0:0:0:
227,240,128667,1,6,1:2:0:0:
400,218,128844,1,4,1:2:0:0:
319,195,129020,2,0,B|297:252|342:308|353:264|389:322|358:396,2,207.999990478516,0|0|0,1:0|1:0|1:0,0:0:0:0:
400,218,129902,1,0,0:0:0:0:
280,353,130079,6,0,B|216:331|166:371|166:371|223:349|270:374,1,204.000003890991,2|0,1:0|0:0,0:0:0:0:
165,264,130432,6,0,L|220:253,3,51.999997619629,4|0|0|0,1:0|3:0|3:0|3:0,0:0:0:0:
218,165,130785,2,0,L|167:154,3,51.999997619629,0|0|0|0,1:0|3:0|3:0|3:0,0:0:0:0:
165,66,131138,2,0,L|215:55,3,51.999997619629,0|0|0|0,1:0|3:0|3:0|3:0,0:0:0:0:
94,15,131491,6,0,B|74:26|74:26|65:72|65:72|77:89,1,90.0000034332277,2|0,1:0|0:0,0:0:0:0:
62,205,131844,6,0,P|51:181|32:165,3,51.999997619629,4|0|0|0,1:0|3:0|3:0|3:0,0:0:0:0:
168,171,132197,2,0,P|193:173|218:164,3,51.999997619629,0|0|0|0,1:0|3:0|3:0|3:0,0:0:0:0:
143,278,132549,2,0,P|128:299|124:325,3,51.999997619629,0|0|0|0,1:0|3:0|3:0|3:0,0:0:0:0:
254,338,132902,6,0,P|222:357|224:320,1,90.0000034332277,2|0,1:0|0:0,0:0:0:0:
289,262,133255,6,0,L|354:251,3,51.999997619629,4|0|0|0,1:0|3:0|3:0|3:0,0:0:0:0:
307,169,133608,6,0,L|325:59,1,90.0000034332277,2|0,1:0|0:0,0:0:0:0:
410,94,133961,6,0,L|475:105,3,51.999997619629,4|0|0|0,1:0|3:0|3:0|3:0,0:0:0:0:
428,187,134314,6,0,L|446:297,1,90.0000034332277,2|0,1:0|0:0,0:0:0:0:
384,347,134667,6,0,P|409:355|433:366,2,51.999997619629,4|0|0,1:0|3:0|3:0,0:0:0:0:
289,262,134932,2,0,P|315:256|341:254,2,51.999997619629,4|0|0,1:0|3:0|3:0,0:0:0:0:
164,235,135197,2,0,P|183:216|205:202,2,51.999997619629,4|0|0,1:0|3:0|1:0,0:0:0:0:
256,384,136079,5,4,1:0:0:0:
141,170,147373,5,4,1:0:0:0:
159,165,147726,1,0,1:0:0:0:
177,160,148079,1,0,1:0:0:0:
195,155,148344,1,0,1:0:0:0:
213,150,148608,1,0,1:0:0:0:
297,51,148785,5,0,1:0:0:0:
302,69,149138,1,0,1:0:0:0:
307,87,149491,1,0,1:0:0:0:
312,105,149755,1,0,1:0:0:0:
317,123,150020,1,0,1:0:0:0:
416,207,150197,5,0,1:0:0:0:
398,212,150549,1,0,1:0:0:0:
380,217,150902,1,0,1:0:0:0:
362,222,151167,1,0,1:0:0:0:
344,227,151432,1,0,1:0:0:0:
260,326,151608,5,0,1:0:0:0:
255,308,151961,1,0,1:0:0:0:
250,290,152314,1,0,1:0:0:0:
245,272,152667,1,0,1:0:0:0:
237,248,153020,6,0,L|162:269,3,40,2|0|0|0,1:2|3:0|3:0|3:0,0:0:0:0:
214,175,153373,2,0,L|140:196,3,40,0|0|2|0,1:0|3:0|3:2|3:0,0:0:0:0:
191,101,153726,2,0,L|117:122,3,40,0|0|0|0,1:0|3:0|3:0|3:0,0:0:0:0:
278,66,154079,6,0,P|295:85|307:123,1,40,2|0,1:2|3:0,0:0:0:0:
393,114,154255,2,0,P|391:139|373:174,1,40,0|0,1:0|3:0,0:0:0:0:
416,254,154432,6,0,L|416:313,3,40,0|0|2|0,1:0|3:0|3:2|3:0,0:0:0:0:
328,369,154785,2,0,L|328:310,3,40,0|0|0|0,1:0|3:0|3:0|3:0,0:0:0:0:
240,254,155138,2,0,L|240:313,3,40,0|0|0|0,1:0|3:0|3:0|3:0,0:0:0:0:
155,339,155491,6,0,L|79:345,1,40,2|0,1:2|3:0,0:0:0:0:
39,252,155667,2,0,L|90:256,1,40,2|0,1:2|3:0,0:0:0:0:
166,190,155844,5,2,1:2:0:0:
259,157,156020,1,0,1:0:0:0:
353,124,156197,1,0,1:0:0:0:
184,92,156373,5,2,1:2:0:0:
259,157,156549,1,0,1:0:0:0:
334,221,156726,1,0,1:0:0:0:
278,60,156902,5,2,1:2:0:0:
240,254,157079,1,2,1:2:0:0:
259,157,157255,5,2,1:2:0:0:
348,102,158667,6,0,L|251:114,1,80,4|0,1:2|0:0,0:0:0:0:
216,219,159020,2,0,L|295:228,1,80,0|0,1:0|0:0,0:0:0:0:
183,126,159373,2,0,P|125:187|142:272,1,160,0|4,1:0|1:2,0:0:0:0:
233,364,159902,6,0,P|184:347|152:341,1,80,0|0,0:0|1:0,0:0:0:0:
55,279,160255,2,0,P|104:262|136:256,1,80,0|0,0:0|1:0,0:0:0:0:
183,126,160608,1,0,0:0:0:0:
183,126,160785,2,0,L|202:231,1,80,0|0,1:0|0:0,0:0:0:0:
233,364,161138,5,0,1:0:0:0:
233,364,161314,1,0,0:0:0:0:
307,229,161491,6,0,B|382:242|360:296|449:312,1,160,4|0,1:2|1:0,0:0:0:0:
310,343,162020,2,0,L|209:370,1,80,0|0,0:0|1:0,0:0:0:0:
141,252,162373,2,0,L|218:232,1,80,0|4,0:0|1:2,0:0:0:0:
72,176,162726,1,0,0:0:0:0:
72,176,162902,6,0,P|41:265|32:354,2,160,0|2|2,1:0|1:2|1:2,0:0:0:0:
233,120,163785,1,2,0:2:0:0:
152,66,163961,2,0,P|89:73|57:72,1,80,2|2,1:2|0:2,0:0:0:0:
103,224,164314,6,0,B|119:187|119:187|154:167,1,80,4|0,1:2|0:0,0:0:0:0:
271,279,164667,2,0,B|254:315|254:315|219:335,1,80,0|0,1:0|0:0,0:0:0:0:
29,278,165020,2,0,L|208:249,1,160,0|4,1:0|1:2,0:0:0:0:
249,133,165549,6,0,L|211:26,1,80,0|0,0:0|1:0,0:0:0:0:
344,179,165902,2,0,L|370:254,1,80,0|0,0:0|1:0,0:0:0:0:
337,88,166255,1,0,0:0:0:0:
337,88,166432,2,0,P|403:111|420:145,1,80,0|0,1:0|0:0,0:0:0:0:
273,229,166785,5,0,1:0:0:0:
273,229,166961,1,0,0:0:0:0:
370,254,167138,6,0,B|316:269|316:269|285:263|285:263|205:281,1,160,4|0,1:2|1:0,0:0:0:0:
106,370,167667,2,0,P|116:332|106:294,1,80,0|0,0:0|1:0,0:0:0:0:
162,129,168020,2,0,P|151:167|162:205,1,80,0|0,0:0|1:2,0:0:0:0:
329,300,168373,1,0,0:0:0:0:
329,300,168549,6,0,P|267:302|199:390,2,160,0|2|2,1:0|1:2|1:2,0:0:0:0:
306,208,169432,1,2,0:2:0:0:
218,220,169608,2,0,P|182:234|156:264,1,80,2|2,0:2|0:2,0:0:0:0:
315,121,169961,6,0,L|408:141,1,80,0|0,1:0|0:0,0:0:0:0:
205,49,170314,2,0,L|298:29,1,80,8|0,1:0|0:0,0:0:0:0:
149,174,170667,2,0,L|319:210,1,160,0|8,1:0|1:0,0:0:0:0:
132,265,171197,1,0,0:0:0:0:
60,206,171373,6,0,P|61:129|122:81,2,160,0|8|2,1:0|1:2|1:2,0:0:0:0:
132,265,172255,1,2,0:2:0:0:
207,219,172432,2,0,L|182:113,1,80,10|2,1:2|0:2,0:0:0:0:
330,319,172785,6,0,P|297:295|259:286,1,80,0|0,1:0|0:0,0:0:0:0:
383,236,173138,2,0,P|421:226|453:203,1,80,8|0,1:0|0:0,0:0:0:0:
241,57,173491,2,0,B|273:85|273:85|306:216,1,160,0|8,1:0|1:0,0:0:0:0:
219,311,174020,1,0,0:0:0:0:
75,287,174197,6,0,B|150:278|132:222|217:213,2,160,0|8|0,1:0|1:0|1:0,0:0:0:0:
219,311,175079,1,0,0:0:0:0:
368,330,175255,2,0,L|389:243,1,80,8|0,1:0|0:0,0:0:0:0:
319,154,175608,6,0,L|302:224,3,40,0|0|0|0,1:0|3:0|3:0|3:0,0:0:0:0:
204,166,175961,2,0,L|224:235,3,40,8|0|0|0,1:0|3:0|3:0|3:0,0:0:0:0:
110,233,176314,2,0,L|162:282,3,40,0|0|0|0,1:0|3:0|3:0|3:0,0:0:0:0:
109,138,176667,6,0,L|120:82,1,40,8|0,1:0|3:0,0:0:0:0:
177,4,176844,2,0,L|188:60,1,40,0|0,3:0|3:0,0:0:0:0:
315,63,177020,6,0,P|296:59|277:53,3,40,0|0|0|0,1:0|3:0|3:0|3:0,0:0:0:0:
303,184,177373,2,0,P|299:203|293:223,3,40,8|0|0|0,1:0|3:0|3:0|3:0,0:0:0:0:
424,196,177726,2,0,P|443:200|463:207,3,40,0|0|0|0,1:0|3:0|3:0|3:0,0:0:0:0:
436,75,178079,2,0,P|440:56|447:37,3,40,8|0|0|0,1:0|3:0|3:0|3:0,0:0:0:0:
370,130,178432,5,0,1:0:0:0:
256,192,178520,12,0,181167,0:0:0:0:
395,243,181255,5,2,0:0:0:0:
387,220,182667,5,2,0:0:0:0:
379,197,184079,5,2,0:0:0:0:
371,174,184785,1,2,0:0:0:0:
363,151,185491,1,2,0:0:0:0:
355,128,186197,1,2,0:0:0:0:
175,38,186902,5,2,0:0:0:0:
152,46,188314,5,2,0:0:0:0:
129,54,189726,5,2,0:0:0:0:
106,62,190432,1,2,0:0:0:0:
83,70,191138,1,2,0:0:0:0:
256,192,191226,12,0,192197,0:0:0:0:
389,182,192549,6,0,B|261:159|303:246|181:219|181:219|238:246|236:313,1,320,4|0,1:0|0:0,0:0:0:0:
235,296,193961,6,0,B|164:312|164:312|138:342|138:342|25:370|25:370|61:339|67:284,1,320,4|2,1:0|0:3,0:0:0:0:
64,284,194755,1,2,0:3:0:0:
61,278,194844,1,2,0:3:0:0:
223,177,195373,6,0,B|268:191|268:191|301:230|301:230|360:245,1,160,4|0,1:0|0:0,0:0:0:0:
498,177,195902,2,0,B|438:192|438:192|405:231|405:231|360:245,1,160,4|0,1:0|0:0,0:0:0:0:
430,384,196432,6,0,B|416:339|416:339|377:306|377:306|361:246,1,160,4|0,1:0|0:0,0:0:0:0:
161,290,198197,6,0,P|82:293|87:207,1,160,4|0,1:0|0:0,0:0:0:0:
257,148,198726,2,0,P|299:214|222:253,1,160,4|0,1:0|0:0,0:0:0:0:
87,136,199255,6,0,P|123:66|195:113,1,160,4|0,1:0|0:0,0:0:0:0:
246,257,201020,6,0,B|319:290|319:290|396:272,1,160,4|0,1:0|0:0,0:0:0:0:
404,119,201549,2,0,B|331:86|331:86|253:103,1,160,4|0,1:0|0:0,0:0:0:0:
325,188,202079,5,4,1:0:0:0:
256,192,202167,12,0,203138,0:0:0:0:
128,332,203491,6,0,P|100:339|81:362,1,60,2|0,0:3|0:0,0:0:0:0:
147,350,203844,6,0,P|184:364|224:364,1,80,4|0,1:0|0:0,0:0:0:0:
305,280,204197,1,8,0:0:0:0:
305,280,204285,2,0,L|287:227,1,40,2|0,0:0|0:0,0:0:0:0:
225,165,204461,2,0,L|192:300,1,120,2|2,0:0|0:0,0:0:0:0:
112,244,204814,1,2,0:0:0:0:
112,244,204902,2,0,L|125:207,2,40,10|2|0,0:0|0:0|0:0,0:0:0:0:
37,294,205255,6,0,B|21:258|21:258|34:219,1,80,10|0,0:0|0:0,0:0:0:0:
222,91,205608,2,0,B|238:127|238:127|224:165,1,80,8|0,0:0|0:0,0:0:0:0:
235,205,205873,1,2,0:0:0:0:
235,205,205961,1,0,0:0:0:0:
405,305,206138,1,2,0:0:0:0:
423,297,206226,1,2,0:0:0:0:
442,292,206314,6,0,L|504:317,1,40,10|0,0:0|0:0,0:0:0:0:
346,247,206491,2,0,L|308:261,1,40,10|0,0:0|0:0,0:0:0:0:
432,129,206667,6,0,L|418:207,1,80,10|0,0:0|0:0,0:0:0:0:
334,353,207020,1,10,0:0:0:0:
334,353,207108,2,0,B|274:327,1,40,2|0,0:0|0:0,0:0:0:0:
230,279,207285,2,0,B|194:317|194:317|184:392,1,120,2|2,0:0|0:0,0:0:0:0:
99,341,207638,1,2,0:0:0:0:
90,339,207726,2,0,P|59:351|36:368,2,40,8|2|0,0:0|0:0|0:0,0:0:0:0:
145,195,208079,6,0,P|184:189|224:193,1,80,10|2,0:0|0:0,0:0:0:0:
231,100,208344,1,2,0:0:0:0:
231,100,208432,1,10,0:0:0:0:
231,100,208520,2,0,P|217:69|213:29,1,40,2|0,0:0|0:0,0:0:0:0:
138,11,208697,2,0,P|104:34|15:51,1,120,2|2,0:1|0:0,0:0:0:0:
12,155,209138,1,10,0:0:0:0:
12,155,209226,1,2,0:0:0:0:
12,155,209314,1,2,0:0:0:0:
12,155,209402,1,2,0:0:0:0:
12,155,209491,6,0,P|50:164|80:190,1,80,10|0,0:0|0:0,0:0:0:0:
48,294,209844,1,10,0:0:0:0:
48,294,209932,2,0,L|31:357,1,40,2|0,0:0|0:0,0:0:0:0:
112,384,210108,2,0,L|145:236,1,120,2|2,0:0|0:0,0:0:0:0:
237,290,210461,1,2,0:0:0:0:
237,290,210549,2,0,L|282:303,2,40,10|2|0,0:0|0:0|0:0,0:0:0:0:
171,194,210902,6,0,P|203:173|261:171,1,80,10|0,0:0|0:0,0:0:0:0:
391,248,211255,2,0,P|351:243|318:221,1,80,10|0,0:0|0:0,0:0:0:0:
321,201,211520,1,2,0:0:0:0:
320,200,211608,1,0,0:0:0:0:
478,272,211785,1,2,0:0:0:0:
483,253,211873,1,2,0:0:0:0:
487,234,211961,6,0,L|492:177,1,40,10|0,0:0|0:0,0:0:0:0:
401,123,212138,2,0,L|406:180,1,40,10|0,0:0|0:0,0:0:0:0:
362,326,212314,5,10,0:2:0:0:
322,325,212402,1,2,0:2:0:0:
287,347,212491,1,2,0:2:0:0:
186,330,212667,5,10,0:0:0:0:
186,330,212755,2,0,P|202:315|219:268,1,40,2|0,0:0|0:0,0:0:0:0:
236,217,212932,1,2,0:0:0:0:
236,217,213020,2,0,P|236:195|215:149,1,40,10|0,0:0|0:0,0:0:0:0:
184,104,213197,5,2,0:0:0:0:
184,104,213285,2,0,P|167:119|151:166,1,40,2|8,0:0|0:0,0:0:0:0:
134,217,213461,1,2,0:0:0:0:
134,217,213549,2,0,P|133:238|154:284,1,40,0|2,0:0|0:0,0:0:0:0:
186,330,213726,6,0,P|226:328|279:296,1,80,10|2,0:0|0:0,0:0:0:0:
281,308,213991,1,2,0:0:0:0:
301,306,214079,2,0,P|339:312|394:332,1,80,10|0,0:0|0:0,0:0:0:0:
407,213,214432,5,10,0:2:0:0:
406,172,214520,1,2,0:2:0:0:
368,160,214608,1,2,0:2:0:0:
344,193,214697,1,2,0:2:0:0:
367,225,214785,1,10,0:2:0:0:
512,328,215138,5,0,1:0:0:0:
492,330,215226,1,0,3:0:0:0:
472,333,215314,1,0,3:0:0:0:
452,336,215402,1,0,3:0:0:0:
432,339,215491,1,0,1:0:0:0:
413,342,215579,1,0,3:0:0:0:
393,345,215667,1,0,3:0:0:0:
373,347,215755,1,0,3:0:0:0:
353,350,215844,6,0,L|339:297,3,40,0|0|0|0,1:0|3:0|3:0|3:0,0:0:0:0:
251,236,216197,2,0,L|241:275,3,40,0|0|0|0,1:0|3:0|3:0|3:0,0:0:0:0:
340,175,216549,6,0,L|351:214,3,40,0|0|0|0,1:0|3:0|3:0|3:0,0:0:0:0:
213,112,216902,2,0,L|175:102,3,40,0|0|0|0,1:0|3:0|3:0|3:0,0:0:0:0:
333,33,217255,2,0,L|362:5,3,40,0|0|0|0,1:0|3:0|3:0|3:0,0:0:0:0:
296,107,217608,5,0,1:0:0:0:
106,186,217961,5,0,1:0:0:0:
125,186,218049,1,0,3:0:0:0:
145,189,218138,1,0,3:0:0:0:
163,198,218226,1,0,3:0:0:0:
178,212,218314,1,0,1:0:0:0:
193,224,218402,1,0,3:0:0:0:
212,232,218491,1,0,3:0:0:0:
231,235,218579,1,0,3:0:0:0:
251,236,218667,6,0,L|304:223,3,40,0|0|0|0,1:0|3:0|3:0|3:0,0:0:0:0:
364,314,219020,2,0,L|402:323,1,40,0|0,1:0|3:0,0:0:0:0:
479,198,219197,1,2,3:2:0:0:
479,198,219285,1,2,3:2:0:0:
479,198,219373,5,2,1:2:0:0:
466,214,219461,1,2,3:2:0:0:
451,226,219549,1,2,3:2:0:0:
433,234,219638,1,2,3:2:0:0:
413,239,219726,2,0,L|374:229,3,40,2|0|0|0,1:2|3:0|3:2|3:2,0:0:0:0:
270,142,220079,2,0,L|231:151,3,40,2|0|2|0,1:2|3:0|3:2|3:0,0:0:0:0:
187,256,220432,6,0,B|230:232|230:232|283:243|283:243|311:283|311:283|304:335,1,204.000003890991,2|0,1:0|0:0,0:0:0:0:
211,347,220785,6,0,L|154:337,3,40,0|0|0|0,1:0|3:0|3:0|3:0,0:0:0:0:
55,246,221138,2,0,L|94:239,3,40,0|0|0|0,1:0|3:0|3:0|3:0,0:0:0:0:
231,150,221491,2,0,L|174:140,3,40,0|0|0|0,1:0|3:0|3:0|3:0,0:0:0:0:
75,49,221844,5,0,1:0:0:0:
302,13,222197,5,0,1:0:0:0:
286,39,222285,1,0,3:0:0:0:
282,68,222373,1,0,3:0:0:0:
291,97,222461,1,0,3:0:0:0:
309,119,222549,1,0,1:0:0:0:
318,148,222638,1,0,3:0:0:0:
312,178,222726,1,0,3:0:0:0:
297,203,222814,1,0,3:0:0:0:
271,219,222902,1,0,1:0:0:0:
244,231,222991,1,0,3:0:0:0:
224,251,223079,1,0,3:0:0:0:
213,279,223167,1,0,3:0:0:0:
215,308,223255,5,0,1:0:0:0:
92,153,223608,6,0,L|78:120,30,30.0000011444092,0|0|0|0|0|0|0|0|0|0|0|0|0|0|0|0|0|0|0|0|0|0|0|0|0|0|0|0|0|0|0,3:0|3:0|3:0|3:0|3:0|3:0|3:0|3:0|3:0|3:0|3:0|3:0|3:0|3:0|3:0|3:0|3:0|3:0|3:0|3:0|3:0|3:0|3:0|3:0|3:0|3:0|3:0|3:0|3:0|3:0|3:0,0:0:0:0:
123,227,225020,5,0,1:0:0:0:
123,227,225373,1,2,0:3:0:0:
306,309,225726,5,8,0:3:0:0:
306,309,225902,1,4,0:3:0:0:
306,309,226079,6,0,L|379:291,1,60.0000022888184,2|0,0:0|0:0,0:0:0:0:
211,299,226432,6,0,P|190:285|213:275,1,60,0|0,0:0|0:0,0:0:0:0:
111,324,226785,6,0,P|101:273|122:226,1,103.999995239258,4|0,1:0|0:0,0:0:0:0:
153,207,227049,1,2,0:0:0:0:
153,207,227138,1,0,1:0:0:0:
293,181,227314,1,2,0:0:0:0:
293,181,227402,1,0,0:0:0:0:
293,180,227491,2,0,P|267:177|243:167,1,51.999997619629,2|0,1:2|0:0,0:0:0:0:
151,106,227667,2,0,P|174:95|200:93,1,51.999997619629,2|0,0:0|0:0,0:0:0:0:
328,84,227844,6,0,B|320:157|320:157|347:205|347:205|341:313,1,207.999990478516,6|0,1:2|1:0,0:0:0:0:
299,364,228285,2,0,P|324:369|347:381,1,51.999997619629,2|0,0:0|0:0,0:0:0:0:
439,318,228461,1,2,0:0:0:0:
439,318,228549,2,0,B|458:274|458:274|423:182,1,103.999995239258,0|2,1:0|0:0,0:0:0:0:
407,143,228814,1,2,0:0:0:0:
401,127,228902,2,0,L|408:72,1,51.999997619629,2|0,1:2|0:0,0:0:0:0:
240,0,229079,2,0,L|247:55,1,51.999997619629,2|0,1:2|0:0,0:0:0:0:
227,153,229255,6,0,P|160:142|133:102,1,103.999995239258,4|0,1:1|0:0,0:0:0:0:
308,213,229608,2,0,P|345:178|396:176,1,103.999995239258,0|0,1:0|0:0,0:0:0:0:
399,363,229873,1,2,0:0:0:0:
399,363,229961,2,0,L|381:245,1,103.999995239258,0|2,1:0|0:0,0:0:0:0:
227,153,230314,2,0,L|209:271,1,103.999995239258,2|0,1:2|0:0,0:0:0:0:
55,254,230667,6,0,B|102:263|102:263|155:324,1,103.999995239258,6|2,1:2|0:0,0:0:0:0:
198,373,230932,1,2,0:2:0:0:
203,363,231020,6,0,L|272:349,1,51.999997619629,2|2,1:2|0:0,0:0:0:0:
332,249,231197,2,0,L|382:259,1,51.999997619629,0|0,0:0|0:1,0:0:0:0:
227,153,231373,6,0,L|243:246,1,51.999997619629,0|0,1:0|0:0,0:0:0:0:
347,333,231549,2,0,L|338:384,1,51.999997619629,2|0,0:0|0:0,0:0:0:0:
440,159,231726,6,0,B|379:141|317:162|317:162|366:157|405:195,1,204.000003890991,2|0,1:1|0:1,0:0:0:0:
332,249,232079,6,0,P|238:253|114:332,1,207.999990478516,4|0,1:1|1:0,0:0:0:0:
95,200,232608,1,0,0:0:0:0:
95,200,232697,1,2,0:0:0:0:
95,200,232785,2,0,B|116:171|116:171|93:90,1,103.999995239258,0|2,1:0|0:0,0:0:0:0:
155,48,233049,1,0,0:0:0:0:
168,40,233138,2,0,L|219:49,1,51.999997619629,2|0,1:2|0:0,0:0:0:0:
291,164,233314,2,0,L|300:112,1,51.999997619629,2|0,0:0|0:0,0:0:0:0:
457,59,233491,6,0,B|324:30|324:30|364:40|384:92,1,207.999990478516,6|0,1:2|1:0,0:0:0:0:
422,148,233932,2,0,L|401:217,1,51.999997619629,2|0,0:0|0:0,0:0:0:0:
365,277,234108,1,2,0:0:0:0:
353,279,234197,2,0,P|251:247|224:254,1,103.999995239258,0|2,1:0|0:0,0:0:0:0:
146,200,234461,1,2,0:0:0:0:
156,206,234549,2,0,P|176:245|179:285,1,51.999997619629,2|0,1:2|0:0,0:0:0:0:
248,384,234726,2,0,P|268:345|271:305,1,51.999997619629,2|0,1:2|0:0,0:0:0:0:
248,117,234902,5,4,1:1:0:0:
250,64,234991,1,2,0:2:0:0:
252,12,235079,1,2,0:2:0:0:
333,103,235255,5,2,1:2:0:0:
333,103,235344,2,0,P|363:112|404:107,1,51.999997619629,2|0,0:0|0:0,0:0:0:0:
423,203,235520,1,2,0:0:0:0:
422,202,235608,2,0,P|447:194|473:194,1,51.999997619629,0|0,1:0|0:0,0:0:0:0:
335,266,235785,5,2,0:0:0:0:
335,266,235873,2,0,L|341:193,1,51.999997619629,2|0,0:0|1:0,0:0:0:0:
246,299,236049,1,2,0:0:0:0:
246,299,236138,2,0,L|252:372,1,51.999997619629,0|2,0:0|0:0,0:0:0:0:
143,243,236314,6,0,L|152:129,1,103.999995239258,6|2,1:2|0:0,0:0:0:0:
113,54,236579,1,2,0:0:0:0:
113,54,236667,2,0,L|28:79,1,51.999997619629,2|0,1:2|0:0,0:0:0:0:
206,59,236844,2,0,L|255:73,1,51.999997619629,2|0,0:0|0:0,0:0:0:0:
446,110,237020,5,2,1:2:0:0:
396,96,237108,1,2,0:2:0:0:
348,114,237197,1,2,0:2:0:0:
319,156,237285,1,2,0:2:0:0:
319,207,237373,6,0,P|337:263|375:177,1,204.000003890991,2|0,1:1|0:1,0:0:0:0:
319,207,237726,6,0,L|223:231,1,90.0000034332277,0|0,1:0|0:0,0:0:0:0:
163,283,238079,6,0,B|190:324|190:324|246:243|170:145,1,207.999990478516,4|0,1:0|1:0,0:0:0:0:
51,214,238608,1,2,3:2:0:0:
51,214,238697,1,2,3:2:0:0:
51,214,238785,2,0,L|-32:225,1,51.999997619629,0|0,1:0|0:0,0:0:0:0:
73,73,238961,2,0,L|79:124,1,51.999997619629,0|0,1:0|0:0,0:0:0:0:
190,174,239138,6,0,B|355:156|355:156|289:114,1,207.999990478516,6|0,1:2|1:0,0:0:0:0:
268,66,239579,2,0,P|295:52|328:49,1,51.999997619629,2|0,0:0|0:0,0:0:0:0:
427,105,239755,1,2,0:0:0:0:
427,105,239844,2,0,P|444:153|434:203,1,103.999995239258,0|2,1:0|3:2,0:0:0:0:
358,257,240108,1,2,3:2:0:0:
349,248,240197,2,0,L|264:237,1,51.999997619629,2|0,1:2|0:0,0:0:0:0:
190,174,240373,2,0,L|196:225,1,51.999997619629,2|0,1:2|0:0,0:0:0:0:
277,335,240549,6,0,B|231:302|231:302|89:354,1,207.999990478516,4|0,1:1|1:0,0:0:0:0:
71,269,240991,2,0,L|135:247,1,51.999997619629,2|0,0:0|0:0,0:0:0:0:
190,174,241167,1,2,0:0:0:0:
190,174,241255,2,0,L|53:158,1,103.999995239258,0|2,1:0|3:2,0:0:0:0:
32,99,241520,1,2,3:2:0:0:
41,88,241608,2,0,P|84:71|110:78,1,51.999997619629,2|2,1:2|0:0,0:0:0:0:
180,70,241785,2,0,P|222:88|235:111,1,51.999997619629,0|2,1:0|0:0,0:0:0:0:
381,107,241961,6,0,P|331:111|298:159,1,103.999995239258,6|2,1:2|0:0,0:0:0:0:
282,283,242226,1,2,0:0:0:0:
282,283,242314,1,2,1:2:0:0:
282,283,242402,2,0,P|295:260|296:234,1,51.999997619629,2|0,0:0|0:0,0:0:0:0:
382,193,242579,1,2,0:0:0:0:
382,193,242667,2,0,P|409:285|435:328,1,103.999995239258,0|2,1:0|0:0,0:0:0:0:
303,383,243020,6,0,B|247:368|247:368|241:370|241:370|201:335|201:335|201:328|201:328|89:341,1,204.000003890991,2|0,1:1|0:1,0:0:0:0:
41,332,243373,6,0,L|20:403,3,51.999997619629,4|0|0|0,1:0|3:0|3:0|3:0,0:0:0:0:
87,195,243726,2,0,L|66:266,3,51.999997619629,0|0|0|0,1:0|3:0|3:0|3:0,0:0:0:0:
133,58,244079,2,0,L|112:129,3,51.999997619629,0|0|0|0,1:0|0:0|3:0|3:0,0:0:0:0:
182,173,244432,6,0,B|211:181|211:181|219:189|219:189|273:205,1,90.0000034332277,2|0,1:0|0:0,0:0:0:0:
331,122,244785,6,0,P|363:93|377:59,3,51.999997619629,4|0|0|0,1:0|3:0|3:0|3:0,0:0:0:0:
358,216,245138,2,0,P|401:218|435:203,3,51.999997619629,0|0|0|0,1:0|3:0|3:0|3:0,0:0:0:0:
310,301,245491,2,0,P|338:333|372:347,3,51.999997619629,0|0|0|0,1:0|3:0|3:0|3:0,0:0:0:0:
265,202,245844,6,0,L|244:245,1,30.0000011444092,2|0,1:3|0:0,0:0:0:0:
168,199,246020,2,0,L|182:173,1,30.0000011444092,2|0,0:3|0:0,0:0:0:0:
179,74,246197,6,0,P|146:76|123:89,3,51.999997619629,4|0|0|0,1:0|3:0|3:0|3:0,0:0:0:0:
257,117,246549,2,0,P|321:113|368:68,1,103.999995239258,0|0,1:0|0:0,0:0:0:0:
388,258,246902,6,0,P|421:260|444:273,3,51.999997619629,4|0|0|0,1:0|3:0|3:0|3:0,0:0:0:0:
310,301,247255,2,0,P|246:297|199:252,1,103.999995239258,0|0,1:0|0:0,0:0:0:0:
84,176,247608,5,2,1:3:0:0:
84,176,248667,6,0,P|82:203|62:248,1,60,8|0,0:3|0:0,0:0:0:0:
0,270,249020,6,0,P|89:266|121:398,1,207.999990478516,4|0,1:1|1:0,0:0:0:0:
248,312,249549,1,0,0:0:0:0:
248,312,249638,1,2,0:0:0:0:
248,312,249726,2,0,P|298:297|379:293,1,103.999995239258,0|2,1:0|0:0,0:0:0:0:
470,384,250079,2,0,P|475:332|490:282,1,103.999995239258,2|0,1:2|0:0,0:0:0:0:
357,109,250432,6,0,B|327:119|313:151|313:151|355:315,1,207.999990478516,6|0,1:2|1:0,0:0:0:0:
403,179,250873,2,0,L|422:228,1,51.999997619629,2|0,0:0|0:0,0:0:0:0:
234,182,251049,1,2,0:0:0:0:
228,167,251138,2,0,B|246:57,1,103.999995239258,0|2,1:0|0:0,0:0:0:0:
138,24,251402,1,2,0:0:0:0:
135,40,251491,2,0,P|150:60|157:85,1,51.999997619629,6|0,1:2|0:0,0:0:0:0:
78,210,251667,2,0,P|84:185|100:164,1,51.999997619629,4|0,1:2|0:0,0:0:0:0:
242,266,251844,6,0,B|198:272|169:243|169:243|133:280|133:280|12:317,1,207.999990478516,4|0,1:2|1:0,0:0:0:0:
21,374,252285,2,0,P|44:385|69:385,1,51.999997619629,2|0,0:0|0:0,0:0:0:0:
207,352,252461,1,2,0:0:0:0:
218,350,252549,2,0,P|268:354|311:310,1,103.999995239258,0|2,1:0|0:0,0:0:0:0:
308,217,252814,1,2,0:0:0:0:
301,209,252902,2,0,P|283:190|243:189,2,51.999997619629,2|2|0,1:2|0:0|0:0,0:0:0:0:
387,384,253255,6,0,L|405:242,1,103.999995239258,6|2,1:2|0:0,0:0:0:0:
466,205,253520,1,2,0:0:0:0:
472,196,253608,1,2,1:2:0:0:
476,187,253697,2,0,L|459:123,1,51.999997619629,2|0,0:2|0:0,0:0:0:0:
361,135,253873,1,2,0:0:0:0:
349,137,253961,2,0,B|297:146|329:176|243:187,1,103.999995239258,0|2,1:0|0:0,0:0:0:0:
222,332,254314,6,0,B|209:361|209:361|176:298|176:298|188:229|188:229|216:255,1,204.000003890991,2|0,1:1|0:1,0:0:0:0:
292,278,254667,6,0,L|69:330,1,207.999990478516,4|0,1:1|1:0,0:0:0:0:
0,295,255108,2,0,L|11:225,1,51.999997619629,2|0,0:0|0:0,0:0:0:0:
100,196,255285,1,2,0:0:0:0:
107,182,255373,2,0,B|83:113|83:113|93:47,1,103.999995239258,0|2,1:0|0:0,0:0:0:0:
235,55,255726,2,0,B|259:124|259:124|249:190,1,103.999995239258,2|0,1:2|0:0,0:0:0:0:
166,253,256079,6,0,B|266:251|241:345|374:336,1,207.999990478516,6|0,1:2|1:0,0:0:0:0:
326,247,256520,2,0,P|320:221|326:197,1,51.999997619629,2|0,0:0|0:0,0:0:0:0:
193,346,256697,1,2,0:0:0:0:
181,340,256785,2,0,L|45:366,1,103.999995239258,0|2,1:0|0:0,0:0:0:0:
66,228,257049,1,2,0:0:0:0:
76,217,257138,2,0,L|86:290,1,51.999997619629,2|0,1:2|0:0,0:0:0:0:
231,174,257314,2,0,L|223:122,1,51.999997619629,2|0,1:2|0:0,0:0:0:0:
34,0,257491,5,4,1:0:0:0:
3,41,257579,1,2,0:2:0:0:
0,92,257667,1,2,0:2:0:0:
138,81,257844,5,2,1:2:0:0:
138,81,257932,2,0,L|86:74,1,51.999997619629,2|0,0:0|0:0,0:0:0:0:
225,29,258108,1,2,0:0:0:0:
225,29,258197,2,0,L|276:22,1,51.999997619629,2|0,1:2|0:0,0:0:0:0:
335,152,258373,5,2,0:0:0:0:
335,152,258461,2,0,P|321:124|313:83,1,51.999997619629,2|0,0:0|1:0,0:0:0:0:
231,174,258638,1,2,0:0:0:0:
231,174,258726,2,0,P|217:202|209:243,1,51.999997619629,0|2,0:0|0:0,0:0:0:0:
331,340,258902,6,0,P|397:326|415:260,1,103.999995239258,6|2,1:2|0:0,0:0:0:0:
349,237,259167,1,2,0:0:0:0:
338,234,259255,2,0,L|257:266,1,51.999997619629,0|0,1:0|0:0,0:0:0:0:
208,314,259432,2,0,L|127:282,1,51.999997619629,2|0,1:2|0:0,0:0:0:0:
27,191,259608,5,2,1:2:0:0:
77,175,259697,1,2,0:2:0:0:
107,217,259785,1,2,0:2:0:0:
77,260,259873,1,2,0:2:0:0:
27,243,259961,6,0,B|135:234|98:327|207:313,1,204.000003890991,2|0,1:0|0:0,0:0:0:0:
289,253,260314,6,0,B|244:223|244:223|202:305|270:386,1,207.999990478516,4|0,1:1|1:0,0:0:0:0:
344,356,260755,2,0,P|354:318|361:287,1,51.999997619629,2|0,0:0|0:0,0:0:0:0:
452,275,260932,1,2,0:0:0:0:
459,262,261020,2,0,P|443:212|431:161,1,103.999995239258,0|2,1:0|3:2,0:0:0:0:
478,51,261285,1,0,3:1:0:0:
492,43,261373,2,0,L|480:108,1,51.999997619629,4|0,1:2|0:0,0:0:0:0:
313,95,261549,2,0,L|342:139,1,51.999997619629,0|0,1:2|0:0,0:0:0:0:
202,246,261726,6,0,B|223:108|223:108|226:146|265:171,1,207.999990478516,6|0,1:2|1:0,0:0:0:0:
371,261,262255,1,0,0:0:0:0:
371,261,262344,1,2,0:0:0:0:
371,261,262432,2,0,B|317:269|317:269|273:327,1,103.999995239258,0|2,1:2|0:0,0:0:0:0:
197,377,262697,1,2,0:0:0:0:
207,384,262785,2,0,L|213:314,1,51.999997619629,6|0,1:2|0:0,0:0:0:0:
105,270,262961,2,0,L|99:200,1,51.999997619629,6|0,1:2|0:0,0:0:0:0:
263,82,263138,6,0,B|175:76|208:146|105:136|105:136|134:129|159:93,1,207.999990478516,6|0,1:2|1:0,0:0:0:0:
83,57,263579,2,0,P|71:33|54:13,1,51.999997619629,0|0,0:0|0:0,0:0:0:0:
23,156,263755,1,2,0:0:0:0:
29,167,263844,2,0,P|13:235|-13:294,1,103.999995239258,0|2,1:0|0:0,0:0:0:0:
96,276,264108,1,2,0:0:0:0:
105,270,264197,2,0,L|176:282,2,51.999997619629,2|2|0,1:2|0:0|0:0,0:0:0:0:
0,384,264549,6,0,L|145:355,1,103.999995239258,6|2,1:2|0:0,0:0:0:0:
217,382,264814,1,2,0:0:0:0:
217,382,264902,1,2,1:2:0:0:
217,382,264991,2,0,P|224:333|241:295,1,51.999997619629,2|0,0:0|0:0,0:0:0:0:
296,216,265167,1,2,0:1:0:0:
301,225,265255,2,0,P|218:217|203:159,1,103.999995239258,0|2,1:0|0:0,0:0:0:0:
298,114,265608,6,0,B|347:129|399:115|399:115|380:158|394:215,1,204.000003890991,2|0,1:0|0:0,0:0:0:0:
389,307,265961,6,0,P|425:304|462:287,3,51.999997619629,4|0|0|0,1:0|3:0|3:0|3:0,0:0:0:0:
272,371,266314,2,0,P|308:373|345:390,3,51.999997619629,0|0|0|0,1:0|3:0|3:0|3:0,0:0:0:0:
167,296,266667,2,0,P|203:293|240:276,3,51.999997619629,0|0|0|0,1:0|3:0|3:0|3:0,0:0:0:0:
95,365,267020,6,0,B|75:328|75:328|83:268,1,90.0000034332277,2|0,1:0|0:0,0:0:0:0:
145,212,267373,6,4,L|153:134,3,51.999997619629,0|0|0|0,1:0|3:0|3:0|3:0,0:0:0:0:
230,66,267726,2,0,L|238:144,3,51.999997619629,0|0|0|0,1:0|3:0|3:0|3:0,0:0:0:0:
293,238,268079,2,0,L|301:160,3,51.999997619629,0|0|0|0,1:0|3:0|3:0|3:0,0:0:0:0:
380,129,268432,6,0,L|496:111,1,90.0000034332277,2|0,1:0|0:0,0:0:0:0:
447,14,268785,6,0,L|498:24,3,51.999997619629,4|0|0|0,1:0|3:0|3:0|3:0,0:0:0:0:
369,40,269138,6,0,B|362:98|386:74|378:145,1,90.0000034332277,2|0,1:0|0:0,0:0:0:0:
293,238,269491,6,0,L|344:227,3,51.999997619629,4|0|0|0,1:0|3:0|3:0|3:0,0:0:0:0:
215,212,269844,6,0,B|208:154|232:178|224:107,1,90.0000034332277,2|0,1:0|0:0,0:0:0:0:
136,57,270197,6,0,P|143:14|168:-11,2,51.999997619629,4|0|0,1:0|3:0|3:0,0:0:0:0:
54,144,270461,2,0,P|28:108|28:73,2,51.999997619629,4|0|0,1:0|3:0|3:0,0:0:0:0:
57,263,270726,2,0,P|14:256|-11:231,2,51.999997619629,4|0|0,1:0|3:0|1:0,0:0:0:0:
57,263,271608,6,0,P|189:295|225:322,1,180.000006866455,4|0,1:0|0:0,0:0:0:0:
286,384,272314,1,8,0:0:0:0:
286,384,272667,6,0,P|330:316|222:336,1,240,6|8,0:0|0:0,0:0:0:0:
193,206,274432,6,0,B|225:153|232:101|232:101|238:145|276:176,1,180.000006866455,6|0,0:0|0:0,0:0:0:0:
323,95,275138,1,8,0:0:0:0:
323,95,275491,6,0,L|86:142,1,240,6|8,0:0|0:0,0:0:0:0:
250,214,277255,6,0,B|212:167|212:167|247:297,1,180.000006866455,6|0,0:0|0:0,0:0:0:0:
323,316,277961,1,8,0:0:0:0:
323,316,278314,6,0,B|194:290|233:407|102:378,1,240,6|8,0:0|0:0,0:0:0:0:
250,214,280079,6,0,B|319:224|319:224|338:217|338:217|354:229|354:229|432:245,1,180.000006866455,6|0,0:0|0:0,0:0:0:0:
504,260,280785,1,8,0:0:0:0:
504,260,281138,6,0,P|437:256|359:367,1,200,6|2,0:0|0:0,0:0:0:0:
224,374,282197,5,2,0:0:0:0:
281,310,282373,1,2,0:0:0:0:
224,374,282549,1,2,0:0:0:0:
224,374,282902,6,0,P|149:328|99:322,1,120.000004577637,6|0,0:0|0:0,0:0:0:0:
139,201,283432,2,0,P|64:247|14:253,1,120.000004577637,2|0,0:0|0:0,0:0:0:0:
60,77,283961,1,6,0:0:0:0:
60,77,284138,2,0,P|37:144|35:263,1,180.000006866455,2|0,0:0|0:0,0:0:0:0:
237,198,285020,5,10,0:0:0:0:
253,200,285373,1,2,0:0:0:0:
108,76,285726,6,0,B|114:138|114:138|155:180,1,120.000004577637,6|0,0:0|0:0,0:0:0:0:
341,130,286255,1,6,0:0:0:0:
341,130,286432,2,0,L|274:119,1,60.0000022888184,10|0,0:0|0:0,0:0:0:0:
196,94,286785,2,0,L|383:50,1,180.000006866455,6|0,0:0|0:0,0:0:0:0:
448,29,287491,1,0,0:0:0:0:
482,185,288197,5,2,0:0:0:0:
473,213,288373,1,2,0:0:0:0:
512,313,288549,6,0,B|467:307|439:348|439:348|411:393|358:384,1,180.000006866455,6|2,0:0|0:0,0:0:0:0:
372,300,289255,1,8,0:0:0:0:
372,300,289608,2,0,B|374:200|374:200|344:195|317:181|311:147,1,180.000006866455,6|0,0:0|0:0,0:0:0:0:
385,105,290314,1,0,0:0:0:0:
313,155,290667,1,8,0:0:0:0:
131,277,291373,5,2,0:0:0:0:
256,192,291461,12,2,296314,0:0:0:0:
256,192,297020,5,2,0:0:0:0:
