osu file format v14

[General]
AudioFilename: audio.mp3
AudioLeadIn: 0
PreviewTime: 126446
Countdown: 1
SampleSet: Soft
StackLeniency: 0.4
Mode: 0
LetterboxInBreaks: 0
WidescreenStoryboard: 0

[Editor]
Bookmarks: 93292,113057,115880,172880,211175,214175,230233,265527,353057,354469
DistanceSpacing: 1.4
BeatDivisor: 4
GridSize: 8
TimelineZoom: 1.7

[Metadata]
Title:Planet
TitleUnicode:Planet
Artist:DJ Genki feat. yukacco
ArtistUnicode:DJ Genki feat. yukacco
Creator:R3K3M
Version:Interstellar
Source:
Tags:R3K3M DnB Dj Genki yukacco
BeatmapID:1275403
BeatmapSetID:603836

[Difficulty]
HPDrainRate:6
CircleSize:4
OverallDifficulty:8
ApproachRate:9.4
SliderMultiplier:1.4
SliderTickRate:1

[Events]
//Background and Video events
0,0,"galaxy_nebula_blurring_stars_65152_1920x1080.jpg",0,0
//Break Periods
2,24316,46164
2,90669,91340
2,219139,229693
2,230433,240987
2,262904,263576
//Storyboard Layer 0 (Background)
//Storyboard Layer 1 (Fail)
//Storyboard Layer 2 (Pass)
//Storyboard Layer 3 (Foreground)
//Storyboard Sound Samples

[TimingPoints]
1528,352.941176470588,4,2,0,100,1,0
12822,-83.3333333333333,4,2,0,100,0,0
46704,-100,4,2,0,100,0,0
69910,-100,4,2,0,5,0,0
69998,-100,4,2,0,100,0,0
70616,-100,4,2,0,5,0,0
70704,-100,4,2,0,100,0,0
71322,-100,4,2,0,5,0,0
71410,-100,4,2,0,100,0,0
71851,-90.9090909090909,4,2,0,5,0,0
72116,-90.9090909090909,4,2,0,100,0,0
74939,-90.9090909090909,4,2,0,100,0,0
115880,-76.9230769230769,4,2,0,100,0,0
127175,-66.6666666666667,4,2,0,100,0,1
149763,-66.6666666666667,4,2,0,100,0,0
151351,-57.1428571428571,4,2,0,100,0,0
165292,-100,4,2,0,100,0,0
172351,-66.6666666666667,4,2,0,100,0,0
174116,-80,4,2,0,100,0,0
255645,-100,4,2,0,100,0,0
288116,-66.6666666666667,4,2,0,100,0,1
310704,-57.1428571428571,4,2,0,100,0,0
328351,-66.6666666666667,4,2,0,100,0,0

[HitObjects]
96,80,1528,6,0,P|176:112|192:176,1,140
125,228,2233,2,0,L|112:160,1,70
258,75,2586,2,0,L|272:144,1,70
242,242,2939,2,0,B|322:226|322:226|370:178|370:178,3,140
371,18,4351,6,0,P|419:66|403:162,1,140
276,124,5057,2,0,L|341:99,1,70
467,230,5410,2,0,L|402:255,1,70
267,297,5763,2,0,B|225:282|225:282|203:185,3,140
512,192,7175,6,0,L|400:288,1,140
320,224,7880,2,0,L|400:160,1,70
512,192,8233,2,0,L|454:241,1,70
367,290,8586,1,0,0:0:0:0:
263,309,8939,1,0,0:0:0:0:
158,296,9292,1,0,0:0:0:0:
62,251,9645,1,0,0:0:0:0:
370,28,9998,6,0,B|364:64|364:64|371:121|371:121|351:181,1,140
288,128,10704,2,0,L|235:83,1,70
448,80,11057,2,0,L|501:125,1,70
496,128,11410,5,0,0:0:0:0:
240,80,11763,1,0,0:0:0:0:
496,128,12116,1,0,0:0:0:0:
208,208,12469,1,0,0:0:0:0:
381,31,12822,6,0,P|394:99|310:90,1,167.999994873047
316,100,13527,2,0,P|307:173|381:169,1,167.999994873047
381,169,14233,2,0,P|394:237|310:228,1,167.999994873047
316,238,14939,2,0,P|307:311|381:307,1,167.999994873047
489,132,15469,5,0,0:0:0:0:
481,148,15557,1,0,0:0:0:0:
473,164,15645,2,0,P|398:127|403:31,1,167.999994873047
466,83,16351,2,0,L|317:189,1,167.999994873047
387,246,17057,2,0,P|298:263|238:180,1,167.999994873047
329,180,17763,2,0,P|365:143|278:85,1,167.999994873047
272,85,18204,5,0,0:0:0:0:
249,95,18292,1,0,0:0:0:0:
229,111,18380,1,0,0:0:0:0:
215,132,18469,5,0,0:0:0:0:
341,311,18645,1,0,0:0:0:0:
343,148,18822,5,0,0:0:0:0:
217,326,18998,1,0,0:0:0:0:
194,106,19175,5,0,0:0:0:0:
352,344,19351,1,0,0:0:0:0:
379,122,19527,5,0,0:0:0:0:
196,352,19704,1,0,0:0:0:0:
425,188,19880,5,0,0:0:0:0:
146,281,20057,1,0,0:0:0:0:
431,263,20233,5,0,0:0:0:0:
143,210,20410,1,0,0:0:0:0:
456,179,20586,5,0,0:0:0:0:
167,125,20763,1,0,0:0:0:0:
465,93,20939,5,0,0:0:0:0:
176,39,21116,1,0,0:0:0:0:
330,67,21292,5,0,0:0:0:0:
296,104,21380,1,0,0:0:0:0:
271,147,21469,1,0,0:0:0:0:
268,197,21557,1,0,0:0:0:0:
284,245,21645,1,0,0:0:0:0:
286,295,21733,1,0,0:0:0:0:
262,338,21822,1,0,0:0:0:0:
216,356,21910,1,0,0:0:0:0:
168,344,21998,5,0,0:0:0:0:
139,304,22086,1,0,0:0:0:0:
143,254,22175,1,0,0:0:0:0:
187,215,22263,1,0,0:0:0:0:
245,222,22351,1,0,0:0:0:0:
285,264,22439,1,0,0:0:0:0:
308,317,22527,1,0,0:0:0:0:
354,350,22616,1,0,0:0:0:0:
404,348,22704,5,0,0:0:0:0:
438,305,22792,1,0,0:0:0:0:
453,253,22880,1,0,0:0:0:0:
447,199,22969,1,0,0:0:0:0:
420,152,23057,1,0,0:0:0:0:
377,119,23145,1,0,0:0:0:0:
324,105,23233,1,0,0:0:0:0:
271,113,23322,1,0,0:0:0:0:
224,141,23410,1,0,0:0:0:0:
195,182,23498,1,0,0:0:0:0:
227,224,23586,1,0,0:0:0:0:
233,278,23675,1,0,0:0:0:0:
209,326,23763,1,0,0:0:0:0:
163,355,23851,1,0,0:0:0:0:
110,356,23939,1,0,0:0:0:0:
63,328,24027,1,0,0:0:0:0:
30,265,24116,5,0,0:0:0:0:
219,68,46704,6,0,B|224:168|135:77|135:77|60:258|-45:179|-62:71|16:20|64:19|159:29|331:313|181:384|-5:390|-48:185|88:180|200:204,1,910
348,273,49175,2,0,P|330:303|305:327,1,70
204,289,49527,2,0,P|236:275|263:253,1,70
189,207,49880,2,0,P|156:218|121:221,1,70
66,127,50233,2,0,P|100:136|135:137,1,70
108,52,50586,2,0,P|75:39|46:19,1,70
272,70,51645,5,0,0:0:0:0:
292,40,52351,2,0,B|271:145|199:49|199:49|159:177|287:161|367:103|367:103|223:207|327:215|327:297|271:167|207:239|175:247|135:191|120:160|111:119|124:31,1,840
120,61,54822,1,0,0:0:0:0:
120,215,55175,1,0,0:0:0:0:
120,215,55527,2,0,P|177:162|168:94,1,140
104,137,56233,1,0,0:0:0:0:
248,151,56410,1,0,0:0:0:0:
109,26,56586,5,0,0:0:0:0:
351,85,56939,1,0,0:0:0:0:
109,26,57292,5,0,0:0:0:0:
178,128,57469,1,0,0:0:0:0:
109,26,57998,2,0,B|211:22|272:244|272:244|345:152|361:12|118:49|69:130|72:233|305:361|193:170,1,840
109,26,60469,1,0,0:0:0:0:
156,168,60822,5,0,0:0:0:0:
268,104,60998,1,0,0:0:0:0:
291,218,61175,1,0,0:0:0:0:
187,97,61351,5,0,0:0:0:0:
298,161,61527,1,0,0:0:0:0:
211,238,61704,1,0,0:0:0:0:
264,91,61880,5,0,0:0:0:0:
262,219,62057,2,0,P|334:249|221:303,1,280
383,57,62939,5,0,0:0:0:0:
383,57,63292,1,0,0:0:0:0:
427,170,63645,6,0,P|340:170|273:151,1,140
154,192,64351,2,0,P|223:182|288:156,1,140
426,270,65057,6,0,P|339:270|272:251,1,140
153,292,65763,2,0,P|222:282|287:256,1,140
363,196,66469,6,0,B|368:401|309:198|243:308|243:308|249:137|130:143|163:294|300:166,1,490
399,120,67880,5,0,0:0:0:0:
325,49,68763,5,0,0:0:0:0:
257,218,68939,1,0,0:0:0:0:
209,46,69116,1,0,0:0:0:0:
384,224,69292,2,0,P|448:208|424:61,1,245
400,144,69998,2,0,B|246:156|246:156|196:188|196:188|202:132,1,245
263,230,70704,2,0,P|197:262|136:129,1,245
195,182,71410,2,0,L|207:375,1,175
195,182,72116,2,0,P|217:254|276:301,1,154.000004699707
73,73,72645,5,0,0:0:0:0:
153,231,72822,1,0,0:0:0:0:
15,139,72998,1,0,0:0:0:0:
219,166,73175,1,0,0:0:0:0:
115,150,73527,1,0,0:0:0:0:
115,150,73880,1,0,0:0:0:0:
448,208,74410,5,0,0:0:0:0:
288,288,74586,1,0,0:0:0:0:
358,119,74763,1,0,0:0:0:0:
204,223,74939,2,0,P|167:216|208:72,1,231.000007049561
201,147,75645,2,0,P|238:154|197:298,1,231.000007049561
201,147,76351,6,0,L|297:110,1,77.0000023498536
217,297,76704,2,0,L|145:324,1,77.0000023498536
272,119,77057,2,0,L|371:143,1,77.0000023498536
144,324,77410,2,0,L|69:305,1,77.0000023498536
17,231,77763,2,0,B|14:180|14:180|89:176|91:98,1,154.000004699707
46,60,78292,2,0,P|94:49|165:147,1,154.000004699707
172,212,78822,1,0,0:0:0:0:
395,46,79175,5,0,0:0:0:0:
395,46,79527,1,0,0:0:0:0:
395,46,79880,1,0,0:0:0:0:
227,217,80057,5,0,0:0:0:0:
240,69,80233,1,0,0:0:0:0:
108,143,80410,1,0,0:0:0:0:
320,219,80586,2,0,P|400:221|436:88,1,231.000007049561
364,143,81292,2,0,P|421:293|362:343,1,231.000007049561
339,241,81998,6,0,P|454:215|478:114,1,231.000007049561
386,157,82704,2,0,L|325:98,1,77.0000023498536
232,123,83057,2,0,L|287:176,1,77.0000023498536
395,275,83410,5,0,0:0:0:0:
343,174,83763,5,0,0:0:0:0:
405,42,83939,1,0,0:0:0:0:
457,143,84292,5,0,0:0:0:0:
420,257,84469,2,0,B|319:325|259:230|259:230|331:123|195:28|77:142|165:240,1,539.000016448975
165,240,85880,1,0,0:0:0:0:
206,176,86233,2,0,P|210:104|343:102,1,231.000007049561
276,142,86939,2,0,P|303:209|417:154,1,231.000007049561
346,150,87645,2,0,B|311:298|311:298|313:184|210:165,1,308.000009399414
238,172,88704,5,0,0:0:0:0:
238,172,88880,1,0,0:0:0:0:
321,61,89057,5,0,0:0:0:0:
129,317,89410,1,0,0:0:0:0:
372,126,89763,1,0,0:0:0:0:
77,251,90116,1,0,0:0:0:0:
383,208,90469,1,0,0:0:0:0:
256,192,91880,12,0,93116,0:0:0:0:
111,67,93292,6,0,B|132:110|132:110|103:217,1,154.000004699707
68,287,93822,2,0,P|128:293|184:217,1,154.000004699707
210,138,94351,2,0,L|279:189,1,77.0000023498536
343,143,94704,6,0,P|353:183|262:270,1,154.000004699707
290,266,95233,2,0,P|332:239|300:139,1,154.000004699707
372,312,95763,2,0,L|417:250,1,77.0000023498536
422,111,96116,6,0,B|390:63|390:63|277:55,1,154.000004699707
219,62,96645,2,0,B|235:131|308:131|308:131|325:164|325:164,1,154.000004699707
397,171,97175,2,0,B|321:157,1,77.0000023498536
142,149,97527,6,0,P|141:192|252:265,1,154.000004699707
278,221,98057,2,0,L|212:267,1,77.0000023498536
278,221,98586,2,0,P|311:202|330:169,1,77.0000023498536
330,168,98939,6,0,B|390:142|390:142|406:214|468:222,1,154.000004699707
437,212,99469,2,0,P|399:170|385:124,1,77.0000023498536
391,151,99998,2,0,P|409:184|437:210,1,77.0000023498536
209,191,100351,6,0,P|233:229|157:214,1,154.000004699707
209,191,100880,2,0,L|172:272,1,77.0000023498536
209,191,101410,2,0,L|240:120,1,77.0000023498536
239,120,101763,6,0,P|263:158|187:143,1,154.000004699707
239,120,102292,6,0,P|226:184|290:170,1,154.000004699707
289,170,102822,2,0,L|336:237,1,77.0000023498536
150,260,103175,6,0,B|172:311|143:347|143:347|115:340,1,115.50000352478
120,341,103527,2,0,B|101:355|101:355|60:334|59:278,1,115.50000352478
59,278,103880,2,0,B|59:333|100:354|100:354|119:340,1,115.50000352478
120,341,104233,2,0,B|142:346|142:346|171:310|149:259,1,115.50000352478
149,259,104586,5,0,0:0:0:0:
93,131,104763,1,0,0:0:0:0:
230,149,105116,6,0,P|302:184|361:131,1,154.000004699707
292,115,105645,2,0,L|287:12,1,77.0000023498536
292,115,105998,2,0,L|295:191,1,77.0000023498536
166,141,106527,2,0,L|169:217,1,77.0000023498536
299,268,107057,2,0,L|295:191,1,77.0000023498536
258,99,107410,6,0,P|306:86|378:203,1,192.500005874634
359,213,107939,2,0,P|291:225|320:163,1,154.000004699707
359,213,108469,2,0,L|362:289,1,77.0000023498536
304,166,108822,6,0,P|335:143|373:141,2,77.0000023498536
172,209,109527,1,0,0:0:0:0:
301,257,109704,1,0,0:0:0:0:
172,310,109880,1,0,0:0:0:0:
301,358,110057,1,0,0:0:0:0:
420,259,110233,6,0,L|423:182,1,77.0000023498536
302,200,110763,2,0,L|298:123,1,77.0000023498536
402,57,111292,2,0,L|404:105,1,38.5000011749268
291,276,111645,6,0,L|301:199,1,77.0000023498536
178,206,112175,2,0,L|180:129,1,77.0000023498536
314,52,112704,2,0,L|311:99,1,38.5000011749268
273,319,113057,6,0,L|290:243,1,77.0000023498536
166,239,113586,2,0,L|175:162,1,77.0000023498536
312,90,114116,2,0,L|317:51,1,38.5000011749268
269,258,114469,6,0,L|292:184,1,77.0000023498536
269,258,114998,2,0,L|271:181,1,77.0000023498536
269,258,115527,2,0,L|258:181,1,77.0000023498536
74,37,115880,6,0,B|59:101|111:142|111:142|116:108|141:83|182:81,1,181.999991668702
184,154,116586,2,0,P|229:208|148:308,1,181.999991668702
158,229,117292,2,0,B|222:217|222:217|288:235|288:235|332:216,1,181.999991668702
365,131,117998,1,0,0:0:0:0:
296,310,118351,1,0,0:0:0:0:
340,64,118527,1,0,0:0:0:0:
352,98,118616,1,0,0:0:0:0:
365,131,118704,1,0,0:0:0:0:
104,314,119057,6,0,P|66:262|137:174,1,181.999991668702
141,248,119763,2,0,P|202:258|236:229,1,90.9999958343508
150,98,120116,2,0,P|170:137|211:154,1,90.9999958343508
376,154,120469,2,0,B|328:194|328:194|269:206|269:206|210:255,1,181.999991668702
376,154,121175,1,0,0:0:0:0:
90,81,121351,5,0,0:0:0:0:
90,81,121439,1,0,0:0:0:0:
90,81,121527,1,0,0:0:0:0:
274,240,121704,1,0,0:0:0:0:
228,46,121880,1,0,0:0:0:0:
200,258,122057,1,0,0:0:0:0:
426,45,122233,5,0,0:0:0:0:
467,269,122410,1,0,0:0:0:0:
497,89,122586,1,0,0:0:0:0:
307,279,122763,1,0,0:0:0:0:
97,51,122939,5,0,0:0:0:0:
63,270,123116,1,0,0:0:0:0:
27,87,123292,5,0,0:0:0:0:
237,294,123469,1,0,0:0:0:0:
265,51,123645,5,0,0:0:0:0:
128,334,123822,1,0,0:0:0:0:
185,30,123998,5,0,0:0:0:0:
280,342,124175,1,0,0:0:0:0:
447,44,124351,5,0,0:0:0:0:
468,98,124439,1,0,0:0:0:0:
461,156,124527,1,0,0:0:0:0:
428,204,124616,1,0,0:0:0:0:
376,230,124704,1,0,0:0:0:0:
317,229,124792,1,0,0:0:0:0:
258,230,124880,1,0,0:0:0:0:
206,257,124969,1,0,0:0:0:0:
184,316,125057,5,0,0:0:0:0:
144,361,125145,1,0,0:0:0:0:
86,349,125233,1,0,0:0:0:0:
62,303,125322,1,0,0:0:0:0:
87,249,125410,1,0,0:0:0:0:
150,242,125498,1,0,0:0:0:0:
202,277,125586,1,0,0:0:0:0:
259,303,125675,1,0,0:0:0:0:
322,290,125763,5,0,0:0:0:0:
455,106,125939,1,0,0:0:0:0:
425,323,126116,5,0,0:0:0:0:
309,86,126292,1,0,0:0:0:0:
202,339,126469,1,0,0:0:0:0:
229,276,126557,1,0,0:0:0:0:
256,213,126645,1,0,0:0:0:0:
284,151,126733,1,0,0:0:0:0:
309,86,126822,1,0,0:0:0:0:
395,295,126998,1,0,0:0:0:0:
116,88,127175,6,0,B|105:155|105:155|76:204,1,105.000004005432
150,282,127527,1,0,0:0:0:0:
34,119,127704,1,0,0:0:0:0:
150,282,127880,2,0,P|149:215|259:132,1,210.000008010865
432,116,128410,1,0,0:0:0:0:
297,291,128586,6,0,P|225:271|311:229,1,210.000008010865
492,203,129116,1,0,0:0:0:0:
386,365,129292,1,0,0:0:0:0:
338,136,129469,1,0,0:0:0:0:
468,320,129645,1,0,0:0:0:0:
419,119,129822,1,0,0:0:0:0:
150,252,129998,6,0,P|96:181|177:88,1,210.000008010865
174,173,130527,2,0,L|282:209,1,105.000004005432
355,152,130880,2,0,L|256:119,1,105.000004005432
88,75,131233,1,0,0:0:0:0:
114,292,131410,1,0,0:0:0:0:
24,136,131586,1,0,0:0:0:0:
203,290,131763,1,0,0:0:0:0:
211,97,131939,1,0,0:0:0:0:
55,238,132116,1,0,0:0:0:0:
343,150,132292,6,0,L|443:98,2,105.000004005432
417,204,132822,2,0,P|355:234|306:64,1,315.000012016297
343,150,133527,2,0,P|376:209|398:357,1,210.000008010865
293,299,134057,1,0,0:0:0:0:
188,347,134233,2,0,P|198:243|243:148,1,210.000008010865
350,45,134763,2,0,L|388:159,1,105.000004005432
480,114,135116,2,0,L|446:213,1,105.000004005432
307,257,135469,1,0,0:0:0:0:
96,168,135645,6,0,B|128:176|128:176|176:168|176:168|216:176,2,105.000004005432
267,252,136175,2,0,L|192:164,1,105.000004005432
27,88,136527,2,0,L|95:167,1,105.000004005432
267,252,136880,5,0,0:0:0:0:
277,51,137057,1,0,0:0:0:0:
135,256,137233,1,0,0:0:0:0:
348,94,137410,1,0,0:0:0:0:
308,333,137586,1,0,0:0:0:0:
202,93,137763,1,0,0:0:0:0:
368,216,137939,6,0,B|393:221|393:221|452:273,2,105.000004005432
475,193,138469,2,0,P|379:224|390:62,1,315.000012016297
305,28,139175,2,0,B|221:92|265:220|265:220|191:191|202:136,1,315.000012016297
144,88,139880,2,0,P|170:245|314:282,1,315.000012016297
467,304,140586,2,0,L|371:348,1,105.000004005432
266,218,140939,2,0,L|370:170,1,105.000004005432
361,173,141292,6,0,P|338:221|198:183,1,210.000008010865
279,172,141822,2,0,P|273:224|129:237,1,210.000008010865
205,202,142351,2,0,P|218:253|86:314,1,210.000008010865
163,56,142880,5,0,0:0:0:0:
354,176,143057,1,0,0:0:0:0:
135,148,143233,5,0,0:0:0:0:
346,205,143410,1,0,0:0:0:0:
140,250,143586,5,0,0:0:0:0:
358,232,143763,2,0,P|405:251|397:196,1,105.000004005432
476,55,144116,5,0,0:0:0:0:
414,210,144292,1,0,0:0:0:0:
342,57,144469,1,0,0:0:0:0:
493,202,144645,1,0,0:0:0:0:
270,365,144822,5,0,0:0:0:0:
282,313,144910,1,0,0:0:0:0:
294,262,144998,1,0,0:0:0:0:
306,210,145086,1,0,0:0:0:0:
318,160,145175,1,0,0:0:0:0:
330,109,145263,1,0,0:0:0:0:
342,57,145351,1,0,0:0:0:0:
345,72,145527,5,0,0:0:0:0:
187,282,145704,1,0,0:0:0:0:
293,29,145880,1,0,0:0:0:0:
280,293,146057,1,0,0:0:0:0:
413,31,146233,1,0,0:0:0:0:
427,69,146322,1,0,0:0:0:0:
420,110,146410,1,0,0:0:0:0:
393,142,146498,1,0,0:0:0:0:
354,156,146586,1,0,0:0:0:0:
314,148,146675,1,0,0:0:0:0:
283,120,146763,6,0,L|258:68,1,52.5000020027161
190,51,146939,5,0,0:0:0:0:
173,63,147027,1,0,0:0:0:0:
163,81,147116,1,0,0:0:0:0:
164,102,147204,1,0,0:0:0:0:
174,120,147292,1,0,0:0:0:0:
191,132,147380,1,0,0:0:0:0:
212,134,147469,1,0,0:0:0:0:
231,127,147557,1,0,0:0:0:0:
245,110,147645,5,0,0:0:0:0:
258,138,147733,1,0,0:0:0:0:
267,168,147822,1,0,0:0:0:0:
271,199,147910,1,0,0:0:0:0:
269,231,147998,1,0,0:0:0:0:
262,261,148086,1,0,0:0:0:0:
250,290,148175,1,0,0:0:0:0:
233,317,148263,1,0,0:0:0:0:
212,340,148351,5,0,0:0:0:0:
167,328,148439,1,0,0:0:0:0:
140,291,148527,1,0,0:0:0:0:
142,245,148616,1,0,0:0:0:0:
173,210,148704,1,0,0:0:0:0:
220,206,148792,1,0,0:0:0:0:
258,241,148880,1,0,0:0:0:0:
307,259,148969,1,0,0:0:0:0:
359,257,149057,5,0,0:0:0:0:
336,203,149145,1,0,0:0:0:0:
285,165,149233,1,0,0:0:0:0:
315,109,149322,5,0,0:0:0:0:
367,75,149410,1,0,0:0:0:0:
319,33,149498,5,0,0:0:0:0:
258,65,149586,1,0,0:0:0:0:
220,206,149763,5,0,0:0:0:0:
402,194,149939,1,0,0:0:0:0:
402,194,150027,1,0,0:0:0:0:
402,194,150116,2,0,P|511:249|472:315,1,210.000008010865
354,338,150645,1,0,0:0:0:0:
402,194,150822,1,0,0:0:0:0:
245,309,150998,1,0,0:0:0:0:
233,179,151175,5,0,0:0:0:0:
138,264,151351,1,0,0:0:0:0:
165,121,151527,1,0,0:0:0:0:
327,270,151704,1,0,0:0:0:0:
324,97,151880,1,0,0:0:0:0:
188,290,152057,1,0,0:0:0:0:
242,105,152233,1,0,0:0:0:0:
402,304,152410,1,0,0:0:0:0:
402,304,152498,1,0,0:0:0:0:
402,304,152586,6,0,P|403:244|365:197,1,122.500001168251
137,159,152939,1,0,0:0:0:0:
329,279,153116,1,0,0:0:0:0:
242,105,153292,1,0,0:0:0:0:
120,296,153469,5,0,0:0:0:0:
137,159,153645,1,0,0:0:0:0:
258,275,153822,1,0,0:0:0:0:
25,235,153998,1,0,0:0:0:0:
211,108,154175,1,0,0:0:0:0:
262,310,154351,1,0,0:0:0:0:
137,159,154527,1,0,0:0:0:0:
324,109,154704,1,0,0:0:0:0:
13,370,155057,1,0,0:0:0:0:
207,59,155410,6,0,B|254:100|254:100|277:182,1,122.500001168251
290,316,155763,1,0,0:0:0:0:
161,222,155939,1,0,0:0:0:0:
384,154,156116,1,0,0:0:0:0:
311,337,156292,1,0,0:0:0:0:
238,154,156469,1,0,0:0:0:0:
115,312,156645,1,0,0:0:0:0:
115,312,156733,1,0,0:0:0:0:
115,312,156822,6,0,P|168:264|122:194,1,122.500001168251
22,47,157175,1,0,0:0:0:0:
59,235,157351,1,0,0:0:0:0:
231,47,157527,1,0,0:0:0:0:
6,167,157704,1,0,0:0:0:0:
289,155,157880,1,0,0:0:0:0:
108,30,158057,1,0,0:0:0:0:
136,270,158233,6,0,P|195:324|270:304,1,122.500001168251
411,214,158586,1,0,0:0:0:0:
227,102,158763,1,0,0:0:0:0:
402,46,158939,1,0,0:0:0:0:
231,237,159116,1,0,0:0:0:0:
444,304,159292,1,0,0:0:0:0:
280,136,159469,1,0,0:0:0:0:
280,136,159557,1,0,0:0:0:0:
280,136,159645,6,0,P|228:204|244:266,1,122.500001168251
405,310,159998,2,0,P|443:263|441:203,1,122.500001168251
441,203,160351,1,0,0:0:0:0:
20,23,160704,1,0,0:0:0:0:
173,167,161057,5,0,0:0:0:0:
430,82,161233,1,0,0:0:0:0:
430,82,161322,1,0,0:0:0:0:
430,82,161410,1,0,0:0:0:0:
298,227,161586,1,0,0:0:0:0:
278,49,161763,5,0,0:0:0:0:
438,228,161939,1,0,0:0:0:0:
438,228,162027,1,0,0:0:0:0:
438,228,162116,1,0,0:0:0:0:
291,320,162292,5,0,0:0:0:0:
291,320,162380,1,0,0:0:0:0:
291,320,162469,1,0,0:0:0:0:
296,168,162645,5,0,0:0:0:0:
296,168,162733,1,0,0:0:0:0:
296,168,162822,1,0,0:0:0:0:
442,291,162998,5,0,0:0:0:0:
438,185,163175,1,0,0:0:0:0:
291,320,163351,1,0,0:0:0:0:
437,297,163527,1,0,0:0:0:0:
272,241,163704,1,0,0:0:0:0:
478,145,163880,1,0,0:0:0:0:
493,329,164233,6,0,L|439:218,1,122.500001168251
51,49,164763,2,0,L|104:159,1,122.500001168251
288,143,165292,6,0,B|287:79|270:56,1,70
288,143,165645,6,0,B|287:79|254:76,1,70
288,143,165998,6,0,B|287:79|252:99,1,70
288,143,166351,6,0,B|287:79|255:121,1,70
57,344,166704,5,0,0:0:0:0:
213,142,166880,1,0,0:0:0:0:
209,352,167057,5,0,0:0:0:0:
74,123,167233,1,0,0:0:0:0:
57,344,167410,1,0,0:0:0:0:
27,300,167498,1,0,0:0:0:0:
15,250,167586,1,0,0:0:0:0:
21,198,167675,1,0,0:0:0:0:
43,151,167763,1,0,0:0:0:0:
175,42,167939,5,0,0:0:0:0:
336,287,168116,1,0,0:0:0:0:
419,42,168292,1,0,0:0:0:0:
229,289,168469,1,0,0:0:0:0:
274,48,168645,1,0,0:0:0:0:
148,198,168822,5,0,0:0:0:0:
110,223,168910,1,0,0:0:0:0:
81,257,168998,1,0,0:0:0:0:
62,299,169086,1,0,0:0:0:0:
57,344,169175,1,0,0:0:0:0:
345,154,169351,1,0,0:0:0:0:
268,307,169527,5,0,0:0:0:0:
246,333,169616,1,0,0:0:0:0:
213,343,169704,1,0,0:0:0:0:
180,332,169792,1,0,0:0:0:0:
159,305,169880,1,0,0:0:0:0:
158,271,169969,1,0,0:0:0:0:
176,241,170057,1,0,0:0:0:0:
208,228,170145,1,0,0:0:0:0:
259,242,170233,5,0,0:0:0:0:
300,249,170322,1,0,0:0:0:0:
341,243,170410,1,0,0:0:0:0:
377,221,170498,1,0,0:0:0:0:
400,187,170586,1,0,0:0:0:0:
408,146,170675,1,0,0:0:0:0:
400,105,170763,1,0,0:0:0:0:
378,69,170851,1,0,0:0:0:0:
340,26,170939,5,0,0:0:0:0:
336,78,171027,1,0,0:0:0:0:
331,130,171116,1,0,0:0:0:0:
323,182,171204,1,0,0:0:0:0:
309,233,171292,1,0,0:0:0:0:
287,280,171380,1,0,0:0:0:0:
253,319,171469,1,0,0:0:0:0:
206,344,171557,1,0,0:0:0:0:
154,348,171645,5,0,0:0:0:0:
126,285,171733,1,0,0:0:0:0:
135,217,171822,1,0,0:0:0:0:
180,165,171910,1,0,0:0:0:0:
246,145,171998,1,0,0:0:0:0:
313,164,172086,1,0,0:0:0:0:
354,220,172175,1,0,0:0:0:0:
386,284,172263,1,0,0:0:0:0:
395,358,172351,5,0,0:0:0:0:
115,212,172527,1,0,0:0:0:0:
417,225,172704,5,0,0:0:0:0:
114,314,172880,1,0,0:0:0:0:
267,328,173057,5,0,0:0:0:0:
267,249,173145,1,0,0:0:0:0:
267,170,173233,1,0,0:0:0:0:
267,91,173322,1,0,0:0:0:0:
268,13,173410,1,0,0:0:0:0:
138,121,173586,1,0,0:0:0:0:
410,119,173763,1,0,0:0:0:0:
267,213,174116,5,0,0:0:0:0:
369,309,174292,1,0,0:0:0:0:
187,328,174469,2,0,L|165:206,1,87.5
259,62,174822,5,0,0:0:0:0:
171,241,174998,1,0,0:0:0:0:
317,130,175175,2,0,L|332:216,1,87.5
390,300,175527,2,0,P|415:252|417:179,1,87.5
256,55,175880,2,0,P|230:102|228:175,1,87.5,0|0,0:3|0:3,0:3:0:0:
262,288,176233,1,0,0:0:0:0:
308,137,176410,1,0,0:0:0:0:
135,279,176586,6,0,B|153:215|153:215|150:160|150:160|169:97,1,175
201,24,177116,1,0,0:0:0:0:
225,172,177292,2,0,L|235:267,1,87.5
76,199,177645,2,0,L|66:111,1,87.5
213,86,177998,5,0,0:0:0:0:
73,298,178175,1,0,0:0:0:0:
145,131,178351,1,0,0:0:0:0:
155,324,178527,1,0,0:0:0:0:
225,172,178704,1,0,0:0:0:0:
73,298,178880,1,0,0:0:0:0:
145,131,179057,1,0,0:0:0:0:
249,293,179233,1,0,0:0:0:0:
289,61,179410,6,0,P|273:121|168:149,1,175
65,118,179939,1,0,0:0:0:0:
173,151,180116,1,0,0:0:0:0:
72,226,180292,1,0,0:0:0:0:
173,151,180469,1,0,0:0:0:0:
65,118,180645,1,0,0:0:0:0:
200,299,180822,2,0,P|224:249|148:143,1,175
126,161,181351,5,0,0:0:0:0:
278,233,181527,1,0,0:0:0:0:
178,107,181704,1,0,0:0:0:0:
188,263,181880,1,0,0:0:0:0:
259,121,182057,1,0,0:0:0:0:
108,192,182233,2,0,L|65:293,1,87.5
264,342,182586,2,0,L|298:261,1,87.5
346,136,182939,1,0,0:0:0:0:
298,261,183116,5,0,0:0:0:0:
432,261,183292,2,0,L|466:180,1,87.5
346,136,183645,2,0,L|311:55,1,87.5
254,139,183998,2,0,L|219:219,1,87.5
288,219,184351,2,0,L|253:138,1,87.5
212,46,184704,1,0,0:0:0:0:
56,202,185057,6,0,P|62:284|171:309,1,175
282,283,185586,2,0,P|267:215|281:174,1,87.5
314,59,185939,1,0,0:0:0:0:
314,59,186116,1,0,0:0:0:0:
381,176,186292,6,0,P|356:233|229:149,1,262.5
340,77,186998,1,0,0:0:0:0:
255,307,187175,1,0,0:0:0:0:
211,72,187351,1,0,0:0:0:0:
123,236,187527,2,0,L|88:317,1,87.5
243,108,187880,5,0,0:0:0:0:
325,293,188057,1,0,0:0:0:0:
345,83,188233,1,0,0:0:0:0:
232,210,188410,1,0,0:0:0:0:
275,31,188586,1,0,0:0:0:0:
392,240,188763,1,0,0:0:0:0:
412,44,188939,1,0,0:0:0:0:
302,313,189116,2,0,P|155:247|202:93,1,350
202,93,189998,1,0,0:0:0:0:
202,93,190351,5,0,0:0:0:0:
202,93,190704,1,0,0:0:0:0:
468,101,190880,1,0,0:0:0:0:
201,114,191057,1,0,0:0:0:0:
437,23,191233,1,0,0:0:0:0:
460,239,191410,5,0,0:0:0:0:
439,281,191498,1,0,0:0:0:0:
398,305,191586,1,0,0:0:0:0:
350,303,191675,1,0,0:0:0:0:
312,275,191763,1,0,0:0:0:0:
296,230,191851,1,0,0:0:0:0:
307,184,191939,1,0,0:0:0:0:
393,58,192116,5,0,0:0:0:0:
226,260,192292,1,0,0:0:0:0:
319,29,192469,1,0,0:0:0:0:
376,229,192645,1,0,0:0:0:0:
229,28,192822,5,0,0:0:0:0:
242,78,192910,1,0,0:0:0:0:
256,129,192998,1,0,0:0:0:0:
269,180,193086,1,0,0:0:0:0:
283,230,193175,2,0,L|303:289,1,43.75
212,288,193351,5,0,0:0:0:0:
198,237,193439,1,0,0:0:0:0:
184,186,193527,1,0,0:0:0:0:
171,135,193616,1,0,0:0:0:0:
157,85,193704,1,0,0:0:0:0:
125,54,193792,1,0,0:0:0:0:
82,62,193880,1,0,0:0:0:0:
54,96,193969,1,0,0:0:0:0:
68,156,194057,5,0,0:0:0:0:
123,182,194145,1,0,0:0:0:0:
183,178,194233,1,0,0:0:0:0:
243,166,194322,1,0,0:0:0:0:
304,155,194410,1,0,0:0:0:0:
365,153,194498,1,0,0:0:0:0:
423,171,194586,1,0,0:0:0:0:
466,214,194675,1,0,0:0:0:0:
485,272,194763,1,0,0:0:0:0:
471,331,194851,1,0,0:0:0:0:
421,366,194939,5,0,0:0:0:0:
256,192,195116,12,0,196175,0:0:0:0:
76,78,196351,5,0,0:0:0:0:
129,241,196527,1,0,0:0:0:0:
177,131,196704,1,0,0:0:0:0:
39,311,196880,1,0,0:0:0:0:
258,185,197057,1,0,0:0:0:0:
195,350,197233,1,0,0:0:0:0:
108,151,197410,1,0,0:0:0:0:
278,288,197586,1,0,0:0:0:0:
50,197,197763,6,0,L|131:285,1,87.5
364,300,198116,2,0,P|380:260|367:212,1,87.5
220,46,198469,1,0,0:0:0:0:
117,274,198645,1,0,0:0:0:0:
67,65,198822,1,0,0:0:0:0:
189,213,198998,1,0,0:0:0:0:
398,129,199175,5,0,0:0:0:0:
155,137,199351,1,0,0:0:0:0:
297,24,199527,1,0,0:0:0:0:
309,206,199704,1,0,0:0:0:0:
181,59,199880,1,0,0:0:0:0:
183,251,200057,5,0,0:0:0:0:
252,86,200233,1,0,0:0:0:0:
402,205,200410,1,0,0:0:0:0:
116,33,200586,5,0,0:0:0:0:
97,226,200763,1,0,0:0:0:0:
193,48,200939,1,0,0:0:0:0:
186,246,201116,1,0,0:0:0:0:
57,66,201292,5,0,0:0:0:0:
269,106,201469,1,0,0:0:0:0:
77,152,201645,1,0,0:0:0:0:
289,192,201822,1,0,0:0:0:0:
158,30,201998,6,0,P|172:128|142:236,1,175
131,312,202527,1,0,0:0:0:0:
259,202,202704,1,0,0:0:0:0:
112,165,202880,1,0,0:0:0:0:
188,247,203057,1,0,0:0:0:0:
230,123,203233,1,0,0:0:0:0:
109,97,203410,6,0,P|47:139|102:233,1,175
251,294,203939,1,0,0:0:0:0:
73,222,204116,1,0,0:0:0:0:
275,194,204292,1,0,0:0:0:0:
113,303,204469,1,0,0:0:0:0:
275,194,204645,1,0,0:0:0:0:
146,37,204822,6,0,B|174:80|174:80|188:151|188:151|175:224,1,175
275,194,205351,2,0,L|299:69,1,87.5
307,27,205704,1,0,0:0:0:0:
197,23,205880,2,0,L|180:108,1,87.5
201,276,206233,5,0,0:0:0:0:
392,116,206410,1,0,0:0:0:0:
406,294,206586,5,0,0:0:0:0:
310,98,206763,1,0,0:0:0:0:
277,339,206939,5,0,0:0:0:0:
471,187,207116,1,0,0:0:0:0:
512,317,207292,5,0,0:0:0:0:
393,71,207469,1,0,0:0:0:0:
164,313,207645,6,0,B|103:362|103:362|121:254,1,175
148,123,208175,1,0,0:0:0:0:
131,186,208351,6,0,B|58:157|58:157|160:119,1,175
290,84,208880,1,0,0:0:0:0:
228,100,209057,6,0,B|216:22|216:22|290:84,1,175
217,205,209586,1,0,0:0:0:0:
181,278,209763,2,0,P|278:259|278:171,1,175
160,104,210292,1,0,0:0:0:0:
342,72,210469,6,0,L|387:149,1,87.5
257,295,210822,2,0,L|212:219,1,87.5
446,51,211175,2,0,L|476:135,1,87.5
152,315,211527,2,0,L|123:232,1,87.5
58,44,211880,5,0,0:0:0:0:
187,134,212057,1,0,0:0:0:0:
58,44,212233,1,0,0:0:0:0:
187,134,212410,1,0,0:0:0:0:
46,148,212586,1,0,0:0:0:0:
136,52,212763,1,0,0:0:0:0:
123,212,212939,1,0,0:0:0:0:
136,52,213116,1,0,0:0:0:0:
408,48,213292,5,0,0:0:0:0:
296,296,213469,1,0,0:0:0:0:
248,47,213645,1,0,0:0:0:0:
296,296,213822,1,0,0:0:0:0:
369,68,213998,6,0,L|408:48,1,43.75
264,155,214175,2,0,L|226:135,1,43.75
394,191,214351,2,0,L|433:171,1,43.75
289,278,214527,2,0,L|251:258,1,43.75
435,170,214704,5,0,0:0:0:0:
242,39,214880,1,0,0:0:0:0:
431,203,215057,5,0,0:0:0:0:
210,126,215233,1,0,0:0:0:0:
432,237,215410,5,0,0:0:0:0:
198,219,215586,1,0,0:0:0:0:
435,276,215763,5,0,0:0:0:0:
204,319,215939,1,0,0:0:0:0:
361,311,216116,5,0,0:0:0:0:
399,345,216204,1,0,0:0:0:0:
450,352,216292,1,0,0:0:0:0:
495,326,216380,1,0,0:0:0:0:
512,280,216469,1,0,0:0:0:0:
507,229,216557,1,0,0:0:0:0:
478,185,216645,1,0,0:0:0:0:
427,171,216733,1,0,0:0:0:0:
374,163,216822,5,0,0:0:0:0:
334,203,216910,1,0,0:0:0:0:
294,243,216998,1,0,0:0:0:0:
254,283,217086,1,0,0:0:0:0:
214,324,217175,1,0,0:0:0:0:
163,338,217263,1,0,0:0:0:0:
107,334,217351,1,0,0:0:0:0:
69,293,217439,1,0,0:0:0:0:
41,228,217527,5,0,0:0:0:0:
57,161,217616,1,0,0:0:0:0:
99,105,217704,1,0,0:0:0:0:
159,71,217792,1,0,0:0:0:0:
229,65,217880,1,0,0:0:0:0:
295,87,217969,1,0,0:0:0:0:
346,134,218057,1,0,0:0:0:0:
363,201,218145,1,0,0:0:0:0:
299,185,218233,5,0,0:0:0:0:
261,241,218322,1,0,0:0:0:0:
193,253,218410,1,0,0:0:0:0:
138,213,218498,1,0,0:0:0:0:
76,212,218586,5,0,0:0:0:0:
99,147,218675,1,0,0:0:0:0:
159,111,218763,1,0,0:0:0:0:
227,126,218851,1,0,0:0:0:0:
278,174,218939,1,0,0:0:0:0:
256,192,230233,5,0,0:0:0:0:
46,53,241527,5,0,0:0:0:0:
62,130,241704,1,0,0:0:0:0:
98,199,241880,1,0,0:0:0:0:
154,253,242057,1,0,0:0:0:0:
252,268,242233,5,0,0:0:0:0:
330,274,242410,1,0,0:0:0:0:
297,202,242586,1,0,0:0:0:0:
252,268,242763,1,0,0:0:0:0:
135,339,242939,5,0,0:0:0:0:
78,283,243116,1,0,0:0:0:0:
107,210,243292,1,0,0:0:0:0:
185,212,243469,1,0,0:0:0:0:
252,288,243645,5,0,0:0:0:0:
309,341,243822,1,0,0:0:0:0:
363,284,243998,1,0,0:0:0:0:
307,227,244175,1,0,0:0:0:0:
432,125,244351,5,0,0:0:0:0:
363,163,244527,1,0,0:0:0:0:
302,111,244704,1,0,0:0:0:0:
242,162,244880,1,0,0:0:0:0:
191,101,245057,1,0,0:0:0:0:
165,177,245233,1,0,0:0:0:0:
242,162,245410,1,0,0:0:0:0:
191,101,245586,1,0,0:0:0:0:
100,10,245763,5,0,0:0:0:0:
352,85,246116,1,0,0:0:0:0:
115,87,246645,1,0,0:0:0:0:
159,152,246822,1,0,0:0:0:0:
217,204,246998,1,0,0:0:0:0:
225,89,247175,5,0,0:0:0:0:
288,135,247351,1,0,0:0:0:0:
309,210,247527,1,0,0:0:0:0:
265,275,247704,1,0,0:0:0:0:
140,272,247880,5,0,0:0:0:0:
74,228,248057,1,0,0:0:0:0:
74,149,248233,1,0,0:0:0:0:
148,174,248410,1,0,0:0:0:0:
349,325,248586,5,0,0:0:0:0:
323,250,248763,1,0,0:0:0:0:
380,196,248939,1,0,0:0:0:0:
304,173,249116,1,0,0:0:0:0:
388,84,249292,5,0,0:0:0:0:
311,65,249469,1,0,0:0:0:0:
204,152,249645,5,0,0:0:0:0:
127,133,249822,1,0,0:0:0:0:
252,28,249998,5,0,0:0:0:0:
285,96,250175,1,0,0:0:0:0:
230,152,250351,1,0,0:0:0:0:
308,252,250527,5,0,0:0:0:0:
385,269,250704,1,0,0:0:0:0:
456,144,250880,5,0,0:0:0:0:
400,88,251057,1,0,0:0:0:0:
79,225,251410,5,0,0:0:0:0:
421,102,251763,1,0,0:0:0:0:
274,61,252292,1,0,0:0:0:0:
330,116,252469,1,0,0:0:0:0:
365,186,252645,1,0,0:0:0:0:
122,56,252822,5,0,0:0:0:0:
148,130,252998,1,0,0:0:0:0:
122,204,253175,1,0,0:0:0:0:
146,278,253351,1,0,0:0:0:0:
232,324,253527,5,0,0:0:0:0:
309,310,253704,1,0,0:0:0:0:
366,256,253880,1,0,0:0:0:0:
343,180,254057,1,0,0:0:0:0:
460,155,254233,5,0,0:0:0:0:
484,229,254410,1,0,0:0:0:0:
429,286,254586,1,0,0:0:0:0:
404,210,254763,1,0,0:0:0:0:
276,208,254939,5,0,0:0:0:0:
299,283,255116,1,0,0:0:0:0:
156,236,255292,5,0,0:0:0:0:
185,311,255469,1,0,0:0:0:0:
314,53,255645,6,0,P|250:21|186:53,1,140
250,117,256175,2,0,L|250:278,1,140
243,332,256704,6,0,B|297:334|322:280|322:280|383:340|383:340|417:325|417:325|466:272|392:193|411:64|411:64|362:82|362:145,1,560
341,181,258469,2,0,B|285:161|298:88|298:88|208:92|159:161,1,245
168,176,259175,2,0,P|108:172|98:41,1,210
140,104,259880,2,0,B|193:97|200:47|200:47|235:153|257:171|257:171|280:160|286:135,1,245
271,161,260586,2,0,P|313:109|293:45,1,140
200,47,261116,1,0,0:0:0:0:
93,26,261292,5,0,0:0:0:0:
55,124,261645,1,0,0:0:0:0:
200,47,261998,5,0,0:0:0:0:
178,170,262351,1,0,0:0:0:0:
311,42,262704,5,0,0:0:0:0:
256,192,264116,12,0,265351,0:0:0:0:
199,124,265527,5,0,0:0:0:0:
309,270,265704,1,0,0:0:0:0:
116,131,265880,2,0,L|137:228,1,70
390,274,266233,2,0,L|375:342,1,70
130,199,266586,2,0,L|115:131,1,70
312,295,266939,5,0,0:0:0:0:
337,122,267116,1,0,0:0:0:0:
205,268,267292,1,0,0:0:0:0:
271,195,267645,1,0,0:0:0:0:
337,122,267998,1,0,0:0:0:0:
402,48,268351,6,0,B|430:87|430:87|418:184,1,140
360,315,268880,1,0,0:0:0:0:
314,152,269057,1,0,0:0:0:0:
480,267,269233,1,0,0:0:0:0:
314,152,269410,2,0,L|304:231,1,70
125,317,269763,6,0,L|133:247,1,70
150,76,270116,1,0,0:0:0:0:
485,215,270469,5,0,0:0:0:0:
392,294,270645,1,0,0:0:0:0:
305,221,270822,1,0,0:0:0:0:
292,189,270910,1,0,0:0:0:0:
307,159,270998,1,0,0:0:0:0:
340,152,271086,1,0,0:0:0:0:
367,172,271175,5,0,0:0:0:0:
440,356,271351,1,0,0:0:0:0:
264,295,271527,1,0,0:0:0:0:
264,295,271880,2,0,L|301:236,1,70
376,120,272233,2,0,L|338:178,1,70
255,274,272586,5,0,0:0:0:0:
168,151,272763,1,0,0:0:0:0:
165,261,272939,1,0,0:0:0:0:
239,182,273116,1,0,0:0:0:0:
84,213,273292,1,0,0:0:0:0:
84,213,273645,1,0,0:0:0:0:
428,202,273998,6,0,P|417:254|409:281,1,70
327,247,274351,2,0,P|335:213|342:178,1,70
423,96,274704,1,0,0:0:0:0:
342,14,274880,1,0,0:0:0:0:
260,96,275057,1,0,0:0:0:0:
342,178,275233,1,0,0:0:0:0:
130,148,275410,5,0,0:0:0:0:
208,272,275586,1,0,0:0:0:0:
246,126,275763,1,0,0:0:0:0:
111,268,275939,1,0,0:0:0:0:
302,58,276116,5,0,0:0:0:0:
327,47,276204,1,0,0:0:0:0:
353,54,276292,1,0,0:0:0:0:
370,77,276380,1,0,0:0:0:0:
369,104,276469,1,0,0:0:0:0:
296,304,276645,1,0,0:0:0:0:
104,45,276822,5,0,0:0:0:0:
174,214,276998,1,0,0:0:0:0:
257,51,277175,1,0,0:0:0:0:
54,265,277351,1,0,0:0:0:0:
128,124,277527,1,0,0:0:0:0:
249,260,277704,1,0,0:0:0:0:
104,45,277880,1,0,0:0:0:0:
54,265,278057,1,0,0:0:0:0:
304,37,278233,6,0,B|316:47|316:47|341:114,1,70
413,274,278586,1,0,0:0:0:0:
210,129,278763,1,0,0:0:0:0:
329,353,278939,1,0,0:0:0:0:
163,200,279116,1,0,0:0:0:0:
214,358,279292,1,0,0:0:0:0:
284,107,279469,1,0,0:0:0:0:
67,328,279645,6,0,B|65:312|65:312|88:262,1,70
200,31,279998,5,0,0:0:0:0:
243,323,280175,1,0,0:0:0:0:
77,47,280351,1,0,0:0:0:0:
357,273,280527,1,0,0:0:0:0:
200,31,280704,1,0,0:0:0:0:
94,250,280880,1,0,0:0:0:0:
94,250,280969,1,0,0:0:0:0:
94,250,281057,5,0,0:0:0:0:
261,45,281233,1,0,0:0:0:0:
94,250,281410,5,0,0:0:0:0:
308,96,281586,1,0,0:0:0:0:
94,250,281763,5,0,0:0:0:0:
340,157,281939,1,0,0:0:0:0:
94,250,282116,5,0,0:3:0:0:
355,224,282292,1,0,0:3:0:0:
328,31,282469,5,0,0:0:0:0:
349,52,282557,1,0,0:0:0:0:
347,82,282645,1,0,0:0:0:0:
323,101,282733,1,0,0:0:0:0:
293,95,282822,5,0,0:0:0:0:
320,121,282910,1,0,0:0:0:0:
339,154,282998,1,0,0:0:0:0:
349,192,283086,1,0,0:0:0:0:
368,219,283175,5,0,0:0:0:0:
315,233,283263,1,0,0:0:0:0:
266,208,283351,1,0,0:0:0:0:
247,156,283439,1,0,0:0:0:0:
224,93,283527,5,0,0:0:0:0:
271,79,283616,1,0,0:0:0:0:
323,101,283704,1,0,0:0:0:0:
344,152,283792,1,0,0:0:0:0:
294,201,283880,5,0,0:0:0:0:
319,250,283969,1,0,0:0:0:0:
374,246,284057,1,0,0:0:0:0:
417,210,284145,1,0,0:0:0:0:
388,149,284233,5,0,0:0:0:0:
333,186,284322,1,0,0:0:0:0:
278,224,284410,1,0,0:0:0:0:
223,262,284498,1,0,0:0:0:0:
157,277,284586,5,0,0:0:0:0:
182,215,284675,1,0,0:0:0:0:
208,155,284763,1,0,0:0:0:0:
242,98,284851,1,0,0:0:0:0:
284,149,284939,5,0,0:0:0:0:
355,151,285027,1,0,0:0:0:0:
413,118,285116,1,0,0:0:0:0:
438,57,285204,1,0,0:0:0:0:
175,355,285292,6,0,L|111:362,1,35
365,340,285469,6,0,L|399:336,1,35
179,284,285645,2,0,L|120:263,1,35
369,249,285822,6,0,L|401:237,1,35
155,184,285998,2,0,L|103:152,1,35
390,150,286175,6,0,L|419:131,1,35
175,97,286351,2,0,L|154:70,1,35
375,29,286528,6,0,L|354:56,1,35
232,348,286704,5,0,0:0:0:0:
138,208,286880,1,0,0:0:0:0:
338,223,287057,1,0,0:0:0:0:
115,327,287233,1,0,0:0:0:0:
225,200,287410,5,0,0:0:0:0:
230,165,287498,1,0,0:0:0:0:
236,131,287586,1,0,0:0:0:0:
242,96,287675,1,0,0:0:0:0:
248,62,287763,2,0,L|213:69,1,35
225,200,287939,2,0,L|257:216,1,35
318,154,288116,6,0,B|365:204|348:255|318:289|318:289|349:350|349:350|355:283|398:233,1,315.000012016297
418,190,288822,2,0,B|408:145|369:65|313:69|269:95|269:95|276:28|390:53,1,315.000012016297
432,71,289527,2,0,B|416:94|369:160|327:178|291:167|277:128|306:73|387:98|426:212,1,315.000012016297
472,247,290233,2,0,B|442:316|393:231|416:189|416:189|358:216|352:283|406:318|406:318|382:332,1,315.000012016297
322,361,290939,6,0,B|321:334|321:334|271:250|306:186|347:150,1,210.000008010865
421,60,291469,1,0,0:0:0:0:
451,203,291645,1,0,0:0:0:0:
300,246,291822,1,0,0:0:0:0:
421,60,291998,2,0,B|359:56|294:29|294:29|288:65|269:96|212:93|212:93|264:128|308:238|195:118|177:154|147:154|147:154|137:138,1,420.000016021729
170,150,292880,1,0,0:0:0:0:
381,195,293057,5,0,0:0:0:0:
222,20,293233,1,0,0:0:0:0:
381,195,293410,1,0,0:0:0:0:
175,150,293586,1,0,0:0:0:0:
381,195,293763,6,0,B|347:182|315:83|314:195|276:174|248:157|248:157|279:213|279:213|247:252|269:316|269:316,1,315.000012016297
337,271,294469,2,0,P|428:269|382:102,1,315.000012016297
311,90,295175,2,0,B|233:71|201:44|219:17|219:17|249:18|269:44|265:101|248:143|231:161|231:161|175:180,1,315.000012016297
141,188,295880,2,0,B|81:154|83:142|83:142|75:153|38:147|38:147|15:86|87:86,1,210.000008010865
46,237,296410,1,0,0:0:0:0:
225,199,296586,2,0,P|172:110|73:86,1,210.000008010865
172,111,297116,2,0,P|245:96|384:185,1,210.000008010865
416,210,297645,2,0,B|390:230|374:231|355:235|324:219|324:219|324:227|342:328|227:288,1,210.000008010865
113,282,298175,5,0,0:0:0:0:
236,163,298351,1,0,0:0:0:0:
200,297,298527,1,0,0:0:0:0:
114,132,298704,1,0,0:0:0:0:
196,61,298880,5,0,0:0:0:0:
117,258,299057,1,0,0:0:0:0:
315,95,299233,1,0,0:0:0:0:
47,194,299410,2,0,P|2:162|145:67,1,315.000012016297
69,115,300116,2,0,B|114:122|114:122|138:219|288:211|279:100|279:100|244:109,1,315.000012016297
193,114,300822,2,0,B|201:182|201:182|116:242|116:242|115:171|66:183|66:183|85:215|76:246,1,315.000012016297
72,330,301527,2,0,B|130:350|176:328|170:318|266:249,1,210.000008010865
374,176,302057,1,0,0:0:0:0:
118,67,302233,6,0,L|94:178,1,105.000004005432
77,274,302586,1,0,0:0:0:0:
200,108,302763,6,0,L|176:219,1,105.000004005432
159,315,303116,1,0,0:0:0:0:
200,108,303292,1,0,0:0:0:0:
52,241,303469,1,0,0:0:0:0:
269,234,303645,2,0,P|288:275|324:247,1,105.000004005432
272,190,303998,2,0,P|275:239|324:247,1,105.000004005432
300,155,304351,2,0,P|293:206|324:247,1,105.000004005432
320,143,304704,2,0,P|315:195|324:247,1,105.000004005432
388,336,305057,5,0,0:0:0:0:
422,194,305233,1,0,0:0:0:0:
247,333,305410,1,0,0:0:0:0:
470,279,305586,1,0,0:0:0:0:
391,81,305763,2,0,L|323:52,1,52.5000020027161
211,90,305939,2,0,L|262:102,1,52.5000020027161
382,163,306116,2,0,L|309:146,1,52.5000020027161
206,203,306292,2,0,L|258:205,1,52.5000020027161
474,218,306469,5,0,0:0:0:0:
333,326,306645,1,0,0:0:0:0:
445,98,306822,1,0,0:0:0:0:
420,294,306998,1,0,0:0:0:0:
387,172,307175,2,0,L|391:119,1,52.5000020027161
328,273,307351,2,0,L|332:325,1,52.5000020027161
271,98,307527,2,0,L|275:45,1,52.5000020027161
202,302,307704,2,0,L|197:354,1,52.5000020027161
95,63,307880,5,0,0:0:0:0:
79,107,307969,1,0,0:0:0:0:
73,154,308057,1,0,0:0:0:0:
79,201,308145,1,0,0:0:0:0:
95,245,308233,1,0,0:0:0:0:
131,284,308322,1,0,0:0:0:0:
172,307,308410,1,0,0:0:0:0:
217,320,308498,1,0,0:0:0:0:
259,365,308586,5,0,0:0:0:0:
280,305,308675,1,0,0:0:0:0:
301,246,308763,1,0,0:0:0:0:
321,186,308851,1,0,0:0:0:0:
332,124,308939,1,0,0:0:0:0:
376,79,309027,1,0,0:0:0:0:
439,80,309116,1,0,0:0:0:0:
484,123,309204,1,0,0:0:0:0:
486,185,309292,5,0,0:0:0:0:
423,186,309380,1,0,0:0:0:0:
366,161,309469,1,0,0:0:0:0:
323,115,309557,1,0,0:0:0:0:
304,55,309645,5,0,0:0:0:0:
294,116,309733,1,0,0:0:0:0:
250,161,309822,1,0,0:0:0:0:
189,172,309910,1,0,0:0:0:0:
175,110,309998,5,0,0:0:0:0:
122,148,310086,1,0,0:0:0:0:
62,166,310175,5,0,0:0:0:0:
86,106,310263,1,0,0:0:0:0:
93,38,310351,5,0,0:0:0:0:
145,76,310439,1,0,0:0:0:0:
194,115,310527,5,0,0:0:0:0:
246,77,310616,1,0,0:0:0:0:
304,46,310704,6,0,P|314:86|292:176,1,122.500001168251
239,289,311057,1,0,0:0:0:0:
412,124,311233,1,0,0:0:0:0:
248,109,311410,1,0,0:0:0:0:
377,293,311586,1,0,0:0:0:0:
377,293,311675,1,0,0:0:0:0:
377,293,311763,1,0,0:0:0:0:
304,46,311939,1,0,0:0:0:0:
223,237,312116,5,0,0:0:0:0:
95,252,312292,1,0,0:0:0:0:
206,159,312469,5,0,0:0:0:0:
68,134,312645,1,0,0:0:0:0:
231,81,312822,5,0,0:0:0:0:
77,33,312998,1,0,0:0:0:0:
122,197,313175,1,0,0:0:0:0:
77,33,313351,1,0,0:0:0:0:
77,33,313439,1,0,0:0:0:0:
77,33,313527,5,0,0:0:0:0:
231,81,313704,1,0,0:0:0:0:
122,197,313880,1,0,0:0:0:0:
324,100,314057,1,0,0:0:0:0:
222,221,314233,1,0,0:0:0:0:
267,32,314410,1,0,0:0:0:0:
313,244,314586,1,0,0:0:0:0:
176,109,314763,1,0,0:0:0:0:
176,109,314851,1,0,0:0:0:0:
176,109,314939,6,0,P|110:140|80:206,1,122.500001168251
54,325,315292,1,0,0:0:0:0:
229,250,315469,1,0,0:0:0:0:
153,330,315645,1,0,0:0:0:0:
313,244,315822,1,0,0:0:0:0:
109,220,315998,1,0,0:0:0:0:
309,327,316175,1,0,0:0:0:0:
309,327,316263,1,0,0:0:0:0:
309,327,316351,6,0,B|231:324|229:238,1,122.500001168251
222,36,316704,1,0,0:0:0:0:
116,174,316880,1,0,0:0:0:0:
150,65,317057,1,0,0:0:0:0:
234,206,317233,1,0,0:0:0:0:
336,52,317410,1,0,0:0:0:0:
210,126,317586,1,0,0:0:0:0:
210,126,317675,1,0,0:0:0:0:
210,126,317763,5,0,0:0:0:0:
122,251,317939,1,0,0:0:0:0:
89,95,318116,1,0,0:0:0:0:
292,244,318292,1,0,0:0:0:0:
264,63,318469,1,0,0:0:0:0:
173,279,318645,1,0,0:0:0:0:
68,158,318822,1,0,0:0:0:0:
318,190,318998,1,0,0:0:0:0:
206,45,319175,6,0,P|191:121|218:210,1,122.500001168251
288,298,319527,1,0,0:0:0:0:
299,86,319704,1,0,0:0:0:0:
183,281,319880,1,0,0:0:0:0:
388,120,320057,1,0,0:0:0:0:
381,325,320233,1,0,0:0:0:0:
197,164,320410,1,0,0:0:0:0:
211,77,320586,5,0,0:0:0:0:
177,271,320763,1,0,0:0:0:0:
197,164,320939,5,0,0:0:0:0:
322,305,321116,1,0,0:0:0:0:
278,239,321292,5,0,0:0:0:0:
194,342,321469,1,0,0:0:0:0:
177,271,321645,5,0,0:0:0:0:
273,329,321822,1,0,0:0:0:0:
394,81,321998,5,0,0:0:0:0:
271,160,322175,1,0,0:0:0:0:
271,160,322263,1,0,0:0:0:0:
271,160,322351,1,0,0:0:0:0:
394,81,322527,1,0,0:0:0:0:
328,289,322704,1,0,0:0:0:0:
387,202,322880,5,0,0:0:0:0:
387,202,322969,1,0,0:0:0:0:
387,202,323057,1,0,0:0:0:0:
262,64,323233,5,0,0:0:0:0:
262,64,323322,1,0,0:0:0:0:
262,64,323410,1,0,0:0:0:0:
182,286,323586,5,0,0:0:0:0:
312,140,323763,1,0,0:0:0:0:
290,292,323939,1,0,0:0:0:0:
130,201,324116,1,0,0:0:0:0:
384,199,324292,1,0,0:0:0:0:
188,334,324469,1,0,0:0:0:0:
298,178,324645,1,0,0:0:0:0:
125,185,324822,6,0,L|63:125,1,61.2500005841255
87,263,324998,2,0,L|25:203,1,61.2500005841255
182,254,325175,6,0,L|226:211,1,61.2500005841255
220,332,325351,2,0,L|264:289,1,61.2500005841255
368,191,325527,6,0,L|323:233,1,61.2500005841255
330,112,325704,2,0,L|285:154,1,61.2500005841255
182,254,325880,1,0,0:0:0:0:
124,159,326233,6,0,B|96:152|96:152|117:61,1,122.500001168251
147,160,326586,2,0,B|112:144|112:144|117:61,1,122.500001168251
164,165,326939,2,0,B|128:136|128:136|117:61,1,122.500001168251
172,169,327292,2,0,B|144:128|144:128|117:61,1,122.500001168251
359,54,327645,5,0,0:0:0:0:
280,255,327822,1,0,0:0:0:0:
178,58,327998,1,0,0:0:0:0:
386,223,328175,1,0,0:0:0:0:
57,148,328351,6,0,L|102:187,1,52.5000020027161
285,268,328527,2,0,L|237:227,1,52.5000020027161
135,117,328704,6,0,L|192:136,1,52.5000020027161
390,147,328880,2,0,L|332:127,1,52.5000020027161
141,40,329057,5,0,0:0:0:0:
208,233,329233,1,0,0:0:0:0:
207,83,329410,5,0,0:0:0:0:
140,276,329586,1,0,0:0:0:0:
324,240,329763,5,0,0:0:0:0:
334,216,329851,1,0,0:0:0:0:
345,192,329939,1,0,0:0:0:0:
356,168,330027,1,0,0:0:0:0:
366,144,330116,1,0,0:0:0:0:
346,35,330292,1,0,0:0:0:0:
247,100,330469,5,0,0:0:0:0:
227,82,330557,1,0,0:0:0:0:
204,70,330645,1,0,0:0:0:0:
178,64,330733,1,0,0:0:0:0:
152,64,330822,1,0,0:0:0:0:
127,71,330910,1,0,0:0:0:0:
104,83,330998,1,0,0:0:0:0:
85,101,331086,1,0,0:0:0:0:
67,127,331175,5,0,0:0:0:0:
96,156,331263,1,0,0:0:0:0:
120,190,331351,1,0,0:0:0:0:
139,228,331439,1,0,0:0:0:0:
152,268,331527,1,0,0:0:0:0:
158,310,331616,1,0,0:0:0:0:
148,345,331704,1,0,0:0:0:0:
128,376,331792,1,0,0:0:0:0:
90,373,331880,5,0,0:0:0:0:
51,338,331969,1,0,0:0:0:0:
30,290,332057,1,0,0:0:0:0:
30,238,332145,1,0,0:0:0:0:
51,190,332233,1,0,0:0:0:0:
90,155,332322,1,0,0:0:0:0:
139,139,332410,1,0,0:0:0:0:
182,139,332498,1,0,0:0:0:0:
201,174,332586,5,0,0:0:0:0:
225,225,332675,1,0,0:0:0:0:
280,235,332763,1,0,0:0:0:0:
321,198,332851,1,0,0:0:0:0:
318,150,332939,5,0,0:0:0:0:
378,176,333027,1,0,0:0:0:0:
435,143,333116,1,0,0:0:0:0:
443,78,333204,1,0,0:0:0:0:
391,28,333292,5,0,0:0:0:0:
318,150,333469,1,0,0:0:0:0:
443,78,333645,2,0,L|462:195,1,105.000004005432
477,327,333998,1,0,0:0:0:0:
371,224,334175,1,0,0:0:0:0:
378,370,334351,1,0,0:0:0:0:
455,245,334527,1,0,0:0:0:0:
292,317,334704,6,0,P|214:291|186:244,1,105.000004005432
192,194,335057,1,0,0:0:0:0:
60,307,335233,1,0,0:0:0:0:
121,153,335410,1,0,0:0:0:0:
238,305,335586,1,0,0:0:0:0:
58,221,335763,1,0,0:0:0:0:
157,369,335939,1,0,0:0:0:0:
221,201,336116,6,0,L|240:318,1,105.000004005432
442,355,336469,2,0,L|425:251,1,105.000004005432
370,48,336822,1,0,0:0:0:0:
329,178,336998,1,0,0:0:0:0:
461,114,337175,1,0,0:0:0:0:
289,77,337351,1,0,0:0:0:0:
420,219,337527,6,0,P|342:193|314:146,1,105.000004005432
289,77,337880,1,0,0:0:0:0:
399,145,338057,1,0,0:0:0:0:
317,263,338233,1,0,0:0:0:0:
399,145,338410,1,0,0:0:0:0:
487,239,338587,1,0,0:0:0:0:
377,331,338763,1,0,0:0:0:0:
300,159,338939,6,0,L|316:262,1,105.000004005432
152,356,339292,2,0,L|135:252,1,105.000004005432
114,127,339645,1,0,0:0:0:0:
216,201,339822,1,0,0:0:0:0:
243,78,339998,1,0,0:0:0:0:
124,226,340175,1,0,0:0:0:0:
300,159,340351,6,0,L|316:262,1,105.000004005432
490,337,340704,2,0,L|473:233,1,105.000004005432
407,55,341057,1,0,0:0:0:0:
320,222,341233,1,0,0:0:0:0:
490,129,341410,6,0,L|473:232,1,105.000004005432
282,319,341763,2,0,L|325:223,1,105.000004005432
183,205,342116,2,0,L|249:123,1,105.000004005432
342,120,342469,2,0,L|325:223,1,105.000004005432
455,167,342822,2,0,L|465:271,1,105.000004005432
282,319,343175,2,0,L|325:223,1,105.000004005432
397,95,343527,1,0,0:0:0:0:
465,271,343704,6,0,L|485:301,19,26.2500010013581
496,325,344586,1,0,0:0:0:0:
414,174,344763,1,0,0:0:0:0:
364,356,344939,1,0,0:0:0:0:
492,109,345116,1,0,0:0:0:0:
419,277,345292,1,0,0:0:0:0:
348,61,345469,1,0,0:0:0:0:
312,246,345645,1,0,0:0:0:0:
433,39,345822,1,0,0:0:0:0:
497,246,345998,5,0,0:0:0:0:
304,138,346175,1,0,0:0:0:0:
464,155,346351,1,0,0:0:0:0:
251,228,346527,1,0,0:0:0:0:
392,94,346704,1,0,0:0:0:0:
497,246,346880,1,0,0:0:0:0:
283,145,347057,2,0,L|225:111,1,52.5000020027161
360,278,347233,1,0,0:0:0:0:
303,45,347410,5,0,0:0:0:0:
258,274,347586,1,0,0:0:0:0:
210,49,347763,1,0,0:0:0:0:
124,255,347939,1,0,0:0:0:0:
283,145,348116,1,0,0:0:0:0:
131,128,348292,1,0,0:0:0:0:
259,262,348469,1,0,0:0:0:0:
210,49,348645,1,0,0:0:0:0:
124,255,348822,5,0,0:0:0:0:
324,164,348998,1,0,0:0:0:0:
182,331,349175,5,0,0:0:0:0:
324,164,349351,1,0,0:0:0:0:
449,248,349527,5,0,0:0:0:0:
249,157,349703,1,0,0:0:0:0:
391,324,349880,2,0,L|344:267,1,52.5000020027161
249,157,350057,2,0,L|323:166,1,52.5000020027161
464,179,350233,5,0,0:0:0:0:
258,70,350410,1,0,0:0:0:0:
455,266,350586,5,0,0:0:0:0:
249,157,350763,1,0,0:0:0:0:
446,353,350939,5,0,0:0:0:0:
240,244,351116,1,0,0:0:0:0:
448,231,351292,5,0,0:0:0:0:
242,340,351469,1,0,0:0:0:0:
279,32,351645,5,0,0:0:0:0:
511,261,351821,1,0,0:0:0:0:
245,132,351999,5,0,0:0:0:0:
492,187,352174,1,0,0:0:0:0:
180,258,352351,5,0,0:0:0:0:
477,110,352527,1,0,0:0:0:0:
183,74,352704,5,0,0:0:0:0:
466,249,352880,1,0,0:0:0:0:
153,330,353057,5,0,0:0:0:0:
103,318,353145,1,0,0:0:0:0:
81,273,353233,1,0,0:0:0:0:
103,227,353321,1,0,0:0:0:0:
155,216,353410,5,0,0:0:0:0:
191,267,353498,1,0,0:0:0:0:
243,303,353586,1,0,0:0:0:0:
303,319,353674,1,0,0:0:0:0:
366,313,353762,5,0,0:0:0:0:
315,277,353851,1,0,0:0:0:0:
295,218,353939,1,0,0:0:0:0:
314,159,354027,1,0,0:0:0:0:
378,123,354115,5,0,0:0:0:0:
336,68,354204,1,0,0:0:0:0:
268,59,354292,1,0,0:0:0:0:
202,76,354380,1,0,0:0:0:0:
149,141,354468,5,0,0:0:0:0:
