osu file format v14

[General]
AudioFilename: 13_-_DJ_Genki_feat._Yukacco_-_MAGIC__LOVE.ogg
AudioLeadIn: 0
PreviewTime: 65098
Countdown: 0
SampleSet: Soft
StackLeniency: 0.7
Mode: 3
LetterboxInBreaks: 0
SpecialStyle: 0
WidescreenStoryboard: 1

[Editor]
Bookmarks: 502,8285,12177,17366,23853,34231,44610,49799,57583,60177,62772,65204,75745,87420,97799
DistanceSpacing: 0.7
BeatDivisor: 4
GridSize: 8
TimelineZoom: 2.3

[Metadata]
Title:MAGIC & LOVE
TitleUnicode:MAGIC & LOVE
Artist:DJ Genki feat. Yukacco
ArtistUnicode:DJ Genki feat. Yukacco
Creator:Sies
Version:ANOTHER
Source:beatmania IIDX 21 SPADA
Tags:hikikuman si35 kanon matsubara IzumiReina happy core kimi no koto omou dakenanoni beatmania IIDX INFINITAS 楽曲パック vol.6 vj gyo starry orange japanese video game
BeatmapID:3011792
BeatmapSetID:1374646

[Difficulty]
HPDrainRate:8
CircleSize:4
OverallDifficulty:8
ApproachRate:5
SliderMultiplier:1.4
SliderTickRate:1

[Events]
//Background and Video events
0,0,"bg.jpg",0,0
//Break Periods
//Storyboard Layer 0 (Background)
//Storyboard Layer 1 (Fail)
//Storyboard Layer 2 (Pass)
//Storyboard Layer 3 (Foreground)
//Storyboard Layer 4 (Overlay)
//Storyboard Sound Samples

[TimingPoints]
477,324.324324324324,4,2,1,45,1,0
10855,-100,4,2,1,40,0,0
12152,-100,4,2,1,80,0,0
22531,-100,4,2,1,40,0,0
23828,-100,4,2,1,60,0,0
28855,-100,4,2,1,65,0,1
33882,-100,4,2,1,60,0,0
39233,-100,4,2,1,65,0,1
41666,-100,4,2,1,60,0,0
44585,-100,4,2,1,70,0,0
60152,-100,4,2,1,70,0,1
62098,-100,4,2,1,70,0,0
62747,-100,4,2,1,50,0,0
65179,-100,4,2,1,80,0,1
74422,-100,4,2,1,70,0,0
75720,-100,4,2,1,80,0,1
84801,-100,4,2,1,70,0,0
87395,-100,4,2,1,75,0,1
95179,-100,4,2,1,70,0,0
97774,-100,4,2,1,75,0,1
105558,-100,4,2,1,70,0,0
109287,-100,4,2,1,70,0,1
110260,-100,4,2,1,60,0,0

[HitObjects]
448,192,477,5,0,0:0:0:0:
64,192,639,128,0,801:0:0:0:0:
320,192,801,1,0,0:0:0:0:
192,192,963,128,0,1125:0:0:0:0:
64,192,1125,1,0,0:0:0:0:
192,192,1287,128,0,1449:0:0:0:0:
448,192,1368,1,0,0:0:0:0:
320,192,1449,1,0,0:0:0:0:
192,192,1612,128,0,1774:0:0:0:0:
64,192,1774,1,0,0:0:0:0:
448,192,1936,128,0,2098:0:0:0:0:
320,192,2098,1,0,0:0:0:0:
64,192,2260,128,0,2422:0:0:0:0:
192,192,2422,1,0,0:0:0:0:
64,192,2585,128,0,2747:0:0:0:0:
448,192,2639,1,0,0:0:0:0:
320,192,2693,1,0,0:0:0:0:
192,192,2747,1,0,0:0:0:0:
64,192,2909,128,0,3071:0:0:0:0:
448,192,2909,1,0,0:0:0:0:
320,192,3071,1,0,0:0:0:0:
192,192,3233,128,0,3395:0:0:0:0:
64,192,3395,1,0,0:0:0:0:
448,192,3558,128,0,3720:0:0:0:0:
320,192,3720,1,0,0:0:0:0:
448,192,3882,128,0,4044:0:0:0:0:
64,192,3963,1,0,0:0:0:0:
192,192,4044,1,0,0:0:0:0:
448,192,4206,128,0,4368:0:0:0:0:
64,192,4368,1,0,0:0:0:0:
192,192,4531,128,0,4693:0:0:0:0:
448,192,4693,1,0,0:0:0:0:
320,192,4855,128,0,5017:0:0:0:0:
192,192,5017,1,0,0:0:0:0:
320,192,5179,128,0,5341:0:0:0:0:
64,192,5233,1,0,0:0:0:0:
192,192,5287,1,0,0:0:0:0:
448,192,5341,1,0,0:0:0:0:
320,192,5504,128,0,5666:0:0:0:0:
64,192,5666,1,0,0:0:0:0:
448,192,5828,128,0,5990:0:0:0:0:
320,192,5990,1,0,0:0:0:0:
192,192,6152,128,0,6314:0:0:0:0:
64,192,6314,1,0,0:0:0:0:
192,192,6476,128,0,6639:0:0:0:0:
448,192,6558,1,0,0:0:0:0:
320,192,6639,1,0,0:0:0:0:
192,192,6801,128,0,6963:0:0:0:0:
64,192,6963,1,0,0:0:0:0:
320,192,7125,128,0,7287:0:0:0:0:
448,192,7287,1,0,0:0:0:0:
64,192,7449,128,0,7612:0:0:0:0:
192,192,7612,1,0,0:0:0:0:
64,192,7774,128,0,7936:0:0:0:0:
448,192,7828,1,0,0:0:0:0:
320,192,7882,1,0,0:0:0:0:
192,192,7936,1,0,0:0:0:0:
64,192,8098,128,0,8260:0:0:0:0:
320,192,8260,128,0,8422:0:0:0:0:
448,192,8260,128,0,8422:0:0:0:0:
192,192,8422,128,0,8585:0:0:0:0:
64,192,8585,128,0,8747:0:0:0:0:
320,192,8585,128,0,8747:0:0:0:0:
192,192,8747,128,0,9071:0:0:0:0:
448,192,8747,128,0,8909:0:0:0:0:
448,192,9071,128,0,9233:0:0:0:0:
64,192,9233,128,0,9395:0:0:0:0:
320,192,9233,128,0,9395:0:0:0:0:
448,192,9395,128,0,9558:0:0:0:0:
64,192,9558,128,0,9720:0:0:0:0:
192,192,9558,128,0,9720:0:0:0:0:
320,192,9720,128,0,9882:0:0:0:0:
192,192,9882,128,0,10044:0:0:0:0:
448,192,9882,128,0,10044:0:0:0:0:
64,192,10044,128,0,10206:0:0:0:0:
320,192,10044,128,0,10368:0:0:0:0:
64,192,10368,128,0,10531:0:0:0:0:
192,192,10531,128,0,10693:0:0:0:0:
448,192,10531,128,0,10693:0:0:0:0:
64,192,10693,128,0,10855:0:0:0:0:
320,192,10855,1,0,0:0:0:0:
448,192,10855,128,0,11828:0:0:0:0:
192,192,11179,1,0,0:0:0:0:
320,192,11179,128,0,11828:0:0:0:0:
64,192,11504,1,0,0:0:0:0:
192,192,11504,128,0,11828:0:0:0:0:
64,192,11828,1,0,0:0:0:0:
192,192,11909,1,0,0:0:0:0:
448,192,11990,1,0,0:0:0:0:
320,192,12071,1,0,0:0:0:0:
64,192,12152,1,4,0:0:0:0:
192,192,12152,1,2,0:0:0:0:
448,192,12152,1,0,0:0:0:0:
320,192,12314,1,0,0:0:0:0:
192,192,12476,1,8,0:0:0:0:
320,192,12476,1,2,0:0:0:0:
448,192,12476,1,0,0:0:0:0:
64,192,12639,1,0,0:0:0:0:
192,192,12801,1,2,0:0:0:0:
448,192,12801,1,0,0:0:0:0:
320,192,12882,1,0,0:0:0:0:
64,192,12963,1,0,0:0:0:0:
192,192,13044,1,0,0:0:0:0:
64,192,13125,1,8,0:0:0:0:
320,192,13125,1,2,0:0:0:0:
448,192,13125,1,0,0:0:0:0:
192,192,13206,1,0,0:0:0:0:
448,192,13287,1,0,0:0:0:0:
320,192,13368,1,0,0:0:0:0:
64,192,13449,1,2,0:0:0:0:
192,192,13449,1,0,0:0:0:0:
448,192,13612,1,0,0:0:0:0:
64,192,13774,1,8,0:0:0:0:
192,192,13774,1,2,0:0:0:0:
448,192,13774,1,0,0:0:0:0:
320,192,13936,1,0,0:0:0:0:
64,192,14098,1,2,0:0:0:0:
192,192,14098,1,0,0:0:0:0:
448,192,14179,1,0,0:0:0:0:
320,192,14260,1,0,0:0:0:0:
448,192,14341,1,0,0:0:0:0:
64,192,14422,1,8,0:0:0:0:
192,192,14422,1,2,0:0:0:0:
320,192,14422,1,0,0:0:0:0:
448,192,14504,1,0,0:0:0:0:
192,192,14585,1,0,0:0:0:0:
320,192,14666,1,0,0:0:0:0:
64,192,14747,1,2,0:0:0:0:
448,192,14747,1,0,0:0:0:0:
192,192,14909,1,0,0:0:0:0:
192,192,15071,1,8,0:0:0:0:
320,192,15071,1,2,0:0:0:0:
448,192,15071,1,0,0:0:0:0:
64,192,15233,1,0,0:0:0:0:
320,192,15395,1,2,0:0:0:0:
448,192,15395,1,0,0:0:0:0:
192,192,15476,1,0,0:0:0:0:
64,192,15558,1,0,0:0:0:0:
192,192,15639,1,0,0:0:0:0:
64,192,15720,1,8,0:0:0:0:
320,192,15720,1,2,0:0:0:0:
448,192,15720,1,0,0:0:0:0:
192,192,15801,1,0,0:0:0:0:
448,192,15882,1,0,0:0:0:0:
320,192,15963,1,0,0:0:0:0:
64,192,16044,1,4,0:0:0:0:
192,192,16044,1,2,0:0:0:0:
448,192,16044,1,0,0:0:0:0:
320,192,16206,1,0,0:0:0:0:
320,192,16368,1,8,0:0:0:0:
64,192,16368,1,0,0:0:0:0:
64,192,16531,1,4,0:0:0:0:
192,192,16531,1,2,0:0:0:0:
448,192,16531,1,0,0:0:0:0:
320,192,16693,1,0,0:0:0:0:
192,192,16774,1,0,0:0:0:0:
64,192,16855,1,4,0:0:0:0:
320,192,16855,1,2,0:0:0:0:
448,192,16855,1,0,0:0:0:0:
192,192,16936,1,0,0:0:0:0:
320,192,17017,1,2,0:0:0:0:
448,192,17017,1,8,0:0:0:0:
64,192,17098,1,2,0:0:0:0:
192,192,17098,1,0,0:0:0:0:
320,192,17179,1,2,0:0:0:0:
448,192,17179,1,0,0:0:0:0:
192,192,17260,1,2,0:0:0:0:
64,192,17341,1,4,0:0:0:0:
320,192,17341,1,2,0:0:0:0:
448,192,17341,1,0,0:0:0:0:
192,192,17504,1,0,0:0:0:0:
64,192,17666,1,8,0:0:0:0:
192,192,17666,1,2,0:0:0:0:
448,192,17666,1,0,0:0:0:0:
320,192,17828,1,0,0:0:0:0:
64,192,17990,1,2,0:0:0:0:
448,192,17990,1,0,0:0:0:0:
320,192,18071,1,0,0:0:0:0:
192,192,18152,1,0,0:0:0:0:
320,192,18233,1,0,0:0:0:0:
64,192,18314,1,2,0:0:0:0:
192,192,18314,1,8,0:0:0:0:
448,192,18314,1,0,0:0:0:0:
320,192,18395,1,0,0:0:0:0:
64,192,18476,1,0,0:0:0:0:
192,192,18558,1,0,0:0:0:0:
320,192,18639,1,2,0:0:0:0:
448,192,18639,1,0,0:0:0:0:
64,192,18801,1,0,0:0:0:0:
64,192,18963,1,2,0:0:0:0:
320,192,18963,1,8,0:0:0:0:
448,192,18963,1,0,0:0:0:0:
192,192,19125,1,0,0:0:0:0:
64,192,19287,1,2,0:0:0:0:
448,192,19287,1,0,0:0:0:0:
320,192,19368,1,0,0:0:0:0:
192,192,19449,1,0,0:0:0:0:
320,192,19531,1,0,0:0:0:0:
64,192,19612,1,2,0:0:0:0:
448,192,19612,1,8,0:0:0:0:
192,192,19693,1,2,0:0:0:0:
320,192,19693,1,0,0:0:0:0:
64,192,19774,1,2,0:0:0:0:
448,192,19774,1,0,0:0:0:0:
192,192,19855,1,2,0:0:0:0:
64,192,19936,1,2,0:0:0:0:
320,192,19936,1,0,0:0:0:60:Crash 2.wav
448,192,19936,1,0,0:0:0:0:
192,192,20098,1,0,0:0:0:0:
448,192,20260,1,0,0:0:0:0:
64,192,20422,1,4,0:0:0:0:
192,192,20422,1,2,0:0:0:0:
320,192,20422,1,0,0:0:0:0:
64,192,20747,1,4,0:0:0:0:
320,192,20747,1,2,0:0:0:0:
448,192,20747,1,0,0:0:0:0:
64,192,20909,1,2,0:0:0:0:
192,192,20909,1,8,0:0:0:0:
320,192,20990,1,2,0:0:0:0:
448,192,20990,1,0,0:0:0:0:
64,192,21071,1,2,0:0:0:0:
192,192,21071,1,0,0:0:0:0:
320,192,21152,1,2,0:0:0:0:
64,192,21233,1,2,0:0:0:0:
192,192,21233,1,0,0:0:0:60:Crash 2.wav
448,192,21233,1,0,0:0:0:0:
320,192,21395,1,0,0:0:0:0:
64,192,21558,1,0,0:0:0:0:
192,192,21720,1,2,0:0:0:0:
320,192,21720,1,4,0:0:0:0:
448,192,21720,1,0,0:0:0:0:
64,192,21882,1,0,0:0:0:0:
192,192,21922,1,0,0:0:0:0:
320,192,21963,1,0,0:0:0:0:
448,192,22004,1,0,0:0:0:0:
64,192,22044,1,4,0:0:0:0:
192,192,22044,1,2,0:0:0:0:
320,192,22206,1,2,0:0:0:0:
448,192,22206,1,0,0:0:0:0:
64,192,22287,1,2,0:0:0:0:
192,192,22287,1,0,0:0:0:0:
320,192,22368,1,2,0:0:0:0:
448,192,22368,1,0,0:0:0:0:
64,192,22449,1,2,0:0:0:0:
192,192,22531,128,0,22855:0:0:0:0:
320,192,22531,128,0,23179:0:0:0:0:
448,192,22531,128,0,23504:0:0:0:0:
64,192,22855,1,0,0:0:0:0:
192,192,23179,1,0,0:0:0:0:
64,192,23504,1,8,0:0:0:0:
192,192,23504,1,0,0:0:0:0:
320,192,23504,1,0,0:0:0:0:
448,192,23585,1,0,0:0:0:0:
64,192,23666,1,0,0:0:0:0:
192,192,23747,1,0,0:0:0:0:
64,192,23828,1,2,0:0:0:0:
320,192,23828,1,4,0:0:0:0:
448,192,23828,128,0,24476:0:0:0:0:
192,192,23990,1,0,0:0:0:0:
64,192,24152,1,2,0:0:0:0:
320,192,24152,1,8,0:0:0:0:
192,192,24314,1,0,0:0:0:0:
64,192,24476,1,2,0:0:0:0:
320,192,24476,128,0,24801:0:0:0:0:
448,192,24639,1,0,0:0:0:0:
192,192,24720,1,0,0:0:0:0:
64,192,24801,128,2,24963:0:0:0:0:
448,192,24801,1,8,0:0:0:0:
192,192,24963,128,0,25287:0:0:0:0:
320,192,25125,1,2,0:0:0:0:
448,192,25125,1,0,0:0:0:0:
64,192,25287,1,0,0:0:0:0:
320,192,25449,1,2,0:0:0:0:
448,192,25449,128,8,25612:0:0:0:0:
192,192,25612,1,0,0:0:0:0:
64,192,25774,128,2,25936:0:0:0:0:
448,192,25774,1,0,0:0:0:0:
320,192,25936,128,0,26098:0:0:0:0:
448,192,26017,1,0,0:0:0:0:
64,192,26098,1,2,0:0:0:0:
192,192,26098,1,8,0:0:0:0:
192,192,26260,128,0,26747:0:0:0:0:
64,192,26422,1,2,0:0:0:0:
448,192,26422,1,0,0:0:0:0:
320,192,26585,1,0,0:0:0:0:
64,192,26747,128,2,27071:0:0:0:0:
448,192,26747,1,8,0:0:0:0:
320,192,26909,1,0,0:0:0:0:
192,192,27071,1,2,0:0:0:0:
448,192,27071,128,0,27395:0:0:0:0:
320,192,27233,1,0,0:0:0:0:
64,192,27314,1,0,0:0:0:0:
192,192,27395,1,2,0:0:0:0:
320,192,27395,128,8,27720:0:0:0:0:
64,192,27558,1,0,0:0:0:0:
192,192,27720,128,2,28044:0:0:0:0:
448,192,27720,1,0,0:0:0:0:
320,192,27882,1,0,0:0:0:0:
64,192,28044,128,2,28368:0:0:0:0:
448,192,28044,1,8,0:0:0:0:
320,192,28206,1,0,0:0:0:0:
192,192,28368,1,2,0:0:0:0:
320,192,28368,1,4,0:0:0:0:
448,192,28368,1,0,0:0:0:0:
192,192,28531,1,2,0:0:0:0:
320,192,28531,1,4,0:0:0:0:
448,192,28531,1,0,0:0:0:0:
192,192,28855,128,2,29341:0:0:0:0:
320,192,28855,1,4,0:0:0:0:
448,192,28855,1,0,0:0:0:0:
64,192,28855,1,0,0:0:0:0:
320,192,29179,1,2,0:0:0:0:
448,192,29179,1,0,0:0:0:0:
64,192,29341,128,2,29666:0:0:0:0:
448,192,29341,1,8,0:0:0:0:
320,192,29504,1,0,0:0:0:0:
192,192,29666,1,2,0:0:0:0:
448,192,29666,128,0,29990:0:0:0:0:
320,192,29828,1,0,0:0:0:0:
192,192,29909,1,0,0:0:0:0:
64,192,29990,1,2,0:0:0:0:
320,192,29990,128,8,30314:0:0:0:0:
192,192,30152,1,0,0:0:0:0:
64,192,30314,128,2,30476:0:0:0:0:
448,192,30314,1,0,0:0:0:0:
192,192,30476,128,0,30639:0:0:0:0:
64,192,30639,1,2,0:0:0:0:
320,192,30639,128,8,30801:0:0:0:0:
448,192,30801,128,0,30963:0:0:0:0:
64,192,30963,1,2,0:0:0:0:
192,192,30963,1,0,0:0:0:0:
320,192,31125,128,0,31287:0:0:0:0:
64,192,31206,1,0,0:0:0:0:
192,192,31287,128,2,31449:0:0:0:0:
448,192,31287,1,8,0:0:0:0:
64,192,31449,1,2,0:0:0:0:
320,192,31449,1,4,0:0:0:0:
448,192,31449,128,0,31774:0:0:0:0:
64,192,31774,1,2,0:0:0:0:
192,192,31774,1,0,0:0:0:0:
64,192,31936,128,2,32098:0:0:0:0:
448,192,31936,1,8,0:0:0:0:
320,192,32098,1,0,0:0:0:0:
192,192,32260,1,2,0:0:0:0:
448,192,32260,128,0,32422:0:0:0:0:
320,192,32422,128,0,32747:0:0:0:0:
64,192,32504,1,0,0:0:0:0:
192,192,32585,1,8,0:0:0:0:
64,192,32747,1,2,0:0:0:0:
192,192,32747,128,4,33233:0:0:0:0:
448,192,32747,1,0,0:0:0:0:
320,192,33071,1,0,0:0:0:0:
448,192,33233,128,8,33395:0:0:0:0:
64,192,33395,1,2,0:0:0:0:
192,192,33395,1,4,0:0:0:0:
320,192,33395,1,0,0:0:0:0:
64,192,33558,128,0,33720:0:0:0:0:
192,192,33720,1,2,0:0:0:0:
320,192,33720,1,4,0:0:0:0:
448,192,33720,1,0,0:0:0:0:
320,192,33882,1,2,0:0:0:0:
448,192,33882,1,0,0:0:0:0:
64,192,33963,1,2,0:0:0:0:
192,192,33963,1,0,0:0:0:0:
320,192,34044,1,2,0:0:0:0:
448,192,34044,1,0,0:0:0:0:
192,192,34125,1,2,0:0:0:0:
64,192,34206,128,2,34855:0:0:0:0:
320,192,34206,1,4,0:0:0:0:
448,192,34206,1,0,0:0:0:0:
320,192,34368,1,0,0:0:0:0:
192,192,34531,1,2,0:0:0:0:
448,192,34531,1,8,0:0:0:0:
320,192,34693,1,0,0:0:0:0:
192,192,34855,128,2,35179:0:0:0:0:
448,192,34855,1,0,0:0:0:0:
64,192,35017,1,0,0:0:0:0:
320,192,35098,1,0,0:0:0:0:
64,192,35179,1,2,0:0:0:0:
448,192,35179,128,8,35341:0:0:0:0:
320,192,35341,128,0,35828:0:0:0:0:
64,192,35504,1,2,0:0:0:0:
192,192,35504,1,0,0:0:0:0:
448,192,35666,1,0,0:0:0:0:
64,192,35828,128,2,35990:0:0:0:0:
192,192,35828,1,8,0:0:0:0:
320,192,35990,1,0,0:0:0:0:
64,192,36152,1,2,0:0:0:0:
448,192,36152,128,0,36314:0:0:0:0:
192,192,36314,128,0,36476:0:0:0:0:
320,192,36395,1,0,0:0:0:0:
64,192,36476,1,8,0:0:0:0:
448,192,36476,1,2,0:0:0:0:
320,192,36639,128,0,37125:0:0:0:0:
64,192,36801,1,2,0:0:0:0:
448,192,36801,1,0,0:0:0:0:
192,192,36963,1,0,0:0:0:0:
64,192,37125,1,2,0:0:0:0:
448,192,37125,128,8,37449:0:0:0:0:
192,192,37287,1,0,0:0:0:0:
64,192,37449,128,2,37774:0:0:0:0:
320,192,37449,1,0,0:0:0:0:
192,192,37612,1,0,0:0:0:0:
448,192,37693,1,0,0:0:0:0:
192,192,37774,128,2,38098:0:0:0:0:
320,192,37774,1,8,0:0:0:0:
64,192,37936,1,0,0:0:0:0:
320,192,38098,128,2,38422:0:0:0:0:
448,192,38098,1,0,0:0:0:0:
192,192,38260,1,0,0:0:0:0:
64,192,38422,1,2,0:0:0:0:
448,192,38422,128,8,38747:0:0:0:0:
192,192,38585,1,0,0:0:0:0:
64,192,38747,1,2,0:0:0:0:
192,192,38747,1,4,0:0:0:0:
320,192,38747,1,0,0:0:0:0:
64,192,38909,1,2,0:0:0:0:
192,192,38909,1,4,0:0:0:0:
320,192,38909,1,0,0:0:0:0:
64,192,39233,1,2,0:0:0:0:
192,192,39233,1,4,0:0:0:0:
320,192,39233,128,0,39720:0:0:0:0:
448,192,39233,1,0,0:0:0:0:
448,192,39558,1,0,0:0:0:0:
64,192,39720,128,2,40044:0:0:0:0:
192,192,39720,1,8,0:0:0:0:
448,192,39882,1,0,0:0:0:0:
192,192,40044,128,2,40368:0:0:0:0:
320,192,40044,1,0,0:0:0:0:
448,192,40206,1,0,0:0:0:0:
64,192,40287,1,0,0:0:0:0:
320,192,40368,128,2,40693:0:0:0:0:
448,192,40368,1,8,0:0:0:0:
192,192,40531,1,0,0:0:0:0:
64,192,40693,1,2,0:0:0:0:
448,192,40693,128,0,41017:0:0:0:0:
320,192,40855,1,0,0:0:0:0:
64,192,41017,1,2,0:0:0:0:
192,192,41017,128,8,41341:0:0:0:0:
320,192,41179,1,0,0:0:0:0:
64,192,41341,128,2,41666:0:0:0:0:
448,192,41341,1,0,0:0:0:0:
320,192,41504,1,0,0:0:0:0:
192,192,41585,1,0,0:0:0:0:
320,192,41666,1,2,0:0:0:0:
448,192,41666,1,8,0:0:0:0:
64,192,41747,1,2,0:0:0:0:
192,192,41747,1,0,0:0:0:0:
320,192,41828,1,2,0:0:0:0:
448,192,41828,1,0,0:0:0:0:
192,192,41909,1,2,0:0:0:0:
64,192,41990,1,2,0:0:0:0:
320,192,41990,1,0,0:0:0:60:Crash 2.wav
448,192,41990,1,0,0:0:0:0:
64,192,42314,1,2,0:0:0:0:
320,192,42314,1,0,0:0:0:60:Crash 2.wav
448,192,42314,1,0,0:0:0:0:
64,192,42639,1,2,0:0:0:0:
192,192,42639,1,0,0:0:0:60:Crash 2.wav
448,192,42639,1,0,0:0:0:0:
64,192,42801,1,2,0:0:0:0:
192,192,42801,1,0,0:0:0:60:Crash 2.wav
448,192,42801,1,0,0:0:0:0:
64,192,42963,1,2,0:0:0:0:
192,192,42963,1,0,0:0:0:60:Crash 2.wav
448,192,42963,1,0,0:0:0:0:
64,192,43287,1,2,0:0:0:0:
320,192,43287,1,0,0:0:0:60:Crash 2.wav
448,192,43287,1,0,0:0:0:0:
64,192,43449,1,2,0:0:0:0:
192,192,43449,1,0,0:0:0:60:Crash 2.wav
448,192,43449,1,0,0:0:0:0:
64,192,43612,1,2,0:0:0:0:
320,192,43612,1,0,0:0:0:60:Crash 2.wav
448,192,43612,1,0,0:0:0:0:
64,192,43774,1,2,0:0:0:0:
192,192,43774,1,0,0:0:0:60:Crash 2.wav
448,192,43774,1,0,0:0:0:0:
64,192,44098,1,2,0:0:0:0:
320,192,44098,1,0,0:0:0:60:Crash 2.wav
448,192,44098,1,0,0:0:0:0:
64,192,44260,1,8,0:0:0:0:
192,192,44260,1,2,0:0:0:0:
320,192,44260,1,0,0:0:0:60:Crash 2.wav
448,192,44260,1,0,0:0:0:0:
64,192,44422,1,2,0:0:0:0:
192,192,44422,1,0,0:0:0:0:
320,192,44504,1,2,0:0:0:0:
64,192,44585,1,2,0:0:0:0:
192,192,44585,1,4,0:0:0:0:
448,192,44585,1,0,0:0:0:0:
320,192,44747,1,0,0:0:0:0:
64,192,44909,1,0,0:0:0:0:
320,192,45071,1,2,0:0:0:0:
448,192,45071,1,0,0:0:0:0:
320,192,45233,1,2,0:0:0:0:
448,192,45233,1,0,0:0:0:0:
192,192,45395,1,0,0:0:0:0:
320,192,45558,1,8,0:0:0:0:
64,192,45720,1,0,0:0:0:0:
320,192,45882,1,2,0:0:0:0:
448,192,45882,1,0,0:0:0:0:
192,192,46044,1,0,0:0:0:0:
64,192,46206,1,0,0:0:0:0:
320,192,46368,1,2,0:0:0:0:
448,192,46368,1,0,0:0:0:0:
320,192,46531,1,2,0:0:0:0:
448,192,46531,1,0,0:0:0:0:
320,192,46693,1,2,0:0:0:0:
448,192,46693,1,0,0:0:0:0:
64,192,46855,1,8,0:0:0:0:
192,192,47017,1,0,0:0:0:0:
64,192,47179,1,2,0:0:0:0:
192,192,47179,1,4,0:0:0:0:
320,192,47179,1,0,0:0:0:0:
448,192,47179,1,0,0:0:0:0:
320,192,47341,1,0,0:0:0:0:
448,192,47504,1,0,0:0:0:0:
64,192,47666,1,2,0:0:0:0:
192,192,47666,1,0,0:0:0:0:
64,192,47828,1,2,0:0:0:0:
192,192,47828,1,0,0:0:0:0:
448,192,47990,1,0,0:0:0:0:
192,192,48152,1,8,0:0:0:0:
320,192,48314,1,0,0:0:0:0:
64,192,48476,1,2,0:0:0:0:
192,192,48476,1,0,0:0:0:0:
448,192,48639,1,0,0:0:0:0:
320,192,48801,1,0,0:0:0:0:
64,192,48963,1,2,0:0:0:0:
192,192,48963,1,0,0:0:0:0:
64,192,49125,1,2,0:0:0:0:
192,192,49125,1,0,0:0:0:0:
64,192,49287,1,2,0:0:0:0:
192,192,49287,1,0,0:0:0:0:
448,192,49449,1,8,0:0:0:0:
320,192,49612,1,0,0:0:0:0:
64,192,49774,1,2,0:0:0:0:
192,192,49774,1,4,0:0:0:0:
320,192,49774,1,0,0:0:0:0:
448,192,49774,1,0,0:0:0:0:
192,192,49936,1,0,0:0:0:0:
64,192,50098,1,0,0:0:0:0:
320,192,50260,1,2,0:0:0:0:
448,192,50260,1,0,0:0:0:0:
320,192,50422,1,2,0:0:0:0:
448,192,50422,1,0,0:0:0:0:
64,192,50585,1,0,0:0:0:0:
320,192,50747,1,8,0:0:0:0:
192,192,50909,1,0,0:0:0:0:
320,192,51071,1,2,0:0:0:0:
448,192,51071,1,0,0:0:0:0:
64,192,51233,1,0,0:0:0:0:
448,192,51395,1,8,0:0:0:0:
64,192,51558,1,2,0:0:0:0:
320,192,51558,1,0,0:0:0:0:
320,192,51720,1,2,0:0:0:0:
448,192,51720,1,0,0:0:0:0:
64,192,51882,1,2,0:0:0:0:
192,192,51882,1,0,0:0:0:0:
320,192,52044,1,2,0:0:0:0:
448,192,52044,1,8,0:0:0:0:
64,192,52125,1,2,0:0:0:0:
192,192,52125,1,0,0:0:0:0:
320,192,52206,1,2,0:0:0:0:
448,192,52206,1,0,0:0:0:0:
192,192,52287,1,2,0:0:0:0:
64,192,52368,128,2,52531:0:0:0:0:
320,192,52368,1,4,0:0:0:0:
448,192,52368,1,0,0:0:0:0:
192,192,52531,1,0,0:0:0:0:
64,192,52693,128,2,52855:0:0:0:0:
320,192,52693,1,8,0:0:0:0:
448,192,52693,1,0,0:0:0:0:
192,192,52855,1,0,0:0:0:0:
64,192,53017,128,2,53179:0:0:0:0:
448,192,53017,1,0,0:0:0:0:
192,192,53179,128,0,53341:0:0:0:0:
64,192,53341,1,2,0:0:0:0:
320,192,53341,1,8,0:0:0:0:
448,192,53341,1,0,0:0:0:0:
192,192,53422,1,8,0:0:0:0:
320,192,53504,1,8,0:0:0:0:
448,192,53585,1,8,0:0:0:0:
64,192,53666,1,2,0:0:0:0:
192,192,53666,1,0,0:0:0:0:
320,192,53828,1,0,0:0:0:0:
192,192,53990,1,2,0:0:0:0:
320,192,53990,128,8,54152:0:0:0:0:
448,192,53990,1,0,0:0:0:0:
64,192,54152,1,0,0:0:0:0:
192,192,54314,1,2,0:0:0:0:
448,192,54314,128,0,54476:0:0:0:0:
320,192,54476,128,8,54639:0:0:0:0:
64,192,54639,1,8,0:0:0:0:
192,192,54720,1,8,0:0:0:0:
64,192,54801,128,2,54963:0:0:0:0:
320,192,54801,1,4,0:0:0:0:
448,192,54801,1,0,0:0:0:0:
64,192,55125,1,2,0:0:0:0:
192,192,55125,1,0,0:0:0:0:
64,192,55287,1,2,0:0:0:0:
192,192,55287,128,8,55449:0:0:0:0:
448,192,55287,1,0,0:0:0:0:
320,192,55449,1,8,0:0:0:0:
64,192,55612,1,2,0:0:0:0:
448,192,55612,128,0,55774:0:0:0:0:
320,192,55774,1,8,0:0:0:0:
192,192,55855,1,8,0:0:0:0:
64,192,55936,1,2,0:0:0:0:
320,192,55936,1,8,0:0:0:0:
448,192,55936,1,0,0:0:0:0:
64,192,56098,1,2,0:0:0:0:
192,192,56098,128,4,56260:0:0:0:0:
448,192,56098,1,0,0:0:0:0:
320,192,56422,1,2,0:0:0:0:
448,192,56422,1,0,0:0:0:0:
64,192,56504,1,2,0:0:0:0:
192,192,56504,1,0,0:0:0:0:
320,192,56585,128,2,56747:0:0:0:0:
448,192,56585,1,0,0:0:0:0:
64,192,56747,128,2,56909:0:0:0:0:
192,192,56747,1,0,0:0:0:60:Crash 2.wav
448,192,56747,1,0,0:0:0:0:
64,192,57071,1,2,0:0:0:0:
320,192,57071,1,4,0:0:0:0:
448,192,57071,128,0,57233:0:0:0:0:
192,192,57233,1,0,0:0:0:0:
64,192,57395,1,4,0:0:0:0:
320,192,57395,128,2,57558:0:0:0:0:
448,192,57395,1,0,0:0:0:0:
64,192,57558,1,2,0:0:0:0:
192,192,57558,1,4,0:0:0:0:
320,192,57720,1,8,0:0:0:0:
448,192,57720,1,0,0:0:0:0:
64,192,57882,1,2,0:0:0:0:
192,192,57882,1,8,0:0:0:0:
448,192,57882,1,4,0:0:0:0:
192,192,58044,1,8,0:0:0:0:
320,192,58044,1,0,0:0:0:0:
64,192,58206,1,10,0:0:0:0:
320,192,58206,1,4,0:0:0:0:
64,192,58368,1,8,0:0:0:0:
448,192,58368,1,0,0:0:0:0:
192,192,58531,1,2,0:0:0:0:
320,192,58531,1,8,0:0:0:0:
448,192,58531,1,4,0:0:0:0:
64,192,58693,1,8,0:0:0:0:
192,192,58693,1,0,0:0:0:0:
64,192,58855,1,10,0:0:0:0:
448,192,58855,1,4,0:0:0:0:
320,192,59017,1,8,0:0:0:0:
448,192,59017,1,0,0:0:0:0:
64,192,59179,1,2,0:0:0:0:
192,192,59179,1,8,0:0:0:0:
320,192,59179,1,4,0:0:0:0:
64,192,59341,1,8,0:0:0:0:
448,192,59341,1,0,0:0:0:0:
192,192,59504,1,2,0:0:0:0:
448,192,59504,1,4,0:0:0:0:
64,192,59666,1,2,0:0:0:0:
320,192,59666,1,0,0:0:0:0:
64,192,59828,1,8,0:0:0:0:
192,192,59828,1,2,0:0:0:0:
448,192,59828,1,4,0:0:0:0:
320,192,59990,1,2,0:0:0:0:
448,192,59990,1,0,0:0:0:0:
64,192,60152,1,2,0:0:0:0:
192,192,60152,1,4,0:0:0:0:
320,192,60233,1,2,0:0:0:0:
448,192,60233,1,0,0:0:0:0:
64,192,60314,1,2,0:0:0:0:
192,192,60314,1,0,0:0:0:0:
320,192,60395,1,2,0:0:0:0:
64,192,60476,1,2,0:0:0:0:
448,192,60476,1,4,0:0:0:0:
320,192,60558,1,2,0:0:0:0:
192,192,60558,1,0,0:0:0:0:
64,192,60639,1,2,0:0:0:0:
448,192,60639,1,0,0:0:0:0:
192,192,60720,1,2,0:0:0:0:
448,192,60801,1,2,0:0:0:0:
320,192,60801,1,4,0:0:0:0:
192,192,60882,1,2,0:0:0:0:
64,192,60882,1,0,0:0:0:0:
448,192,60963,1,2,0:0:0:0:
320,192,60963,1,0,0:0:0:0:
192,192,61044,1,2,0:0:0:0:
64,192,61125,1,2,0:0:0:0:
448,192,61125,1,4,0:0:0:0:
320,192,61206,1,2,0:0:0:0:
192,192,61206,1,0,0:0:0:0:
64,192,61287,1,2,0:0:0:0:
448,192,61287,1,0,0:0:0:0:
320,192,61368,1,2,0:0:0:0:
64,192,61449,1,2,0:0:0:0:
192,192,61449,1,4,0:0:0:0:
320,192,61531,1,2,0:0:0:0:
448,192,61531,1,0,0:0:0:0:
64,192,61612,1,2,0:0:0:0:
192,192,61612,1,0,0:0:0:0:
320,192,61693,1,2,0:0:0:0:
64,192,61774,1,2,0:0:0:0:
448,192,61774,1,4,0:0:0:0:
320,192,61855,1,2,0:0:0:0:
192,192,61855,1,0,0:0:0:0:
64,192,61936,1,2,0:0:0:0:
448,192,61936,1,0,0:0:0:0:
192,192,62017,1,2,0:0:0:0:
64,192,62098,1,2,0:0:0:0:
320,192,62098,1,4,0:0:0:0:
448,192,62098,1,0,0:0:0:0:
320,192,62260,1,2,0:0:0:0:
192,192,62260,1,4,0:0:0:0:
64,192,62422,1,2,0:0:0:0:
192,192,62422,1,0,0:0:0:0:
320,192,62504,1,2,0:0:0:0:
448,192,62504,1,0,0:0:0:0:
64,192,62585,1,2,0:0:0:0:
192,192,62585,1,0,0:0:0:0:
320,192,62666,1,2,0:0:0:0:
448,192,62666,1,0,0:0:0:0:
64,192,62747,128,0,63639:0:0:0:0:
192,192,62747,1,0,0:0:0:0:
192,192,63071,128,0,63720:0:0:0:0:
320,192,63071,1,0,0:0:0:0:
320,192,63395,128,0,63801:0:0:0:0:
448,192,63395,1,0,0:0:0:0:
64,192,63720,1,0,0:0:0:0:
448,192,63720,128,0,63882:0:0:0:0:
192,192,63801,1,0,0:0:0:0:
320,192,63882,1,0,0:0:0:0:
448,192,63963,1,0,0:0:0:0:
64,192,64044,1,0,0:0:0:0:
192,192,64085,1,0,0:0:0:0:
448,192,64125,1,0,0:0:0:0:
320,192,64166,1,0,0:0:0:0:
64,192,64206,1,0,0:0:0:0:
192,192,64247,1,0,0:0:0:0:
448,192,64287,1,0,0:0:0:0:
320,192,64328,1,0,0:0:0:0:
64,192,64368,1,0,0:0:0:0:
448,192,64449,1,0,0:0:0:0:
192,192,64531,1,0,0:0:0:0:
320,192,64612,1,0,0:0:0:0:
64,192,64693,1,0,0:0:0:0:
192,192,64693,1,0,0:0:0:0:
448,192,64774,1,0,0:0:0:0:
64,192,64855,1,0,0:0:0:0:
320,192,65017,1,0,0:0:0:0:
64,192,65179,1,4,0:0:0:0:
192,192,65179,1,2,0:0:0:0:
448,192,65179,128,0,65504:0:0:0:0:
64,192,65504,1,2,0:0:0:0:
192,192,65504,1,0,0:0:0:0:
64,192,65666,128,2,65828:0:0:0:0:
192,192,65666,1,8,0:0:0:0:
320,192,65666,1,0,0:0:0:0:
448,192,65828,1,0,0:0:0:0:
64,192,65990,1,2,0:0:0:0:
320,192,65990,128,0,66152:0:0:0:0:
192,192,66152,128,0,66314:0:0:0:0:
64,192,66314,1,2,0:0:0:0:
320,192,66314,1,8,0:0:0:0:
448,192,66314,1,0,0:0:0:0:
192,192,66476,1,0,0:0:0:0:
448,192,66476,128,0,66639:0:0:0:0:
64,192,66639,1,2,0:0:0:0:
320,192,66639,1,0,0:0:0:0:
64,192,66801,128,0,66963:0:0:0:0:
192,192,66963,1,2,0:0:0:0:
320,192,66963,1,8,0:0:0:0:
448,192,66963,1,0,0:0:0:0:
448,192,67125,128,0,67287:0:0:0:0:
64,192,67287,1,2,0:0:0:0:
320,192,67287,128,0,67449:0:0:0:0:
192,192,67449,1,0,0:0:0:0:
64,192,67612,128,2,67774:0:0:0:0:
320,192,67612,1,8,0:0:0:0:
448,192,67612,1,0,0:0:0:0:
192,192,67774,128,0,68098:0:0:0:0:
64,192,67936,1,2,0:0:0:0:
320,192,67936,1,4,0:0:0:0:
448,192,67936,1,0,0:0:0:0:
320,192,68098,1,0,0:0:0:0:
64,192,68260,1,2,0:0:0:0:
192,192,68260,1,8,0:0:0:0:
448,192,68260,128,0,68422:0:0:0:0:
320,192,68422,1,0,0:0:0:0:
64,192,68585,128,2,68747:0:0:0:0:
192,192,68585,1,0,0:0:0:0:
320,192,68747,128,0,68909:0:0:0:0:
64,192,68909,1,2,0:0:0:0:
192,192,68909,1,8,0:0:0:0:
448,192,68909,1,0,0:0:0:0:
192,192,69071,128,0,69233:0:0:0:0:
64,192,69233,1,2,0:0:0:0:
320,192,69233,1,4,0:0:0:0:
448,192,69233,1,0,0:0:0:0:
64,192,69395,1,2,0:0:0:0:
192,192,69395,1,0,0:0:0:0:
320,192,69476,1,2,0:0:0:0:
448,192,69476,1,0,0:0:0:0:
64,192,69558,1,2,0:0:0:0:
192,192,69558,1,0,0:0:0:0:
64,192,69720,1,2,0:0:0:0:
320,192,69720,128,0,69882:0:0:0:60:Crash 2.wav
448,192,69720,1,0,0:0:0:0:
192,192,69882,128,0,70044:0:0:0:0:
64,192,70044,1,2,0:0:0:0:
320,192,70044,1,4,0:0:0:0:
448,192,70044,1,0,0:0:0:0:
64,192,70206,1,2,0:0:0:0:
448,192,70206,1,0,0:0:0:0:
192,192,70287,1,2,0:0:0:0:
320,192,70287,1,0,0:0:0:0:
64,192,70368,1,2,0:0:0:0:
448,192,70368,1,0,0:0:0:0:
320,192,70449,1,2,0:0:0:0:
64,192,70531,1,2,0:0:0:0:
192,192,70531,128,4,70693:0:0:0:0:
448,192,70531,1,0,0:0:0:0:
320,192,70693,1,0,0:0:0:0:
64,192,70855,1,2,0:0:0:0:
192,192,70855,1,8,0:0:0:0:
448,192,70855,128,0,71017:0:0:0:0:
320,192,71017,1,0,0:0:0:0:
64,192,71179,128,2,71341:0:0:0:0:
192,192,71179,1,0,0:0:0:0:
320,192,71341,128,0,71504:0:0:0:0:
64,192,71504,1,2,0:0:0:0:
192,192,71504,1,8,0:0:0:0:
448,192,71504,1,0,0:0:0:0:
192,192,71666,128,0,71828:0:0:0:0:
64,192,71828,1,2,0:0:0:0:
320,192,71828,1,0,0:0:0:0:
448,192,71990,128,0,72152:0:0:0:0:
64,192,72152,1,2,0:0:0:0:
192,192,72152,1,8,0:0:0:0:
320,192,72152,1,0,0:0:0:0:
64,192,72314,128,0,72476:0:0:0:0:
192,192,72476,128,2,72639:0:0:0:0:
448,192,72476,1,0,0:0:0:0:
320,192,72639,1,0,0:0:0:0:
64,192,72801,1,2,0:0:0:0:
448,192,72801,1,8,0:0:0:0:
192,192,72882,1,2,0:0:0:0:
320,192,72882,1,0,0:0:0:0:
64,192,72963,1,2,0:0:0:0:
448,192,72963,1,0,0:0:0:0:
192,192,73044,1,2,0:0:0:0:
64,192,73125,128,2,73287:0:0:0:0:
320,192,73125,1,0,0:0:0:60:Crash 2.wav
448,192,73125,1,0,0:0:0:0:
192,192,73287,1,0,0:0:0:0:
320,192,73449,128,0,73612:0:0:0:0:
64,192,73612,1,2,0:0:0:0:
192,192,73612,1,4,0:0:0:0:
448,192,73612,1,0,0:0:0:0:
448,192,73774,128,0,73936:0:0:0:0:
64,192,73936,1,4,0:0:0:0:
192,192,73936,128,2,74098:0:0:0:0:
320,192,73936,1,0,0:0:0:0:
320,192,74098,1,2,0:0:0:0:
448,192,74098,1,0,0:0:0:0:
64,192,74179,1,2,0:0:0:0:
192,192,74179,1,0,0:0:0:0:
320,192,74260,1,2,0:0:0:0:
448,192,74260,1,0,0:0:0:0:
192,192,74341,1,2,0:0:0:0:
64,192,74422,1,2,0:0:0:0:
320,192,74422,1,4,0:0:0:0:
448,192,74422,1,0,0:0:0:0:
192,192,74585,128,0,74747:0:0:0:0:
320,192,74747,1,0,0:0:0:0:
64,192,74909,1,4,0:0:0:0:
192,192,74909,1,2,0:0:0:0:
448,192,74909,128,0,75071:0:0:0:0:
320,192,75071,128,0,75233:0:0:0:0:
64,192,75233,1,4,0:0:0:0:
448,192,75233,1,2,0:0:0:0:
192,192,75287,1,0,0:0:0:0:
320,192,75341,1,0,0:0:0:0:
64,192,75395,128,2,75558:0:0:0:0:
448,192,75395,1,4,0:0:0:0:
192,192,75558,1,2,0:0:0:0:
320,192,75558,1,0,0:0:0:0:
448,192,75639,1,2,0:0:0:0:
64,192,75720,1,2,0:0:0:0:
192,192,75720,1,4,0:0:0:0:
320,192,75720,128,0,75882:0:0:0:0:
448,192,75882,1,0,0:0:0:0:
64,192,76044,1,2,0:0:0:0:
192,192,76044,1,8,0:0:0:0:
448,192,76044,128,0,76206:0:0:0:0:
320,192,76206,1,0,0:0:0:0:
64,192,76368,1,2,0:0:0:0:
192,192,76368,128,0,76531:0:0:0:0:
320,192,76531,128,0,76693:0:0:0:0:
64,192,76693,1,2,0:0:0:0:
192,192,76693,1,8,0:0:0:0:
448,192,76693,1,0,0:0:0:0:
64,192,76855,128,0,77017:0:0:0:0:
320,192,76855,1,0,0:0:0:0:
192,192,77017,1,2,0:0:0:0:
448,192,77017,1,0,0:0:0:0:
448,192,77179,128,0,77341:0:0:0:0:
64,192,77341,1,2,0:0:0:0:
192,192,77341,1,8,0:0:0:0:
320,192,77341,1,0,0:0:0:0:
64,192,77504,128,0,77666:0:0:0:0:
192,192,77666,128,2,77828:0:0:0:0:
448,192,77666,1,0,0:0:0:0:
320,192,77828,1,0,0:0:0:0:
64,192,77990,1,8,0:0:0:0:
192,192,77990,1,2,0:0:0:0:
448,192,77990,128,0,78152:0:0:0:0:
320,192,78152,128,0,78476:0:0:0:0:
64,192,78314,1,4,0:0:0:0:
192,192,78314,1,2,0:0:0:0:
448,192,78314,1,0,0:0:0:0:
192,192,78476,1,0,0:0:0:0:
64,192,78639,128,8,78801:0:0:0:0:
320,192,78639,1,2,0:0:0:0:
448,192,78639,1,0,0:0:0:0:
192,192,78801,1,0,0:0:0:0:
320,192,78963,1,2,0:0:0:0:
448,192,78963,128,0,79125:0:0:0:0:
192,192,79125,128,0,79287:0:0:0:0:
64,192,79287,1,2,0:0:0:0:
320,192,79287,1,8,0:0:0:0:
448,192,79287,1,0,0:0:0:0:
64,192,79449,128,0,79612:0:0:0:0:
192,192,79612,1,2,0:0:0:0:
320,192,79612,1,0,0:0:0:60:Crash 2.wav
448,192,79612,1,0,0:0:0:0:
320,192,79774,128,0,79936:0:0:0:0:
64,192,80098,1,2,0:0:0:0:
192,192,80098,128,4,80260:0:0:0:0:
448,192,80098,1,0,0:0:0:0:
320,192,80260,128,0,80422:0:0:0:0:
64,192,80422,1,4,0:0:0:0:
192,192,80422,1,2,0:0:0:0:
448,192,80422,1,0,0:0:0:0:
64,192,80585,1,2,0:0:0:0:
448,192,80585,1,0,0:0:0:0:
192,192,80666,1,2,0:0:0:0:
320,192,80666,1,0,0:0:0:0:
64,192,80747,1,2,0:0:0:0:
448,192,80747,1,0,0:0:0:0:
192,192,80828,1,2,0:0:0:0:
64,192,80909,1,2,0:0:0:0:
320,192,80909,128,4,81071:0:0:0:0:
448,192,80909,1,0,0:0:0:0:
192,192,81071,1,0,0:0:0:0:
64,192,81233,128,2,81395:0:0:0:0:
320,192,81233,1,8,0:0:0:0:
448,192,81233,1,0,0:0:0:0:
192,192,81395,1,0,0:0:0:0:
320,192,81558,1,2,0:0:0:0:
448,192,81558,128,0,81720:0:0:0:0:
192,192,81720,128,0,81882:0:0:0:0:
64,192,81882,1,2,0:0:0:0:
320,192,81882,1,8,0:0:0:0:
448,192,81882,1,0,0:0:0:0:
320,192,82044,128,0,82206:0:0:0:0:
192,192,82206,1,2,0:0:0:0:
448,192,82206,1,0,0:0:0:0:
64,192,82368,128,0,82531:0:0:0:0:
192,192,82531,1,2,0:0:0:0:
320,192,82531,1,8,0:0:0:0:
448,192,82531,1,0,0:0:0:0:
448,192,82693,128,0,82855:0:0:0:0:
64,192,82855,1,2,0:0:0:0:
320,192,82855,128,0,83017:0:0:0:0:
192,192,83017,1,0,0:0:0:0:
64,192,83179,1,2,0:0:0:0:
448,192,83179,1,0,0:0:0:0:
192,192,83260,1,2,0:0:0:0:
320,192,83260,1,0,0:0:0:0:
64,192,83341,1,2,0:0:0:0:
448,192,83341,1,0,0:0:0:0:
320,192,83422,1,2,0:0:0:0:
64,192,83504,1,2,0:0:0:0:
192,192,83504,1,0,0:0:0:60:Crash 2.wav
448,192,83504,128,0,83666:0:0:0:0:
320,192,83666,1,0,0:0:0:0:
192,192,83828,128,0,83990:0:0:0:0:
64,192,83990,1,2,0:0:0:0:
320,192,83990,1,4,0:0:0:0:
448,192,83990,1,0,0:0:0:0:
64,192,84152,128,0,84314:0:0:0:0:
192,192,84314,1,4,0:0:0:0:
320,192,84314,1,2,0:0:0:0:
448,192,84314,128,0,84476:0:0:0:0:
64,192,84476,1,2,0:0:0:0:
192,192,84476,1,0,0:0:0:0:
320,192,84558,1,2,0:0:0:0:
448,192,84558,1,0,0:0:0:0:
64,192,84639,1,2,0:0:0:0:
192,192,84639,1,0,0:0:0:0:
320,192,84720,1,2,0:0:0:0:
64,192,84801,1,2,0:0:0:0:
192,192,84801,1,4,0:0:0:0:
448,192,84801,1,0,0:0:0:0:
320,192,84963,128,0,85125:0:0:0:0:
448,192,85125,1,0,0:0:0:0:
64,192,85287,1,4,0:0:0:0:
192,192,85287,128,2,85612:0:0:0:0:
320,192,85287,1,0,0:0:0:0:
448,192,85449,1,0,0:0:0:0:
64,192,85612,1,4,0:0:0:0:
320,192,85612,1,2,0:0:0:0:
448,192,85612,128,0,85774:0:0:0:0:
64,192,85774,1,2,0:0:0:0:
192,192,85774,1,0,0:0:0:0:
320,192,85855,1,2,0:0:0:0:
448,192,85855,1,0,0:0:0:0:
64,192,85936,1,2,0:0:0:0:
192,192,85936,1,0,0:0:0:0:
448,192,86017,1,2,0:0:0:0:
64,192,86098,128,2,87071:0:0:0:0:
192,192,86098,128,4,86747:0:0:0:0:
320,192,86098,128,0,86422:0:0:0:0:
448,192,86260,1,2,0:0:0:0:
448,192,86422,1,6,0:0:0:0:
320,192,86585,1,2,0:0:0:0:
320,192,86747,1,6,0:0:0:0:
448,192,86828,1,2,0:0:0:0:
320,192,86909,1,2,0:0:0:0:
192,192,86990,1,2,0:0:0:0:
320,192,87071,1,10,0:0:0:0:
448,192,87071,1,4,0:0:0:0:
64,192,87152,1,2,0:0:0:0:
192,192,87152,1,0,0:0:0:0:
320,192,87233,1,2,0:0:0:0:
448,192,87233,1,0,0:0:0:0:
192,192,87314,1,2,0:0:0:0:
64,192,87395,1,2,0:0:0:0:
320,192,87395,1,4,0:0:0:0:
448,192,87395,128,0,89341:0:0:0:0:
192,192,87558,1,0,0:0:0:0:
64,192,87720,1,2,0:0:0:0:
192,192,87720,1,8,0:0:0:0:
320,192,87882,1,0,0:0:0:0:
64,192,88044,1,2,0:0:0:0:
192,192,88044,1,0,0:0:0:0:
320,192,88206,1,0,0:0:0:0:
64,192,88287,1,0,0:0:0:0:
192,192,88368,1,2,0:0:0:0:
320,192,88368,1,8,0:0:0:0:
64,192,88531,1,0,0:0:0:0:
192,192,88693,1,2,0:0:0:0:
320,192,88693,1,0,0:0:0:0:
64,192,88855,1,0,0:0:0:0:
64,192,89017,1,2,0:0:0:0:
192,192,89017,1,8,0:0:0:0:
320,192,89179,1,0,0:0:0:0:
64,192,89341,1,2,0:0:0:0:
192,192,89341,1,0,0:0:0:0:
320,192,89422,1,0,0:0:0:0:
448,192,89504,1,0,0:0:0:0:
192,192,89585,1,0,0:0:0:0:
64,192,89666,128,2,89828:0:0:0:0:
320,192,89666,1,8,0:0:0:0:
448,192,89747,1,0,0:0:0:0:
192,192,89828,128,0,90152:0:0:0:0:
320,192,89909,1,0,0:0:0:0:
64,192,89990,1,2,0:0:0:0:
448,192,89990,1,0,0:0:0:0:
320,192,90152,128,0,90314:0:0:0:0:
64,192,90314,1,2,0:0:0:0:
448,192,90314,128,8,91936:0:0:0:0:
192,192,90476,1,0,0:0:0:0:
64,192,90639,1,2,0:0:0:0:
320,192,90639,1,0,0:0:0:0:
192,192,90801,1,0,0:0:0:0:
320,192,90882,1,0,0:0:0:0:
64,192,90963,1,2,0:0:0:0:
192,192,90963,1,8,0:0:0:0:
320,192,91125,1,0,0:0:0:0:
64,192,91287,1,2,0:0:0:0:
192,192,91287,1,4,0:0:0:0:
320,192,91287,1,0,0:0:0:0:
192,192,91449,1,0,0:0:0:0:
192,192,91612,1,0,0:0:0:0:
64,192,91774,1,2,0:0:0:0:
192,192,91774,1,4,0:0:0:0:
320,192,91774,1,0,0:0:0:0:
64,192,91936,1,0,0:0:0:0:
192,192,92017,1,0,0:0:0:0:
64,192,92098,1,2,0:0:0:0:
320,192,92098,1,4,0:0:0:0:
448,192,92098,1,0,0:0:0:0:
192,192,92179,1,0,0:0:0:0:
320,192,92260,1,2,0:0:0:0:
448,192,92260,1,8,0:0:0:0:
64,192,92341,1,2,0:0:0:0:
192,192,92341,1,0,0:0:0:0:
320,192,92422,1,2,0:0:0:0:
448,192,92422,1,0,0:0:0:0:
192,192,92504,1,2,0:0:0:0:
64,192,92585,1,2,0:0:0:0:
320,192,92585,1,4,0:0:0:0:
448,192,92585,1,0,0:0:0:0:
192,192,92747,128,0,92909:0:0:0:0:
64,192,92909,128,2,94855:0:0:0:0:
448,192,92909,1,8,0:0:0:0:
320,192,93071,1,0,0:0:0:0:
192,192,93233,1,2,0:0:0:0:
448,192,93233,1,0,0:0:0:0:
320,192,93395,1,0,0:0:0:0:
448,192,93476,1,0,0:0:0:0:
192,192,93558,1,2,0:0:0:0:
320,192,93558,1,8,0:0:0:0:
448,192,93720,1,0,0:0:0:0:
192,192,93882,1,2,0:0:0:0:
320,192,93882,1,0,0:0:0:0:
448,192,94044,1,0,0:0:0:0:
192,192,94206,1,2,0:0:0:0:
448,192,94206,1,8,0:0:0:0:
320,192,94368,1,0,0:0:0:0:
192,192,94531,1,2,0:0:0:0:
448,192,94531,1,0,0:0:0:0:
320,192,94612,1,0,0:0:0:0:
448,192,94693,1,0,0:0:0:0:
192,192,94774,1,0,0:0:0:0:
320,192,94855,1,2,0:0:0:0:
448,192,94855,1,8,0:0:0:0:
64,192,94936,1,2,0:0:0:0:
192,192,94936,1,0,0:0:0:0:
320,192,95017,1,2,0:0:0:0:
448,192,95017,1,0,0:0:0:0:
64,192,95098,1,2,0:0:0:0:
192,192,95179,1,2,0:0:0:0:
320,192,95179,1,0,0:0:0:60:Crash 2.wav
448,192,95179,128,0,95341:0:0:0:0:
64,192,95341,1,0,0:0:0:0:
192,192,95504,128,0,95666:0:0:0:0:
64,192,95666,1,4,0:0:0:0:
320,192,95666,128,2,95990:0:0:0:0:
448,192,95666,1,0,0:0:0:0:
64,192,95990,1,2,0:0:0:0:
192,192,95990,1,4,0:0:0:0:
448,192,95990,1,0,0:0:0:0:
320,192,96152,1,2,0:0:0:0:
448,192,96152,1,8,0:0:0:0:
64,192,96233,1,2,0:0:0:0:
192,192,96233,1,0,0:0:0:0:
320,192,96314,1,2,0:0:0:0:
448,192,96314,1,0,0:0:0:0:
192,192,96395,1,2,0:0:0:0:
64,192,96476,128,2,96639:0:0:0:0:
320,192,96476,1,4,0:0:0:0:
448,192,96476,1,0,0:0:0:0:
192,192,96639,1,0,0:0:0:0:
320,192,96801,128,0,96963:0:0:0:0:
64,192,96963,1,4,0:0:0:0:
192,192,96963,128,2,97287:0:0:0:0:
448,192,96963,1,0,0:0:0:0:
64,192,97287,1,4,0:0:0:0:
320,192,97287,1,2,0:0:0:0:
448,192,97287,1,0,0:0:0:0:
64,192,97449,1,2,0:0:0:0:
192,192,97449,1,8,0:0:0:0:
320,192,97531,1,2,0:0:0:0:
448,192,97531,1,0,0:0:0:0:
64,192,97612,1,2,0:0:0:0:
192,192,97612,1,0,0:0:0:0:
320,192,97693,1,2,0:0:0:0:
64,192,97774,128,2,99720:0:0:0:0:
192,192,97774,1,4,0:0:0:0:
448,192,97774,1,0,0:0:0:0:
320,192,97936,1,0,0:0:0:0:
320,192,98098,1,2,0:0:0:0:
448,192,98098,1,8,0:0:0:0:
192,192,98260,1,0,0:0:0:0:
320,192,98422,1,2,0:0:0:0:
448,192,98422,1,0,0:0:0:0:
192,192,98585,1,0,0:0:0:0:
448,192,98666,1,0,0:0:0:0:
192,192,98747,1,2,0:0:0:0:
320,192,98747,1,8,0:0:0:0:
448,192,98909,1,0,0:0:0:0:
192,192,99071,1,2,0:0:0:0:
320,192,99071,1,0,0:0:0:0:
448,192,99233,1,0,0:0:0:0:
320,192,99395,1,2,0:0:0:0:
448,192,99395,1,8,0:0:0:0:
192,192,99558,1,0,0:0:0:0:
320,192,99720,1,2,0:0:0:0:
448,192,99720,1,0,0:0:0:0:
192,192,99801,1,0,0:0:0:0:
64,192,99882,1,0,0:0:0:0:
320,192,99963,1,0,0:0:0:0:
192,192,100044,1,2,0:0:0:0:
448,192,100044,128,8,100206:0:0:0:0:
64,192,100125,1,0,0:0:0:0:
320,192,100206,128,0,100531:0:0:0:0:
192,192,100287,1,0,0:0:0:0:
64,192,100368,1,2,0:0:0:0:
448,192,100368,1,0,0:0:0:0:
192,192,100531,128,0,100693:0:0:0:0:
64,192,100693,128,2,102314:0:0:0:0:
448,192,100693,1,8,0:0:0:0:
320,192,100855,1,0,0:0:0:0:
192,192,101017,1,2,0:0:0:0:
448,192,101017,1,0,0:0:0:0:
320,192,101179,1,0,0:0:0:0:
192,192,101260,1,0,0:0:0:0:
320,192,101341,1,2,0:0:0:0:
448,192,101341,1,8,0:0:0:0:
192,192,101504,1,0,0:0:0:0:
192,192,101666,1,2,0:0:0:0:
320,192,101666,1,0,0:0:0:60:Crash 2.wav
448,192,101666,1,0,0:0:0:0:
320,192,101828,1,0,0:0:0:0:
320,192,101990,1,0,0:0:0:0:
192,192,102152,1,2,0:0:0:0:
320,192,102152,1,4,0:0:0:0:
448,192,102152,1,0,0:0:0:0:
448,192,102314,1,0,0:0:0:0:
320,192,102395,1,0,0:0:0:0:
64,192,102476,1,2,0:0:0:0:
192,192,102476,1,4,0:0:0:0:
448,192,102476,1,0,0:0:0:0:
320,192,102558,1,0,0:0:0:0:
64,192,102639,1,2,0:0:0:0:
192,192,102639,1,8,0:0:0:0:
320,192,102720,1,2,0:0:0:0:
448,192,102720,1,0,0:0:0:0:
64,192,102801,1,2,0:0:0:0:
192,192,102801,1,0,0:0:0:0:
320,192,102882,1,2,0:0:0:0:
64,192,102963,1,2,0:0:0:0:
192,192,102963,1,4,0:0:0:0:
448,192,102963,1,0,0:0:0:0:
320,192,103125,128,0,103287:0:0:0:0:
64,192,103287,1,2,0:0:0:0:
448,192,103287,128,8,105233:0:0:0:0:
192,192,103449,1,0,0:0:0:0:
64,192,103612,1,2,0:0:0:0:
320,192,103612,1,0,0:0:0:0:
192,192,103774,1,0,0:0:0:0:
64,192,103855,1,0,0:0:0:0:
192,192,103936,1,2,0:0:0:0:
320,192,103936,1,8,0:0:0:0:
64,192,104098,1,0,0:0:0:0:
192,192,104260,1,2,0:0:0:0:
320,192,104260,1,0,0:0:0:0:
64,192,104422,1,0,0:0:0:0:
64,192,104585,1,2,0:0:0:0:
320,192,104585,1,8,0:0:0:0:
192,192,104747,1,0,0:0:0:0:
64,192,104909,1,2,0:0:0:0:
320,192,104909,1,0,0:0:0:0:
192,192,104990,1,0,0:0:0:0:
64,192,105071,1,0,0:0:0:0:
320,192,105152,1,0,0:0:0:0:
64,192,105233,1,2,0:0:0:0:
192,192,105233,1,8,0:0:0:0:
320,192,105314,1,2,0:0:0:0:
448,192,105314,1,0,0:0:0:0:
64,192,105395,1,2,0:0:0:0:
192,192,105395,1,0,0:0:0:0:
448,192,105476,1,2,0:0:0:0:
64,192,105558,128,2,105720:0:0:0:0:
192,192,105558,1,0,0:0:0:60:Crash 2.wav
320,192,105558,1,0,0:0:0:0:
448,192,105720,1,0,0:0:0:0:
320,192,105882,128,0,106044:0:0:0:0:
64,192,106044,1,4,0:0:0:0:
192,192,106044,128,2,106368:0:0:0:0:
448,192,106044,1,0,0:0:0:0:
64,192,106368,1,2,0:0:0:0:
320,192,106368,1,4,0:0:0:0:
448,192,106368,1,0,0:0:0:0:
64,192,106531,1,2,0:0:0:0:
192,192,106531,1,8,0:0:0:0:
320,192,106612,1,2,0:0:0:0:
448,192,106612,1,0,0:0:0:0:
64,192,106693,1,2,0:0:0:0:
192,192,106693,1,0,0:0:0:0:
320,192,106774,1,2,0:0:0:0:
64,192,106855,1,2,0:0:0:0:
192,192,106855,1,0,0:0:0:60:Crash 2.wav
448,192,106855,128,0,107017:0:0:0:0:
320,192,107017,1,0,0:0:0:0:
192,192,107179,128,0,107341:0:0:0:0:
64,192,107341,1,4,0:0:0:0:
320,192,107341,128,2,107666:0:0:0:0:
448,192,107341,1,0,0:0:0:0:
64,192,107666,1,2,0:0:0:0:
192,192,107666,1,4,0:0:0:0:
448,192,107666,1,0,0:0:0:0:
320,192,107828,1,2,0:0:0:0:
448,192,107828,1,8,0:0:0:0:
64,192,107909,1,2,0:0:0:0:
192,192,107909,1,0,0:0:0:0:
320,192,107990,1,2,0:0:0:0:
448,192,107990,1,0,0:0:0:0:
192,192,108071,1,2,0:0:0:0:
64,192,108152,1,2,0:0:0:0:
320,192,108152,1,0,0:0:0:60:Crash 2.wav
448,192,108152,1,0,0:0:0:0:
64,192,108476,1,2,0:0:0:0:
320,192,108476,1,0,0:0:0:60:Crash 2.wav
448,192,108476,1,0,0:0:0:0:
64,192,108639,1,2,0:0:0:0:
192,192,108639,1,0,0:0:0:60:Crash 2.wav
448,192,108639,1,0,0:0:0:0:
64,192,108963,1,2,0:0:0:0:
192,192,108963,1,0,0:0:0:60:Crash 2.wav
448,192,108963,1,0,0:0:0:0:
64,192,109287,128,2,110260:0:0:0:0:
192,192,109287,128,4,110260:0:0:0:0:
320,192,109287,128,0,110260:0:0:0:0:
448,192,109287,128,0,113341:0:0:0:0:
64,192,113341,128,0,114152:0:0:0:0:
192,192,113666,128,0,114152:0:0:0:0:
