osu file format v14

[General]
AudioFilename: audio.mp3
AudioLeadIn: 0
PreviewTime: 115053
Countdown: 0
SampleSet: Soft
StackLeniency: 0.7
Mode: 3
LetterboxInBreaks: 0
SpecialStyle: 0
WidescreenStoryboard: 0

[Editor]
DistanceSpacing: 1.5
BeatDivisor: 4
GridSize: 4
TimelineZoom: 2.299998

[Metadata]
Title:YELL!
TitleUnicode:YELL!
Artist:DJ Genki VS Camellia feat. moimoi
ArtistUnicode:DJ Genki VS かめりあ feat. moimoi
Creator:Maxus
Version:Colorful Smile
Source:
Tags:mayumi morinaga senya happy hardcore revolution of happy? #01 comic market コミックマーケット 91 cametek
BeatmapID:1252228
BeatmapSetID:591786

[Difficulty]
HPDrainRate:8.7
CircleSize:4
OverallDifficulty:7.8
ApproachRate:5
SliderMultiplier:1.4
SliderTickRate:1

[Events]
//Background and Video events
0,0,"Yell! BG.png",0,0
//Break Periods
//Storyboard Layer 0 (Background)
//Storyboard Layer 1 (Fail)
//Storyboard Layer 2 (Pass)
//Storyboard Layer 3 (Foreground)
//Storyboard Sound Samples

[TimingPoints]
3171,352.941176470588,4,2,1,30,1,0
23641,-90.9090909090909,4,2,1,30,0,0
24347,-83.3333333333333,4,2,1,30,0,0
24700,-71.4285714285714,4,2,1,30,0,0
25053,-62.5,4,2,1,30,0,0
25229,-74.0740740740741,4,2,1,30,0,0
25406,-90.9090909090909,4,2,1,30,0,0
25670,-111.111111111111,4,2,1,30,0,0
25759,-133.333333333333,4,2,1,20,0,0
37053,-125,4,2,1,25,0,0
45523,-117.647058823529,4,2,1,30,0,0
47994,-166.666666666667,4,2,1,30,0,0
48170,-71.4285714285714,4,2,1,30,0,0
48347,-111.111111111111,4,2,1,30,0,0
59641,-100,4,2,1,30,0,0
69523,-95.2380952380952,4,2,1,30,0,0
69876,-90.9090909090909,4,2,1,30,0,0
70229,-83.3333333333333,4,2,1,30,0,0
70318,-125,4,2,1,30,0,0
70406,-83.3333333333333,4,2,1,30,0,0
70494,-125,4,2,1,30,0,0
70582,-83.3333333333333,4,2,1,30,0,0
70759,-125,4,2,1,30,0,0
70935,-100,4,2,1,30,0,0
93523,-100,4,2,1,30,0,1
114523,-66.6666666666667,4,2,1,30,0,1
114700,-200,4,2,1,30,0,1
114876,-100,4,2,1,30,0,1
115759,-71.4285714285714,4,2,1,30,0,0
115847,-83.3333333333333,4,2,1,30,0,0
115935,-166.666666666667,4,2,1,30,0,0
116023,-125,4,2,1,30,0,0
116112,-100,4,2,1,30,0,1
134112,-83.3333333333333,4,2,1,30,0,1
134288,-125,4,2,1,30,0,1
134465,-100,4,2,1,30,0,1
137994,-90.9090909090909,4,2,1,30,0,1
138347,-100,4,2,1,30,0,1
138700,-100,4,2,1,30,0,0
148229,-90.9090909090909,4,2,1,30,0,0
148318,-95.2380952380952,4,2,1,30,0,0
148406,-100,4,2,1,30,0,0
172582,-76.9230769230769,4,2,1,30,0,0
172759,-142.857142857143,4,2,1,30,0,0
172935,-100,4,2,1,30,0,0
182818,-90.9090909090909,4,2,1,30,0,0
183170,-80,4,2,1,30,0,0
183523,-71.4285714285714,4,2,1,30,0,0
183876,-133.333333333333,4,2,1,20,0,0
195170,-111.111111111111,4,2,1,25,0,0
205759,-105.263157894737,4,2,1,30,0,0
206465,-100,4,2,1,30,0,0
229053,-100,4,2,1,30,0,1
248818,-66.6666666666667,4,2,1,30,0,1
248906,-200,4,2,1,30,0,1
248994,-66.6666666666667,4,2,1,30,0,1
249082,-200,4,2,1,30,0,1
249170,-66.6666666666667,4,2,1,30,0,1
249259,-200,4,2,1,30,0,1
249347,-66.6666666666667,4,2,1,30,0,1
249435,-200,4,2,1,30,0,1
249523,-52.6315789473684,4,2,1,30,0,1
249568,-1000,4,2,1,30,0,1
249612,-52.6315789473684,4,2,1,30,0,1
249656,-1000,4,2,1,30,0,1
249700,-52.6315789473684,4,2,1,30,0,1
249744,-1000,4,2,1,30,0,1
249788,-52.6315789473684,4,2,1,30,0,1
249832,-1000,4,2,1,30,0,1
249876,-52.6315789473684,4,2,1,30,0,1
249920,-1000,4,2,1,30,0,1
249965,-52.6315789473684,4,2,1,30,0,1
250009,-1000,4,2,1,30,0,1
250053,-66.6666666666667,4,2,1,30,0,0
250141,-200,4,2,1,30,0,0
250229,-100,4,2,1,30,0,0
251641,-100,4,2,1,30,0,1
269641,-83.3333333333333,4,2,1,30,0,1
269818,-125,4,2,1,30,0,1
269994,-100,4,2,1,30,0,1
274229,-100,4,2,1,30,0,0
285523,-105.263157894737,4,2,1,20,0,0
293994,-111.111111111111,4,2,1,15,0,0

[HitObjects]
192,192,700,128,0,2465:0:0:0:0:
64,192,1759,128,0,3171:0:0:0:0:
448,192,2465,128,0,3171:0:0:0:0:
192,192,3171,1,8,1:0:0:0:
320,192,3171,1,0,0:0:0:0:
64,192,3259,1,0,0:0:0:0:
448,192,3347,1,0,0:0:0:0:
192,192,3435,1,0,0:0:0:0:
320,192,3523,1,0,0:0:0:0:
64,192,3612,1,0,0:0:0:0:
192,192,3700,1,0,0:0:0:0:
320,192,3700,1,0,0:0:0:0:
448,192,3788,1,0,0:0:0:0:
64,192,3876,1,0,0:0:0:0:
192,192,3965,1,0,0:0:0:0:
448,192,4053,1,0,0:0:0:0:
320,192,4141,1,0,0:0:0:0:
192,192,4229,1,0,0:0:0:0:
64,192,4229,1,0,0:0:0:0:
448,192,4318,1,0,0:0:0:0:
64,192,4406,1,0,0:0:0:0:
192,192,4494,1,0,0:0:0:0:
448,192,4582,1,0,0:0:0:0:
320,192,4582,1,0,0:0:0:0:
64,192,4670,1,0,0:0:0:0:
320,192,4759,1,0,0:0:0:0:
192,192,4847,1,0,0:0:0:0:
448,192,4935,1,0,0:0:0:0:
192,192,5023,1,0,0:0:0:0:
448,192,5112,1,0,0:0:0:0:
320,192,5112,1,0,0:0:0:0:
64,192,5200,1,0,0:0:0:0:
192,192,5288,1,0,0:0:0:0:
320,192,5376,1,0,0:0:0:0:
64,192,5465,1,0,0:0:0:0:
448,192,5553,1,0,0:0:0:0:
320,192,5641,1,0,0:0:0:0:
192,192,5641,1,0,0:0:0:0:
64,192,5729,1,0,0:0:0:0:
448,192,5818,1,0,0:0:0:0:
320,192,5906,1,0,0:0:0:0:
64,192,5994,1,0,0:0:0:0:
192,192,5994,1,0,0:0:0:0:
448,192,6082,1,0,0:0:0:0:
192,192,6170,1,0,0:0:0:0:
320,192,6259,1,0,0:0:0:0:
448,192,6347,1,0,0:0:0:0:
448,192,6435,1,0,0:0:0:0:
64,192,6523,1,0,0:0:0:0:
192,192,6523,1,0,0:0:0:0:
64,192,6612,1,0,0:0:0:0:
192,192,6700,1,0,0:0:0:0:
320,192,6788,1,0,0:0:0:0:
448,192,6876,1,0,0:0:0:0:
64,192,6965,1,0,0:0:0:0:
192,192,7053,1,0,0:0:0:0:
320,192,7053,1,0,0:0:0:0:
448,192,7141,1,0,0:0:0:0:
192,192,7229,1,0,0:0:0:0:
320,192,7318,1,0,0:0:0:0:
448,192,7406,1,0,0:0:0:0:
64,192,7406,1,0,0:0:0:0:
192,192,7494,1,0,0:0:0:0:
320,192,7582,1,0,0:0:0:0:
64,192,7670,1,0,0:0:0:0:
448,192,7759,1,0,0:0:0:0:
320,192,7847,1,0,0:0:0:0:
448,192,7935,1,0,0:0:0:0:
192,192,7935,1,0,0:0:0:0:
64,192,8023,1,0,0:0:0:0:
192,192,8112,1,0,0:0:0:0:
320,192,8200,1,0,0:0:0:0:
64,192,8288,128,0,8465:0:0:0:0:
448,192,8288,1,0,0:0:0:0:
192,192,8376,1,0,0:0:0:0:
448,192,8465,1,0,0:0:0:0:
320,192,8465,1,0,0:0:0:0:
192,192,8553,1,0,0:0:0:0:
64,192,8641,128,0,8818:0:0:0:0:
448,192,8641,1,0,0:0:0:0:
192,192,8729,1,0,0:0:0:0:
320,192,8818,1,0,0:0:0:0:
448,192,8818,1,0,0:0:0:0:
192,192,8906,1,0,0:0:0:0:
64,192,8994,1,0,0:0:0:0:
448,192,9082,1,0,0:0:0:0:
192,192,9170,1,0,0:0:0:0:
192,192,9259,1,0,0:0:0:0:
64,192,9347,1,0,0:0:0:0:
448,192,9347,1,0,0:0:0:0:
448,192,9435,1,0,0:0:0:0:
320,192,9523,1,0,0:0:0:0:
64,192,9612,1,0,0:0:0:0:
192,192,9700,1,0,0:0:0:0:
448,192,9788,1,0,0:0:0:0:
320,192,9876,1,0,0:0:0:0:
192,192,9876,1,0,0:0:0:0:
64,192,9965,1,0,0:0:0:0:
448,192,10053,1,0,0:0:0:0:
320,192,10141,1,0,0:0:0:0:
64,192,10229,1,0,0:0:0:0:
192,192,10229,1,0,0:0:0:0:
320,192,10318,1,0,0:0:0:0:
192,192,10406,1,0,0:0:0:0:
448,192,10494,1,0,0:0:0:0:
320,192,10582,1,0,0:0:0:0:
64,192,10670,1,0,0:0:0:0:
192,192,10759,1,0,0:0:0:0:
320,192,10759,1,0,0:0:0:0:
448,192,10847,1,0,0:0:0:0:
192,192,10935,1,0,0:0:0:0:
64,192,11023,1,0,0:0:0:0:
448,192,11112,1,0,0:0:0:0:
192,192,11200,1,0,0:0:0:0:
448,192,11288,1,0,0:0:0:0:
320,192,11288,1,0,0:0:0:0:
64,192,11376,1,0,0:0:0:0:
192,192,11465,1,0,0:0:0:0:
448,192,11553,1,0,0:0:0:0:
320,192,11641,1,0,0:0:0:0:
64,192,11641,1,0,0:0:0:0:
192,192,11729,1,0,0:0:0:0:
448,192,11818,1,0,0:0:0:0:
320,192,11906,1,0,0:0:0:0:
64,192,11994,1,0,0:0:0:0:
64,192,12082,1,0,0:0:0:0:
320,192,12170,1,0,0:0:0:0:
448,192,12170,1,0,0:0:0:0:
320,192,12259,1,0,0:0:0:0:
192,192,12347,1,0,0:0:0:0:
448,192,12435,1,0,0:0:0:0:
64,192,12523,1,0,0:0:0:0:
320,192,12612,1,0,0:0:0:0:
64,192,12700,1,0,0:0:0:0:
192,192,12700,1,0,0:0:0:0:
448,192,12788,1,0,0:0:0:0:
192,192,12876,1,0,0:0:0:0:
320,192,12965,1,0,0:0:0:0:
448,192,13053,1,0,0:0:0:0:
192,192,13053,1,0,0:0:0:0:
64,192,13141,1,0,0:0:0:0:
320,192,13229,1,0,0:0:0:0:
192,192,13318,1,0,0:0:0:0:
448,192,13406,1,0,0:0:0:0:
64,192,13494,1,0,0:0:0:0:
320,192,13582,1,0,0:0:0:0:
448,192,13582,1,0,0:0:0:0:
192,192,13670,1,0,0:0:0:0:
320,192,13759,1,0,0:0:0:0:
64,192,13847,1,0,0:0:0:0:
192,192,13935,1,0,0:0:0:0:
448,192,13935,128,0,14112:0:0:0:0:
320,192,14023,1,0,0:0:0:0:
192,192,14112,1,0,0:0:0:0:
64,192,14112,1,0,0:0:0:0:
320,192,14200,1,0,0:0:0:0:
448,192,14288,128,0,14465:0:0:0:0:
64,192,14288,1,0,0:0:0:0:
192,192,14376,1,0,0:0:0:0:
320,192,14465,128,0,14994:0:0:0:0:
64,192,14465,1,0,0:0:0:0:
192,192,14553,1,0,0:0:0:0:
448,192,14641,1,0,0:0:0:0:
192,192,14729,1,0,0:0:0:0:
64,192,14818,1,0,0:0:0:0:
64,192,14906,1,0,0:0:0:0:
448,192,14994,1,0,0:0:0:0:
192,192,14994,128,0,15523:0:0:0:0:
448,192,15082,1,0,0:0:0:0:
320,192,15170,1,0,0:0:0:0:
64,192,15259,1,0,0:0:0:0:
448,192,15347,1,0,0:0:0:0:
320,192,15435,1,0,0:0:0:0:
64,192,15523,1,0,0:0:0:0:
448,192,15523,128,0,15876:0:0:0:0:
192,192,15612,1,0,0:0:0:0:
320,192,15700,1,0,0:0:0:0:
192,192,15788,1,0,0:0:0:0:
320,192,15876,1,0,0:0:0:0:
64,192,15876,128,0,16406:0:0:0:0:
448,192,15965,1,0,0:0:0:0:
320,192,16053,1,0,0:0:0:0:
192,192,16141,1,0,0:0:0:0:
448,192,16229,1,0,0:0:0:0:
320,192,16318,1,0,0:0:0:0:
192,192,16406,1,0,0:0:0:0:
448,192,16406,128,0,16935:0:0:0:0:
64,192,16494,1,0,0:0:0:0:
192,192,16582,1,0,0:0:0:0:
320,192,16670,1,0,0:0:0:0:
192,192,16759,1,0,0:0:0:0:
64,192,16847,1,0,0:0:0:0:
320,192,16935,128,0,17288:0:0:0:0:
192,192,16935,1,0,0:0:0:0:
448,192,17023,1,0,0:0:0:0:
64,192,17112,1,0,0:0:0:0:
192,192,17200,1,0,0:0:0:0:
64,192,17288,128,0,17818:0:0:0:0:
448,192,17288,1,0,0:0:0:0:
192,192,17376,1,0,0:0:0:0:
320,192,17465,1,0,0:0:0:0:
448,192,17553,1,0,0:0:0:0:
320,192,17641,1,0,0:0:0:0:
320,192,17729,1,0,0:0:0:0:
448,192,17818,128,0,18347:0:0:0:0:
192,192,17818,1,0,0:0:0:0:
192,192,17906,1,0,0:0:0:0:
64,192,17994,1,0,0:0:0:0:
320,192,18082,1,0,0:0:0:0:
192,192,18170,1,0,0:0:0:0:
64,192,18259,1,0,0:0:0:0:
192,192,18347,128,0,18700:0:0:0:0:
320,192,18347,1,0,0:0:0:0:
64,192,18435,1,0,0:0:0:0:
320,192,18523,1,0,0:0:0:0:
448,192,18612,1,0,0:0:0:0:
64,192,18700,128,0,19229:0:0:0:0:
320,192,18700,1,0,0:0:0:0:
448,192,18788,1,0,0:0:0:0:
320,192,18876,1,0,0:0:0:0:
192,192,18965,1,0,0:0:0:0:
320,192,19053,1,0,0:0:0:0:
448,192,19141,1,0,0:0:0:0:
320,192,19229,128,0,19582:0:0:0:0:
192,192,19229,1,0,0:0:0:0:
448,192,19318,1,0,0:0:0:0:
192,192,19406,1,0,0:0:0:0:
64,192,19494,1,0,0:0:0:0:
448,192,19582,128,0,19935:0:0:0:0:
192,192,19582,1,0,0:0:0:0:
64,192,19670,1,0,0:0:0:0:
192,192,19759,1,0,0:0:0:0:
320,192,19847,1,0,0:0:0:0:
64,192,19935,128,0,20112:0:0:0:0:
192,192,19935,1,0,0:0:0:0:
320,192,20023,1,0,0:0:0:0:
192,192,20112,128,0,20641:0:0:0:0:
448,192,20112,1,0,0:0:0:0:
320,192,20200,1,0,0:0:0:0:
64,192,20288,1,0,0:0:0:0:
448,192,20376,1,0,0:0:0:0:
320,192,20465,1,0,0:0:0:0:
320,192,20553,1,0,0:0:0:0:
448,192,20641,128,0,21170:0:0:0:0:
64,192,20641,1,0,0:0:0:0:
64,192,20729,1,0,0:0:0:0:
192,192,20818,1,0,0:0:0:0:
320,192,20906,1,0,0:0:0:0:
64,192,20994,1,0,0:0:0:0:
192,192,21082,1,0,0:0:0:0:
320,192,21170,1,0,0:0:0:0:
64,192,21170,128,0,21523:0:0:0:0:
192,192,21259,1,0,0:0:0:0:
320,192,21347,1,0,0:0:0:0:
448,192,21435,1,0,0:0:0:0:
320,192,21523,128,0,22053:0:0:0:0:
192,192,21523,1,0,0:0:0:0:
64,192,21612,1,0,0:0:0:0:
448,192,21700,1,0,0:0:0:0:
64,192,21788,1,0,0:0:0:0:
192,192,21876,1,0,0:0:0:0:
448,192,21965,1,0,0:0:0:0:
192,192,22053,128,0,22582:0:0:0:0:
64,192,22053,1,0,0:0:0:0:
448,192,22141,1,0,0:0:0:0:
320,192,22229,1,0,0:0:0:0:
64,192,22318,1,0,0:0:0:0:
448,192,22406,1,0,0:0:0:0:
320,192,22494,1,0,0:0:0:0:
448,192,22582,128,0,22935:0:0:0:0:
64,192,22582,1,0,0:0:0:0:
320,192,22670,1,0,0:0:0:0:
192,192,22759,1,0,0:0:0:0:
320,192,22847,1,0,0:0:0:0:
64,192,22935,128,0,25670:0:0:0:0:
192,192,22935,128,0,23553:0:0:0:0:
448,192,23288,128,0,24259:0:0:0:0:
320,192,23288,128,0,23906:0:0:0:0:
192,192,23641,128,0,25670:0:0:0:0:
320,192,23994,128,0,25670:0:0:0:0:
448,192,24347,128,0,25670:0:0:0:0:
64,192,25759,1,2,0:0:0:0:
448,192,25759,1,0,0:0:0:0:
320,192,25759,128,0,26641:0:0:0:0:
192,192,26112,1,0,0:0:0:0:
448,192,26465,1,0,0:0:0:0:
192,192,26818,128,0,26994:0:0:0:0:
64,192,26994,128,0,27700:0:0:0:0:
320,192,27170,1,0,0:0:0:0:
192,192,27700,1,0,0:0:0:0:
448,192,28229,128,0,28406:0:0:0:0:
192,192,28582,128,0,28759:0:0:0:0:
320,192,28582,1,0,0:0:0:0:
320,192,28935,128,0,29112:0:0:0:0:
64,192,29288,128,0,29465:0:0:0:0:
448,192,29641,128,0,30347:0:0:0:0:
320,192,29641,1,0,0:0:0:0:
192,192,29994,1,0,0:0:0:0:
64,192,30347,1,0,0:0:0:0:
320,192,30700,1,0,0:0:0:0:
192,192,31053,128,0,31229:0:0:0:0:
320,192,31229,128,0,31406:0:0:0:0:
64,192,31406,1,0,0:0:0:0:
448,192,31406,128,0,32112:0:0:0:0:
192,192,31759,1,0,0:0:0:0:
320,192,32112,1,0,0:0:0:0:
192,192,32465,128,0,32641:0:0:0:0:
320,192,32465,1,0,0:0:0:0:
64,192,32641,128,0,33347:0:0:0:0:
448,192,32818,1,0,0:0:0:0:
192,192,33347,1,0,0:0:0:0:
320,192,33876,128,0,34229:0:0:0:0:
448,192,34229,1,0,0:0:0:0:
64,192,34229,128,0,34582:0:0:0:0:
192,192,34582,128,0,34935:0:0:0:0:
448,192,34935,128,0,35288:0:0:0:0:
320,192,35288,128,0,36347:0:0:0:0:
192,192,35288,1,0,0:0:0:0:
448,192,35641,1,0,0:0:0:0:
64,192,35994,1,0,0:0:0:0:
192,192,36347,1,0,0:0:0:0:
320,192,36700,128,0,36876:0:0:0:0:
64,192,36876,128,0,37053:0:0:0:0:
448,192,37053,128,0,37759:0:0:0:0:
320,192,37053,1,0,0:0:0:0:
192,192,37406,1,0,0:0:0:0:
64,192,37759,1,8,1:0:0:0:
320,192,37759,1,0,0:0:0:0:
192,192,38112,128,0,38288:0:0:0:0:
448,192,38112,1,0,0:0:0:0:
320,192,38288,128,0,38994:0:0:0:0:
64,192,38994,1,0,0:0:0:0:
192,192,39170,1,8,1:0:0:0:
448,192,39170,1,0,0:0:0:0:
64,192,39523,128,0,39876:0:0:0:0:
320,192,39700,1,0,0:0:0:0:
448,192,39876,128,0,40229:0:0:0:0:
192,192,39876,1,0,0:0:0:0:
64,192,40053,1,0,0:0:0:0:
320,192,40229,128,0,40582:0:0:0:0:
64,192,40406,1,0,0:0:0:0:
192,192,40582,128,8,40935:1:0:0:0:
448,192,40582,1,0,0:0:0:0:
64,192,40935,128,0,41818:0:0:0:0:
320,192,40935,1,0,0:0:0:0:
448,192,41465,1,0,0:0:0:0:
192,192,41641,1,0,0:0:0:0:
320,192,41818,1,0,0:0:0:0:
448,192,41994,1,0,0:0:0:0:
192,192,42347,128,0,42523:0:0:0:0:
320,192,42523,128,0,42700:0:0:0:0:
448,192,42700,128,0,43406:0:0:0:0:
64,192,42700,1,0,0:0:0:0:
192,192,43229,1,0,0:0:0:0:
320,192,43406,1,8,1:0:0:0:
64,192,43406,1,0,0:0:0:0:
192,192,43759,128,0,43935:0:0:0:0:
320,192,43935,128,0,44641:0:0:0:0:
64,192,44818,1,8,1:0:0:0:
192,192,44818,1,0,0:0:0:0:
448,192,45170,128,0,45523:0:0:0:0:
192,192,45347,1,0,0:0:0:0:
64,192,45523,128,0,46053:0:0:0:0:
320,192,45523,1,0,0:0:0:0:
192,192,45700,1,0,0:0:0:0:
448,192,45876,1,0,0:0:0:0:
192,192,46053,1,0,0:0:0:0:
320,192,46053,128,0,46582:0:0:0:0:
64,192,46229,1,8,1:0:0:0:
448,192,46229,1,0,0:0:0:0:
192,192,46582,128,0,46935:0:0:0:0:
448,192,46935,1,0,0:0:0:0:
320,192,47112,1,0,0:0:0:0:
64,192,47288,128,0,47641:0:0:0:0:
320,192,47641,128,0,47994:0:0:0:0:
192,192,47994,128,8,48347:0:0:0:0:
64,192,47994,128,0,48347:0:0:0:0:
448,192,47994,1,0,0:0:0:0:
320,192,48347,1,4,0:0:0:0:
448,192,48347,1,2,0:0:0:0:
64,192,48523,1,0,0:0:0:0:
448,192,48700,1,0,0:0:0:0:
192,192,48876,1,0,0:0:0:0:
320,192,49053,1,0,0:0:0:0:
64,192,49229,1,0,0:0:0:0:
448,192,49406,1,0,0:0:0:0:
320,192,49582,1,0,0:0:0:0:
192,192,49759,1,0,0:0:0:0:
448,192,49935,1,0,0:0:0:0:
64,192,50112,1,0,0:0:0:0:
192,192,50288,1,0,0:0:0:0:
320,192,50465,1,0,0:0:0:0:
64,192,50641,1,0,0:0:0:0:
448,192,50818,1,0,0:0:0:0:
192,192,50994,1,0,0:0:0:0:
448,192,51170,128,0,51523:0:0:0:0:
320,192,51170,1,0,0:0:0:0:
192,192,51347,1,0,0:0:0:0:
64,192,51523,128,0,51876:0:0:0:0:
320,192,51700,1,0,0:0:0:0:
192,192,51876,128,0,52229:0:0:0:0:
448,192,52053,1,0,0:0:0:0:
320,192,52229,128,0,52582:0:0:0:0:
64,192,52406,1,0,0:0:0:0:
448,192,52582,1,0,0:0:0:0:
192,192,52759,1,0,0:0:0:0:
320,192,52935,1,0,0:0:0:0:
64,192,53112,1,0,0:0:0:0:
192,192,53288,1,0,0:0:0:0:
448,192,53465,1,0,0:0:0:0:
320,192,53641,1,0,0:0:0:0:
64,192,53818,1,0,0:0:0:0:
192,192,53994,1,0,0:0:0:0:
320,192,53994,1,0,0:0:0:0:
448,192,54170,1,0,0:0:0:0:
64,192,54347,1,0,0:0:0:0:
320,192,54523,1,0,0:0:0:0:
192,192,54700,1,0,0:0:0:0:
448,192,54876,1,0,0:0:0:0:
64,192,55053,1,0,0:0:0:0:
192,192,55229,1,0,0:0:0:0:
320,192,55406,1,0,0:0:0:0:
448,192,55582,1,0,0:0:0:0:
64,192,55759,1,0,0:0:0:0:
320,192,55935,1,0,0:0:0:0:
192,192,56112,1,0,0:0:0:0:
448,192,56288,1,0,0:0:0:0:
320,192,56465,1,0,0:0:0:0:
192,192,56641,1,0,0:0:0:0:
320,192,56818,128,0,57170:0:0:0:0:
64,192,56818,1,0,0:0:0:0:
448,192,56994,1,0,0:0:0:0:
192,192,57170,128,0,57523:0:0:0:0:
64,192,57347,1,0,0:0:0:0:
448,192,57523,128,0,57876:0:0:0:0:
320,192,57700,1,0,0:0:0:0:
64,192,57876,128,0,58229:0:0:0:0:
192,192,58053,1,0,0:0:0:0:
320,192,58229,1,0,0:0:0:0:
448,192,58406,1,0,0:0:0:0:
64,192,58582,1,0,0:0:0:0:
320,192,58759,1,0,0:0:0:0:
192,192,58935,1,0,0:0:0:0:
448,192,59112,1,0,0:0:0:0:
320,192,59288,1,0,0:0:0:0:
192,192,59465,1,0,0:0:0:0:
64,192,59641,1,8,1:0:0:0:
320,192,59641,1,0,0:0:0:0:
64,192,59818,1,0,0:0:0:0:
320,192,59994,1,8,1:0:0:0:
448,192,59994,1,0,0:0:0:0:
448,192,60170,1,0,0:0:0:0:
192,192,60347,1,8,1:0:0:0:
320,192,60347,1,0,0:0:0:0:
192,192,60523,1,0,0:0:0:0:
64,192,60700,1,8,1:0:0:0:
320,192,60700,1,0,0:0:0:0:
320,192,60876,1,0,0:0:0:0:
192,192,61053,1,8,1:0:0:0:
448,192,61053,1,0,0:0:0:0:
448,192,61229,1,0,0:0:0:0:
192,192,61406,1,8,1:0:0:0:
320,192,61406,1,0,0:0:0:0:
192,192,61582,1,0,0:0:0:0:
448,192,61759,1,8,1:0:0:0:
64,192,61759,1,0,0:0:0:0:
64,192,61935,1,0,0:0:0:0:
320,192,62112,1,8,1:0:0:0:
448,192,62112,1,0,0:0:0:0:
320,192,62288,1,0,0:0:0:0:
192,192,62465,128,8,62818:1:0:0:0:
64,192,62465,1,0,0:0:0:0:
320,192,62641,1,0,0:0:0:0:
448,192,62818,128,8,63170:1:0:0:0:
64,192,62818,1,0,0:0:0:0:
320,192,62994,1,0,0:0:0:0:
192,192,63170,1,8,1:0:0:0:
64,192,63170,128,0,63523:0:0:0:0:
448,192,63347,1,0,0:0:0:0:
192,192,63523,1,8,1:0:0:0:
320,192,63523,128,0,64229:0:0:0:0:
448,192,63700,1,0,0:0:0:0:
64,192,63876,1,8,1:0:0:0:
448,192,63876,1,0,0:0:0:0:
192,192,64053,1,0,0:0:0:0:
64,192,64229,1,8,1:0:0:0:
448,192,64229,1,0,0:0:0:0:
64,192,64406,1,0,0:0:0:0:
192,192,64582,1,8,1:0:0:0:
320,192,64582,1,0,0:0:0:0:
320,192,64759,1,0,0:0:0:0:
448,192,64935,1,8,1:0:0:0:
64,192,64935,1,0,0:0:0:0:
448,192,65112,1,0,0:0:0:0:
192,192,65288,1,8,1:0:0:0:
64,192,65288,128,0,65376:0:0:0:0:
320,192,65465,1,0,0:0:0:0:
192,192,65553,128,0,65641:0:0:0:0:
64,192,65641,1,8,1:0:0:0:
448,192,65641,1,0,0:0:0:0:
448,192,65818,128,0,65906:0:0:0:0:
192,192,65994,1,8,1:0:0:0:
320,192,65994,1,0,0:0:0:0:
64,192,66082,128,0,66170:0:0:0:0:
320,192,66170,1,0,0:0:0:0:
448,192,66347,1,8,1:0:0:0:
192,192,66347,128,0,66435:0:0:0:0:
64,192,66523,1,0,0:0:0:0:
320,192,66700,1,8,1:0:0:0:
448,192,66700,128,0,66788:0:0:0:0:
64,192,66876,1,0,0:0:0:0:
320,192,66965,128,0,67053:0:0:0:0:
448,192,67053,1,8,1:0:0:0:
192,192,67053,1,0,0:0:0:0:
64,192,67229,128,0,67318:0:0:0:0:
320,192,67406,1,8,1:0:0:0:
448,192,67406,1,0,0:0:0:0:
320,192,67582,1,0,0:0:0:0:
192,192,67759,1,8,1:0:0:0:
64,192,67759,1,0,0:0:0:0:
192,192,67935,1,0,0:0:0:0:
64,192,68112,128,8,68553:1:0:0:0:
192,192,68112,128,0,69259:0:0:0:0:
320,192,68112,128,0,68553:0:0:0:0:
448,192,68465,128,0,68906:0:0:0:0:
320,192,68641,128,0,68906:0:0:0:0:
64,192,68641,128,0,69523:0:0:0:0:
448,192,68994,128,0,69435:0:0:0:0:
320,192,68994,128,0,69435:0:0:0:0:
192,192,69347,128,0,69523:0:0:0:0:
448,192,69523,128,0,70229:0:0:0:0:
320,192,69523,128,0,69876:0:0:0:0:
192,192,69876,128,0,70229:0:0:0:0:
64,192,70229,128,8,70935:1:0:0:0:
320,192,70229,1,0,0:0:0:0:
320,192,70406,1,8,1:0:0:0:
448,192,70406,1,0,0:0:0:0:
448,192,70582,1,8,1:0:0:0:
192,192,70582,128,0,70935:0:0:0:0:
448,192,70935,128,2,73759:0:0:0:0:
320,192,70935,128,4,71112:0:0:0:0:
192,192,71112,1,0,0:0:0:0:
64,192,71288,128,0,71465:0:0:0:0:
192,192,71465,1,0,0:0:0:0:
320,192,71641,128,0,71818:0:0:0:0:
64,192,71818,1,0,0:0:0:0:
64,192,71994,128,0,72170:0:0:0:0:
320,192,72170,128,0,72347:0:0:0:0:
192,192,72347,1,0,0:0:0:0:
192,192,72523,128,0,72700:0:0:0:0:
64,192,72700,1,0,0:0:0:0:
320,192,72876,128,0,73053:0:0:0:0:
192,192,73053,1,0,0:0:0:0:
320,192,73229,128,0,73406:0:0:0:0:
192,192,73406,1,0,0:0:0:0:
64,192,73582,128,0,73759:0:0:0:0:
320,192,73759,128,0,73935:0:0:0:0:
448,192,73935,1,0,0:0:0:0:
192,192,74112,128,0,74288:0:0:0:0:
64,192,74288,1,0,0:0:0:0:
320,192,74465,128,0,74641:0:0:0:0:
448,192,74641,1,0,0:0:0:0:
192,192,74818,128,0,74994:0:0:0:0:
320,192,74994,128,0,75170:0:0:0:0:
448,192,75170,1,0,0:0:0:0:
64,192,75347,128,0,75523:0:0:0:0:
320,192,75523,1,0,0:0:0:0:
448,192,75700,128,0,75876:0:0:0:0:
192,192,75876,1,0,0:0:0:0:
320,192,76053,128,0,76229:0:0:0:0:
448,192,76229,1,0,0:0:0:0:
64,192,76406,128,0,76582:0:0:0:0:
192,192,76582,128,0,76759:0:0:0:0:
320,192,76759,1,0,0:0:0:0:
64,192,76935,128,0,77112:0:0:0:0:
192,192,77112,1,0,0:0:0:0:
448,192,77288,128,0,77465:0:0:0:0:
64,192,77465,1,0,0:0:0:0:
320,192,77641,128,0,77818:0:0:0:0:
448,192,77818,128,0,77994:0:0:0:0:
192,192,77994,1,0,0:0:0:0:
64,192,78170,128,0,78347:0:0:0:0:
320,192,78347,1,0,0:0:0:0:
448,192,78523,128,0,78700:0:0:0:0:
192,192,78700,1,0,0:0:0:0:
448,192,78876,128,0,79053:0:0:0:0:
64,192,79053,1,0,0:0:0:0:
192,192,79229,128,0,79406:0:0:0:0:
448,192,79406,128,0,79582:0:0:0:0:
320,192,79582,1,0,0:0:0:0:
64,192,79759,128,0,79935:0:0:0:0:
192,192,79935,1,0,0:0:0:0:
320,192,80112,128,0,80288:0:0:0:0:
64,192,80288,1,0,0:0:0:0:
192,192,80465,128,0,80641:0:0:0:0:
320,192,80641,128,0,80818:0:0:0:0:
448,192,80818,5,0,0:0:0:0:
64,192,80994,128,0,81170:0:0:0:0:
192,192,81170,1,0,0:0:0:0:
448,192,81347,128,0,81523:0:0:0:0:
64,192,81523,1,0,0:0:0:0:
192,192,81700,1,0,0:0:0:0:
320,192,81788,1,0,0:0:0:0:
448,192,81876,5,0,0:0:0:0:
64,192,81965,1,0,0:0:0:0:
448,192,82053,1,0,0:0:0:0:
64,192,82141,1,0,0:0:0:0:
192,192,82229,1,2,0:0:0:0:
320,192,82229,1,4,0:0:0:0:
448,192,82229,1,0,0:0:0:0:
192,192,82406,1,0,0:0:0:0:
320,192,82582,1,8,1:0:0:0:
64,192,82582,1,0,0:0:0:0:
448,192,82582,1,0,0:0:0:0:
320,192,82759,1,0,0:0:0:0:
64,192,82935,1,8,1:0:0:0:
448,192,82935,1,0,0:0:0:0:
448,192,83112,1,0,0:0:0:0:
64,192,83288,1,8,1:0:0:0:
192,192,83288,1,0,0:0:0:0:
192,192,83376,1,0,0:0:0:0:
320,192,83465,1,0,0:0:0:0:
192,192,83641,1,8,1:0:0:0:
448,192,83641,1,0,0:0:0:0:
448,192,83818,1,0,0:0:0:0:
192,192,83994,1,8,1:0:0:0:
64,192,83994,1,0,0:0:0:0:
320,192,83994,1,0,0:0:0:0:
64,192,84170,1,0,0:0:0:0:
448,192,84347,128,8,84523:1:0:0:0:
192,192,84347,1,0,0:0:0:0:
320,192,84523,128,0,84700:0:0:0:0:
64,192,84700,128,8,84876:1:0:0:0:
448,192,84700,1,0,0:0:0:0:
192,192,84876,1,8,1:0:0:0:
320,192,84876,1,0,0:0:0:0:
192,192,84965,1,8,1:0:0:0:
320,192,84965,1,0,0:0:0:0:
64,192,85053,1,8,1:0:0:0:
448,192,85053,1,0,0:0:0:0:
64,192,85229,1,0,0:0:0:0:
320,192,85406,1,8,1:0:0:0:
448,192,85406,1,0,0:0:0:0:
192,192,85406,1,0,0:0:0:0:
320,192,85582,1,0,0:0:0:0:
192,192,85759,1,8,1:0:0:0:
448,192,85759,1,0,0:0:0:0:
192,192,85935,1,0,0:0:0:0:
64,192,86112,1,8,1:0:0:0:
320,192,86112,1,0,0:0:0:0:
320,192,86200,1,0,0:0:0:0:
192,192,86288,1,0,0:0:0:0:
448,192,86465,1,8,1:0:0:0:
64,192,86465,128,0,86818:0:0:0:0:
192,192,86641,128,0,86818:0:0:0:0:
448,192,86818,128,8,87170:1:0:0:0:
320,192,86818,1,0,0:0:0:0:
320,192,86994,128,0,87170:0:0:0:0:
192,192,87170,1,8,1:0:0:0:
64,192,87170,128,0,87347:0:0:0:0:
320,192,87347,1,8,1:0:0:0:
448,192,87347,1,0,0:0:0:0:
320,192,87435,1,8,1:0:0:0:
448,192,87435,1,0,0:0:0:0:
192,192,87523,1,8,1:0:0:0:
64,192,87523,128,0,87876:0:0:0:0:
320,192,87700,1,0,0:0:0:0:
192,192,87700,128,0,87876:0:0:0:0:
448,192,87876,1,4,0:0:0:0:
320,192,87876,1,2,0:0:0:0:
192,192,87965,1,2,0:0:0:0:
448,192,88053,1,2,0:0:0:0:
64,192,88053,1,0,0:0:0:0:
320,192,88141,1,2,0:0:0:0:
192,192,88229,1,2,0:0:0:0:
64,192,88229,1,8,1:0:0:0:
448,192,88318,1,2,0:0:0:0:
320,192,88406,1,2,0:0:0:0:
64,192,88406,1,0,0:0:0:0:
192,192,88494,1,2,0:0:0:0:
320,192,88582,1,8,1:0:0:0:
448,192,88582,1,2,0:0:0:0:
64,192,88670,1,2,0:0:0:0:
192,192,88759,1,2,0:0:0:0:
320,192,88759,1,0,0:0:0:0:
448,192,88847,1,2,0:0:0:0:
64,192,88935,1,2,0:0:0:0:
192,192,88935,1,8,1:0:0:0:
320,192,88979,1,2,0:0:0:0:
448,192,89023,1,2,0:0:0:0:
64,192,89068,1,2,0:0:0:0:
192,192,89112,1,2,0:0:0:0:
320,192,89156,1,2,0:0:0:0:
448,192,89200,1,2,0:0:0:0:
64,192,89244,1,2,0:0:0:0:
320,192,89288,1,4,0:0:0:0:
192,192,89288,1,2,0:0:0:0:
448,192,89376,1,2,0:0:0:0:
192,192,89465,1,2,0:0:0:0:
64,192,89465,1,0,0:0:0:0:
320,192,89553,1,2,0:0:0:0:
64,192,89641,1,8,1:0:0:0:
448,192,89641,1,2,0:0:0:0:
192,192,89729,1,2,0:0:0:0:
448,192,89818,1,2,0:0:0:0:
320,192,89818,1,0,0:0:0:0:
64,192,89906,1,2,0:0:0:0:
448,192,89994,1,2,0:0:0:0:
320,192,89994,1,8,1:0:0:0:
192,192,90082,1,2,0:0:0:0:
448,192,90170,1,2,0:0:0:0:
64,192,90170,1,0,0:0:0:0:
320,192,90259,1,0,0:0:0:0:
64,192,90347,1,2,0:0:0:0:
192,192,90347,1,8,1:0:0:0:
448,192,90391,1,2,0:0:0:0:
320,192,90435,1,2,0:0:0:0:
64,192,90479,1,2,0:0:0:0:
192,192,90523,1,2,0:0:0:0:
448,192,90568,1,2,0:0:0:0:
320,192,90612,1,2,0:0:0:0:
192,192,90656,1,2,0:0:0:0:
448,192,90700,1,4,0:0:0:0:
64,192,90700,1,2,0:0:0:0:
320,192,90744,1,2,0:0:0:0:
192,192,90788,1,2,0:0:0:0:
64,192,90832,1,2,0:0:0:0:
448,192,90876,1,2,0:0:0:0:
320,192,90920,1,2,0:0:0:0:
192,192,90965,1,2,0:0:0:0:
64,192,91009,1,2,0:0:0:0:
320,192,91053,1,2,0:0:0:0:
448,192,91097,1,2,0:0:0:0:
64,192,91141,1,2,0:0:0:0:
192,192,91185,1,2,0:0:0:0:
320,192,91229,1,2,0:0:0:0:
448,192,91273,1,2,0:0:0:0:
64,192,91318,1,2,0:0:0:0:
192,192,91362,1,2,0:0:0:0:
448,192,91406,1,2,0:0:0:0:
320,192,91406,1,0,0:0:0:0:
192,192,91494,1,2,0:0:0:0:
64,192,91494,1,0,0:0:0:0:
448,192,91582,1,2,0:0:0:0:
320,192,91582,1,0,0:0:0:0:
64,192,91626,1,2,0:0:0:0:
192,192,91670,1,2,0:0:0:0:
320,192,91715,1,2,0:0:0:0:
448,192,91759,1,2,0:0:0:0:
64,192,91759,1,0,0:0:0:0:
192,192,91847,1,0,0:0:0:0:
448,192,91935,1,0,0:0:0:0:
192,192,92023,1,0,0:0:0:0:
64,192,92112,1,2,0:0:0:0:
448,192,92112,1,0,0:0:0:0:
320,192,92288,128,0,92465:0:0:0:0:
64,192,92376,1,0,0:0:0:0:
192,192,92465,128,0,92641:0:0:0:0:
448,192,92465,1,0,0:0:0:0:
448,192,92641,128,0,92818:0:0:0:0:
320,192,92641,128,0,92818:0:0:0:0:
64,192,92818,1,0,0:0:0:0:
192,192,92818,1,0,0:0:0:0:
64,192,92994,128,0,93170:0:0:0:0:
192,192,92994,128,0,93170:0:0:0:0:
320,192,93170,1,0,0:0:0:0:
448,192,93170,1,0,0:0:0:0:
192,192,93347,128,0,93523:0:0:0:0:
320,192,93523,128,4,93700:0:0:0:0:
448,192,93523,1,2,0:0:0:0:
64,192,93523,1,0,0:0:0:0:
192,192,93700,1,0,0:0:0:0:
64,192,93876,128,2,94053:0:0:0:0:
448,192,93876,1,8,0:0:0:0:
320,192,93876,1,0,0:0:0:0:
320,192,94053,1,0,0:0:0:0:
448,192,94229,128,2,94406:0:0:0:0:
192,192,94229,1,0,0:0:0:0:
64,192,94406,1,0,0:0:0:0:
192,192,94582,128,8,94935:0:0:0:0:
320,192,94582,1,2,0:0:0:0:
448,192,94582,1,0,0:0:0:0:
448,192,94759,128,0,94935:0:0:0:0:
320,192,94935,1,2,0:0:0:0:
64,192,94935,1,0,0:0:0:0:
64,192,95112,128,0,95288:0:0:0:0:
192,192,95288,1,2,0:0:0:0:
320,192,95288,1,8,0:0:0:0:
448,192,95288,1,0,0:0:0:0:
448,192,95465,128,0,95641:0:0:0:0:
64,192,95641,1,2,0:0:0:0:
320,192,95641,1,0,0:0:0:0:
448,192,95818,128,0,95994:0:0:0:0:
64,192,95994,1,2,0:0:0:0:
192,192,95994,1,8,0:0:0:0:
320,192,95994,1,0,0:0:0:0:
448,192,96170,128,0,96523:0:0:0:0:
320,192,96347,128,2,96523:0:0:0:0:
192,192,96347,1,0,0:0:0:0:
64,192,96523,1,0,0:0:0:0:
192,192,96700,128,8,96876:0:0:0:0:
64,192,96700,1,2,0:0:0:0:
320,192,96700,1,0,0:0:0:0:
448,192,96876,1,0,0:0:0:0:
320,192,97053,128,2,97229:0:0:0:0:
192,192,97053,1,0,0:0:0:0:
64,192,97229,1,0,0:0:0:0:
448,192,97406,1,8,0:0:0:0:
192,192,97406,128,2,97759:0:0:0:0:
64,192,97406,1,0,0:0:0:0:
320,192,97582,128,0,97759:0:0:0:0:
448,192,97759,1,2,0:0:0:0:
64,192,97759,1,0,0:0:0:0:
64,192,97935,128,0,98112:0:0:0:0:
192,192,98112,1,2,0:0:0:0:
320,192,98112,1,8,0:0:0:0:
448,192,98112,1,0,0:0:0:0:
448,192,98288,128,0,98465:0:0:0:0:
320,192,98288,128,0,98465:0:0:0:0:
64,192,98465,1,2,0:0:0:0:
192,192,98465,1,0,0:0:0:0:
192,192,98641,128,0,98818:0:0:0:0:
64,192,98641,128,0,98818:0:0:0:0:
320,192,98818,1,2,0:0:0:0:
448,192,98818,1,8,0:0:0:0:
320,192,98994,128,0,99347:0:0:0:0:
192,192,99170,128,2,99347:0:0:0:0:
64,192,99170,1,0,0:0:0:0:
448,192,99347,1,0,0:0:0:0:
64,192,99523,128,2,99700:0:0:0:0:
448,192,99523,1,8,0:0:0:0:
320,192,99523,1,0,0:0:0:0:
192,192,99700,1,0,0:0:0:0:
320,192,99876,128,2,100053:0:0:0:0:
448,192,99876,1,0,0:0:0:0:
64,192,100053,1,0,0:0:0:0:
192,192,100229,128,8,100582:0:0:0:0:
448,192,100229,1,2,0:0:0:0:
320,192,100229,1,0,0:0:0:0:
320,192,100406,128,0,100582:0:0:0:0:
64,192,100582,1,2,0:0:0:0:
448,192,100582,1,0,0:0:0:0:
192,192,100759,128,0,100935:0:0:0:0:
64,192,100935,1,2,0:0:0:0:
320,192,100935,1,8,0:0:0:0:
448,192,100935,1,0,0:0:0:0:
320,192,101112,128,0,101288:0:0:0:0:
192,192,101288,1,2,0:0:0:0:
64,192,101288,1,0,0:0:0:0:
320,192,101465,128,0,101641:0:0:0:0:
64,192,101641,1,2,0:0:0:0:
192,192,101641,1,8,0:0:0:0:
448,192,101641,1,0,0:0:0:0:
448,192,101818,128,0,102170:0:0:0:0:
320,192,101994,128,2,102170:0:0:0:0:
64,192,101994,1,0,0:0:0:0:
192,192,102170,1,0,0:0:0:0:
64,192,102347,128,2,102523:0:0:0:0:
320,192,102347,1,8,0:0:0:0:
448,192,102347,1,0,0:0:0:0:
192,192,102523,1,0,0:0:0:0:
448,192,102700,128,2,102876:0:0:0:0:
320,192,102700,1,0,0:0:0:0:
192,192,102876,1,0,0:0:0:0:
64,192,103053,128,2,103406:0:0:0:0:
320,192,103053,1,8,0:0:0:0:
448,192,103053,1,0,0:0:0:0:
448,192,103229,128,0,103406:0:0:0:0:
192,192,103406,1,2,0:0:0:0:
320,192,103406,1,0,0:0:0:0:
64,192,103582,128,0,103759:0:0:0:0:
192,192,103759,1,2,0:0:0:0:
320,192,103759,1,8,0:0:0:0:
448,192,103759,1,0,0:0:0:0:
192,192,103935,128,0,104112:0:0:0:0:
320,192,104112,1,2,0:0:0:0:
64,192,104112,1,0,0:0:0:0:
320,192,104288,128,0,104465:0:0:0:0:
448,192,104465,1,2,0:0:0:0:
64,192,104465,1,8,0:0:0:0:
192,192,104465,1,0,0:0:0:0:
448,192,104641,128,0,104994:0:0:0:0:
192,192,104818,1,4,0:0:0:0:
64,192,104818,1,2,0:0:0:0:
320,192,104818,128,0,104994:0:0:0:0:
64,192,104994,1,0,0:0:0:0:
192,192,105170,128,8,105347:0:0:0:0:
320,192,105170,1,2,0:0:0:0:
448,192,105170,1,0,0:0:0:0:
64,192,105347,1,0,0:0:0:0:
320,192,105523,128,2,105700:0:0:0:0:
192,192,105523,1,0,0:0:0:0:
64,192,105700,1,0,0:0:0:0:
64,192,105876,128,8,106053:0:0:0:0:
448,192,105876,1,2,0:0:0:0:
192,192,105876,128,0,106053:0:0:0:0:
320,192,106053,128,0,106229:0:0:0:0:
192,192,106229,1,2,0:0:0:0:
448,192,106229,1,0,0:0:0:0:
64,192,106406,128,0,106582:0:0:0:0:
192,192,106582,1,2,0:0:0:0:
320,192,106582,1,8,0:0:0:0:
448,192,106582,1,0,0:0:0:0:
448,192,106759,128,0,106935:0:0:0:0:
64,192,106935,1,2,0:0:0:0:
192,192,106935,1,0,0:0:0:0:
448,192,107112,128,0,107288:0:0:0:0:
64,192,107288,128,8,107465:0:0:0:0:
320,192,107288,1,2,0:0:0:0:
192,192,107288,128,0,107465:0:0:0:0:
448,192,107465,128,0,107641:0:0:0:0:
320,192,107641,128,2,107818:0:0:0:0:
64,192,107641,1,0,0:0:0:0:
192,192,107818,1,0,0:0:0:0:
64,192,107994,128,8,108170:0:0:0:0:
320,192,107994,1,2,0:0:0:0:
448,192,107994,1,0,0:0:0:0:
192,192,108170,1,0,0:0:0:0:
320,192,108347,128,2,108523:0:0:0:0:
448,192,108347,1,0,0:0:0:0:
64,192,108523,1,0,0:0:0:0:
64,192,108700,128,2,108876:0:0:0:0:
192,192,108700,128,8,108876:0:0:0:0:
448,192,108700,128,0,108876:0:0:0:0:
320,192,108876,128,0,109053:0:0:0:0:
64,192,109053,128,2,109229:0:0:0:0:
192,192,109053,128,0,109229:0:0:0:0:
448,192,109229,1,0,0:0:0:0:
448,192,109318,1,0,0:0:0:0:
64,192,109406,128,2,109582:0:0:0:0:
192,192,109406,128,8,109582:0:0:0:0:
320,192,109406,1,0,0:0:0:0:
448,192,109582,1,0,0:0:0:0:
448,192,109670,1,0,0:0:0:0:
192,192,109759,1,2,0:0:0:0:
320,192,109759,1,0,0:0:0:0:
64,192,109847,1,0,0:0:0:0:
320,192,109935,128,0,110112:0:0:0:0:
192,192,110112,1,2,0:0:0:0:
448,192,110112,128,8,110288:0:0:0:0:
64,192,110112,1,0,0:0:0:0:
192,192,110288,128,0,110465:0:0:0:0:
448,192,110465,1,2,0:0:0:0:
64,192,110465,1,8,0:0:0:0:
320,192,110553,1,8,1:0:0:0:
64,192,110641,1,8,1:0:0:0:
192,192,110641,1,0,0:0:0:0:
448,192,110729,1,8,1:0:0:0:
192,192,110818,1,8,0:0:0:0:
320,192,110818,1,2,0:0:0:0:
64,192,110906,1,8,1:0:0:0:
448,192,110994,1,8,1:0:0:0:
320,192,110994,1,0,0:0:0:0:
192,192,111082,1,8,1:0:0:0:
64,192,111170,1,2,0:0:0:0:
448,192,111170,1,8,1:0:0:0:
320,192,111259,1,8,1:0:0:0:
64,192,111347,1,8,1:0:0:0:
192,192,111347,1,0,0:0:0:0:
448,192,111435,1,8,1:0:0:0:
64,192,111523,1,8,0:0:0:0:
192,192,111523,1,2,0:0:0:0:
320,192,111612,1,8,1:0:0:0:
64,192,111700,1,8,1:0:0:0:
448,192,111700,1,0,0:0:0:0:
192,192,111788,1,8,1:0:0:0:
320,192,111876,1,2,0:0:0:0:
448,192,111876,1,8,1:0:0:0:
64,192,111965,1,8,1:0:0:0:
320,192,112053,1,8,1:0:0:0:
192,192,112053,1,0,0:0:0:0:
448,192,112141,1,8,1:0:0:0:
64,192,112229,1,8,0:0:0:0:
192,192,112229,1,2,0:0:0:0:
320,192,112318,1,8,1:0:0:0:
64,192,112406,1,8,1:0:0:0:
448,192,112406,1,0,0:0:0:0:
192,192,112494,1,8,1:0:0:0:
320,192,112582,1,2,0:0:0:0:
448,192,112582,1,8,1:0:0:0:
192,192,112626,1,8,1:0:0:0:
64,192,112670,1,8,1:0:0:0:
448,192,112715,1,8,1:0:0:0:
320,192,112759,1,8,1:0:0:0:
192,192,112803,1,8,1:0:0:0:
64,192,112847,1,8,1:0:0:0:
320,192,112891,1,8,0:0:0:0:
448,192,112935,1,8,0:0:0:0:
64,192,112979,1,8,1:0:0:0:
192,192,113023,1,8,1:0:0:0:
320,192,113068,1,8,1:0:0:0:
448,192,113112,1,8,1:0:0:0:
64,192,113156,1,8,1:0:0:0:
192,192,113200,1,8,1:0:0:0:
320,192,113244,1,8,1:0:0:0:
448,192,113288,1,8,1:0:0:0:
64,192,113288,1,6,0:0:0:0:
448,192,113465,1,0,0:0:0:0:
64,192,113641,1,2,0:0:0:0:
192,192,113641,1,4,0:0:0:0:
320,192,113641,1,8,0:0:0:0:
320,192,113818,1,0,0:0:0:0:
64,192,113994,1,2,0:0:0:0:
192,192,113994,1,4,0:0:0:0:
448,192,113994,1,8,0:0:0:0:
64,192,114082,1,0,0:0:0:0:
448,192,114170,1,0,0:0:0:0:
448,192,114259,1,0,0:0:0:0:
64,192,114347,1,2,0:0:0:0:
192,192,114347,1,4,0:0:0:0:
320,192,114347,1,8,0:0:0:0:
64,192,114435,1,0,0:0:0:0:
320,192,114523,128,2,114876:0:0:0:0:
448,192,114523,128,4,114876:0:0:0:0:
64,192,114876,1,8,1:0:0:0:
192,192,114876,1,0,0:0:0:0:
192,192,115053,1,8,1:0:0:0:
64,192,115053,1,0,0:0:0:0:
64,192,115229,1,8,1:0:0:0:
320,192,115318,1,8,1:0:0:0:
448,192,115318,1,0,0:0:0:0:
64,192,115406,1,8,1:0:0:0:
192,192,115406,1,0,0:0:0:0:
320,192,115494,1,8,1:0:0:0:
448,192,115582,1,8,1:0:0:0:
64,192,115670,1,8,1:0:0:0:
192,192,115670,1,0,0:0:0:0:
320,192,115759,1,8,1:0:0:0:
448,192,115759,128,0,116112:0:0:0:0:
192,192,116112,1,2,0:0:0:0:
320,192,116112,1,4,0:0:0:0:
64,192,116112,128,0,116641:0:0:0:0:
448,192,116288,1,0,0:0:0:0:
320,192,116465,1,2,0:0:0:0:
192,192,116465,1,8,0:0:0:0:
448,192,116465,128,0,116641:0:0:0:0:
192,192,116641,128,0,116994:0:0:0:0:
64,192,116818,1,2,0:0:0:0:
320,192,116818,1,0,0:0:0:0:
448,192,116994,128,0,117347:0:0:0:0:
64,192,117170,1,2,0:0:0:0:
192,192,117170,1,8,0:0:0:0:
320,192,117347,128,0,118053:0:0:0:0:
192,192,117523,1,2,0:0:0:0:
448,192,117523,1,0,0:0:0:0:
64,192,117700,1,0,0:0:0:0:
64,192,117876,1,8,0:0:0:0:
448,192,117876,1,2,0:0:0:0:
192,192,117876,1,0,0:0:0:0:
448,192,118053,1,0,0:0:0:0:
192,192,118229,128,2,118582:0:0:0:0:
64,192,118229,1,0,0:0:0:0:
320,192,118406,1,0,0:0:0:0:
448,192,118582,128,2,118935:0:0:0:0:
64,192,118582,1,8,0:0:0:0:
320,192,118582,1,0,0:0:0:0:
192,192,118759,1,0,0:0:0:0:
64,192,118935,128,2,119641:0:0:0:0:
320,192,118935,1,0,0:0:0:0:
192,192,119112,1,0,0:0:0:0:
192,192,119288,128,8,119641:0:0:0:0:
320,192,119288,1,2,0:0:0:0:
448,192,119288,1,0,0:0:0:0:
448,192,119465,1,0,0:0:0:0:
448,192,119641,128,2,120347:0:0:0:0:
320,192,119641,1,0,0:0:0:0:
192,192,119818,1,0,0:0:0:0:
320,192,119994,128,2,120347:0:0:0:0:
64,192,119994,1,8,0:0:0:0:
192,192,119994,1,0,0:0:0:0:
64,192,120170,1,0,0:0:0:0:
64,192,120347,1,2,0:0:0:0:
192,192,120347,1,0,0:0:0:0:
448,192,120523,1,0,0:0:0:0:
64,192,120700,128,2,121053:0:0:0:0:
192,192,120700,1,8,0:0:0:0:
320,192,120700,1,0,0:0:0:0:
192,192,120876,1,0,0:0:0:0:
320,192,121053,128,2,121406:0:0:0:0:
448,192,121053,1,0,0:0:0:0:
192,192,121229,1,0,0:0:0:0:
448,192,121406,128,8,121759:0:0:0:0:
192,192,121406,1,2,0:0:0:0:
64,192,121406,1,0,0:0:0:0:
64,192,121582,1,0,0:0:0:0:
192,192,121759,128,2,122288:0:0:0:0:
320,192,121759,1,0,0:0:0:0:
448,192,121935,1,0,0:0:0:0:
320,192,122112,128,8,122288:0:0:0:0:
448,192,122112,1,2,0:0:0:0:
64,192,122112,1,0,0:0:0:0:
64,192,122288,128,0,122818:0:0:0:0:
320,192,122465,1,2,0:0:0:0:
448,192,122465,1,0,0:0:0:0:
192,192,122641,128,0,122818:0:0:0:0:
320,192,122818,1,2,0:0:0:0:
448,192,122818,1,8,0:0:0:0:
320,192,122994,128,0,123523:0:0:0:0:
448,192,123170,1,2,0:0:0:0:
192,192,123170,1,0,0:0:0:0:
64,192,123347,1,0,0:0:0:0:
448,192,123523,128,8,123876:0:0:0:0:
64,192,123523,1,2,0:0:0:0:
192,192,123523,1,0,0:0:0:0:
192,192,123700,1,0,0:0:0:0:
64,192,123876,128,2,124229:0:0:0:0:
320,192,123876,1,0,0:0:0:0:
448,192,124053,1,0,0:0:0:0:
192,192,124229,128,2,124582:0:0:0:0:
448,192,124229,1,8,0:0:0:0:
320,192,124229,1,0,0:0:0:0:
320,192,124406,1,0,0:0:0:0:
64,192,124582,128,2,125288:0:0:0:0:
448,192,124582,1,0,0:0:0:0:
320,192,124759,1,0,0:0:0:0:
448,192,124935,128,2,125288:0:0:0:0:
192,192,124935,1,8,0:0:0:0:
320,192,124935,1,0,0:0:0:0:
192,192,125112,1,0,0:0:0:0:
192,192,125288,128,2,125994:0:0:0:0:
320,192,125288,1,0,0:0:0:0:
448,192,125465,1,0,0:0:0:0:
320,192,125641,128,8,125994:0:0:0:0:
448,192,125641,1,2,0:0:0:0:
64,192,125641,1,0,0:0:0:0:
64,192,125818,1,0,0:0:0:0:
448,192,125994,1,2,0:0:0:0:
64,192,125994,1,0,0:0:0:0:
320,192,126170,1,0,0:0:0:0:
64,192,126347,128,2,126700:0:0:0:0:
192,192,126347,1,8,0:0:0:0:
448,192,126347,1,0,0:0:0:0:
448,192,126523,1,0,0:0:0:0:
192,192,126700,128,2,127053:0:0:0:0:
320,192,126700,1,0,0:0:0:0:
64,192,126876,1,0,0:0:0:0:
448,192,127053,128,2,127406:0:0:0:0:
64,192,127053,1,8,0:0:0:0:
320,192,127053,1,0,0:0:0:0:
192,192,127229,1,0,0:0:0:0:
64,192,127406,1,2,0:0:0:0:
192,192,127406,1,8,1:0:0:0:
320,192,127406,1,4,0:0:0:0:
320,192,127582,128,0,127759:0:0:0:0:
64,192,127759,1,2,0:0:0:0:
192,192,127759,1,8,1:0:0:0:
448,192,127759,1,0,0:0:0:0:
64,192,127935,128,0,128112:0:0:0:0:
192,192,128112,1,2,0:0:0:0:
320,192,128112,1,8,1:0:0:0:
448,192,128112,1,0,0:0:0:0:
448,192,128288,128,0,128465:0:0:0:0:
192,192,128465,1,2,0:0:0:0:
64,192,128465,1,8,1:0:0:0:
320,192,128465,1,0,0:0:0:0:
192,192,128641,128,0,128818:0:0:0:0:
64,192,128818,1,2,0:0:0:0:
320,192,128818,1,8,1:0:0:0:
448,192,128818,1,0,0:0:0:0:
448,192,128994,128,0,129170:0:0:0:0:
64,192,129170,1,2,0:0:0:0:
192,192,129170,1,8,1:0:0:0:
320,192,129170,1,0,0:0:0:0:
64,192,129347,128,0,129523:0:0:0:0:
192,192,129523,1,2,0:0:0:0:
320,192,129523,1,8,1:0:0:0:
448,192,129523,1,0,0:0:0:0:
320,192,129700,128,0,129876:0:0:0:0:
64,192,129876,1,2,0:0:0:0:
192,192,129876,1,8,1:0:0:0:
448,192,129876,1,0,0:0:0:0:
320,192,130053,1,8,1:0:0:0:
192,192,130141,1,8,1:0:0:0:
64,192,130229,1,8,1:0:0:0:
320,192,130229,1,2,0:0:0:0:
448,192,130229,128,0,130582:0:0:0:0:
192,192,130406,128,0,130582:0:0:0:0:
64,192,130582,128,2,130935:0:0:0:0:
320,192,130582,1,8,1:0:0:0:
448,192,130759,128,0,130935:0:0:0:0:
320,192,130935,128,8,131288:1:0:0:0:
192,192,130935,1,2,0:0:0:0:
64,192,131112,128,0,131288:0:0:0:0:
192,192,131288,128,2,131994:0:0:0:0:
448,192,131288,1,8,1:0:0:0:
320,192,131465,128,0,131641:0:0:0:0:
64,192,131641,1,8,1:0:0:0:
448,192,131641,1,2,0:0:0:0:
448,192,131818,128,0,131994:0:0:0:0:
64,192,131994,1,2,0:0:0:0:
320,192,131994,1,8,1:0:0:0:
64,192,132170,128,0,132347:0:0:0:0:
320,192,132347,1,2,0:0:0:0:
192,192,132347,1,8,1:0:0:0:
448,192,132347,1,0,0:0:0:0:
192,192,132523,1,8,1:0:0:0:
320,192,132612,1,8,1:0:0:0:
192,192,132700,1,2,0:0:0:0:
64,192,132700,1,8,1:0:0:0:
448,192,132700,1,0,0:0:0:0:
64,192,132876,1,8,1:0:0:0:
192,192,132965,1,8,1:0:0:0:
320,192,133053,1,2,0:0:0:0:
448,192,133053,1,8,1:0:0:0:
64,192,133141,1,8,1:0:0:0:
192,192,133141,1,0,0:0:0:0:
448,192,133229,1,8,1:0:0:0:
320,192,133229,1,0,0:0:0:0:
64,192,133318,1,8,1:0:0:0:
320,192,133406,1,8,1:0:0:0:
448,192,133406,1,0,0:0:0:0:
64,192,133494,1,8,1:0:0:0:
192,192,133494,1,0,0:0:0:0:
320,192,133582,1,8,1:0:0:0:
448,192,133582,1,0,0:0:0:0:
64,192,133670,1,8,1:0:0:0:
192,192,133759,1,8,1:0:0:0:
320,192,133759,1,0,0:0:0:0:
448,192,133847,1,8,1:0:0:0:
64,192,133847,1,0,0:0:0:0:
192,192,133935,1,8,1:0:0:0:
320,192,133935,1,0,0:0:0:0:
64,192,134023,1,8,1:0:0:0:
448,192,134023,1,0,0:0:0:0:
192,192,134112,1,2,0:0:0:0:
320,192,134112,128,0,134465:0:0:0:0:
64,192,134465,1,4,0:0:0:0:
192,192,134465,1,2,0:0:0:0:
320,192,134553,1,8,1:0:0:0:
448,192,134553,1,0,0:0:0:0:
64,192,134641,1,8,1:0:0:0:
192,192,134641,1,0,0:0:0:0:
448,192,134729,1,8,1:0:0:0:
64,192,134818,1,8,1:0:0:0:
192,192,134818,1,0,0:0:0:0:
320,192,134906,1,8,1:0:0:0:
448,192,134906,1,0,0:0:0:0:
64,192,134994,1,8,1:0:0:0:
192,192,134994,1,0,0:0:0:0:
320,192,135082,1,8,1:0:0:0:
64,192,135170,1,8,1:0:0:0:
448,192,135170,1,0,0:0:0:0:
192,192,135259,1,8,1:0:0:0:
320,192,135259,1,0,0:0:0:0:
64,192,135347,1,8,1:0:0:0:
448,192,135347,1,0,0:0:0:0:
320,192,135435,1,8,1:0:0:0:
448,192,135523,1,2,0:0:0:0:
64,192,135523,1,0,0:0:0:0:
192,192,135568,1,0,0:0:0:0:
320,192,135612,1,0,0:0:0:0:
448,192,135656,1,0,0:0:0:0:
64,192,135700,1,0,0:0:0:0:
192,192,135744,1,0,0:0:0:0:
320,192,135788,1,0,0:0:0:0:
448,192,135832,1,0,0:0:0:0:
64,192,135876,1,2,0:0:0:0:
192,192,135876,1,4,0:0:0:0:
320,192,135920,1,8,1:0:0:0:
448,192,135965,1,8,1:0:0:0:
64,192,136009,1,8,1:0:0:0:
192,192,136053,1,8,1:0:0:0:
448,192,136097,1,8,1:0:0:0:
320,192,136141,1,8,1:0:0:0:
192,192,136185,1,8,1:0:0:0:
64,192,136229,1,8,1:0:0:0:
448,192,136229,1,2,0:0:0:0:
320,192,136273,1,8,1:0:0:0:
192,192,136318,1,8,1:0:0:0:
64,192,136362,1,8,1:0:0:0:
320,192,136406,1,8,1:0:0:0:
448,192,136406,1,2,0:0:0:0:
192,192,136450,1,8,1:0:0:0:
64,192,136494,1,8,1:0:0:0:
448,192,136538,1,8,1:0:0:0:
192,192,136582,1,8,1:0:0:0:
320,192,136626,1,8,1:0:0:0:
448,192,136670,1,8,1:0:0:0:
64,192,136715,1,2,0:0:0:0:
192,192,136715,1,8,1:0:0:0:
320,192,136759,1,8,1:0:0:0:
448,192,136803,1,8,1:0:0:0:
64,192,136847,1,8,1:0:0:0:
192,192,136891,1,8,1:0:0:0:
320,192,136935,1,8,1:0:0:0:
448,192,136979,1,8,1:0:0:0:
64,192,137023,1,8,1:0:0:0:
192,192,137068,1,8,1:0:0:0:
448,192,137112,128,4,137288:0:0:0:0:
320,192,137112,128,2,137288:0:0:0:0:
64,192,137288,1,0,0:0:0:0:
192,192,137376,1,0,0:0:0:0:
448,192,137465,1,0,0:0:0:0:
192,192,137553,1,0,0:0:0:0:
64,192,137553,1,0,0:0:0:0:
448,192,137641,1,0,0:0:0:0:
320,192,137641,1,0,0:0:0:0:
64,192,137729,1,0,0:0:0:0:
320,192,137818,1,0,0:0:0:0:
192,192,137906,1,0,0:0:0:0:
64,192,137994,1,0,0:0:0:0:
320,192,137994,128,0,138347:0:0:0:0:
448,192,137994,128,0,138347:0:0:0:0:
64,192,138347,1,0,0:0:0:0:
192,192,138406,1,0,0:0:0:0:
320,192,138465,1,0,0:0:0:0:
64,192,138523,1,0,0:0:0:0:
448,192,138582,1,0,0:0:0:0:
320,192,138641,1,0,0:0:0:0:
192,192,138700,1,4,0:0:0:0:
64,192,138700,128,2,141523:0:0:0:0:
448,192,138876,128,0,139053:0:0:0:0:
192,192,139053,1,8,1:0:0:0:
320,192,139053,1,0,0:0:0:0:
320,192,139229,1,0,0:0:0:0:
320,192,139318,1,0,0:0:0:0:
192,192,139406,1,0,0:0:0:0:
320,192,139494,1,0,0:0:0:0:
448,192,139582,1,0,0:0:0:0:
448,192,139670,1,0,0:0:0:0:
320,192,139759,1,8,1:0:0:0:
320,192,139847,1,0,0:0:0:0:
192,192,139935,1,0,0:0:0:0:
192,192,140023,1,0,0:0:0:0:
448,192,140112,128,0,140200:0:0:0:0:
192,192,140200,1,0,0:0:0:0:
320,192,140288,1,0,0:0:0:0:
448,192,140376,128,0,140465:0:0:0:0:
320,192,140465,1,8,1:0:0:0:
192,192,140465,1,0,0:0:0:0:
448,192,140641,128,0,140729:0:0:0:0:
192,192,140729,1,0,0:0:0:0:
320,192,140818,128,0,140906:0:0:0:0:
192,192,140994,128,8,141082:1:0:0:0:
448,192,140994,1,0,0:0:0:0:
448,192,141170,128,0,141347:0:0:0:0:
192,192,141259,1,0,0:0:0:0:
320,192,141347,1,0,0:0:0:0:
192,192,141435,1,0,0:0:0:0:
448,192,141523,1,0,0:0:0:0:
320,192,141523,1,0,0:0:0:0:
448,192,141612,1,0,0:0:0:0:
192,192,141700,1,0,0:0:0:0:
192,192,141788,1,0,0:0:0:0:
64,192,141876,128,8,141965:1:0:0:0:
320,192,141876,1,0,0:0:0:0:
192,192,142053,1,0,0:0:0:0:
448,192,142053,128,0,142141:0:0:0:0:
320,192,142141,1,0,0:0:0:0:
192,192,142229,128,0,142318:0:0:0:0:
64,192,142318,1,0,0:0:0:0:
448,192,142318,1,0,0:0:0:0:
320,192,142406,128,0,142494:0:0:0:0:
448,192,142582,1,8,1:0:0:0:
192,192,142582,128,0,142670:0:0:0:0:
64,192,142759,1,0,0:0:0:0:
192,192,142803,1,0,0:0:0:0:
448,192,142847,1,0,0:0:0:0:
320,192,142891,1,0,0:0:0:0:
192,192,142935,1,0,0:0:0:0:
64,192,142935,128,0,143112:0:0:0:0:
448,192,143112,128,0,143288:0:0:0:0:
320,192,143200,1,0,0:0:0:0:
192,192,143288,128,8,143376:1:0:0:0:
64,192,143288,1,0,0:0:0:0:
320,192,143465,128,0,143641:0:0:0:0:
448,192,143465,1,0,0:0:0:0:
64,192,143641,1,8,1:0:0:0:
192,192,143641,1,0,0:0:0:0:
448,192,143729,1,0,0:0:0:0:
64,192,143818,1,0,0:0:0:0:
192,192,143906,1,8,1:0:0:0:
320,192,143906,1,0,0:0:0:0:
448,192,143994,1,0,0:0:0:0:
64,192,144082,1,0,0:0:0:0:
448,192,144170,128,8,144259:1:0:0:0:
320,192,144170,1,0,0:0:0:0:
192,192,144259,128,8,144347:1:0:0:0:
64,192,144259,1,0,0:0:0:0:
448,192,144347,1,0,0:0:0:0:
320,192,144347,128,0,144523:0:0:0:0:
64,192,144523,128,0,144612:0:0:0:0:
192,192,144612,1,0,0:0:0:0:
448,192,144700,128,8,144788:1:0:0:0:
320,192,144700,1,0,0:0:0:0:
64,192,144876,128,0,144965:0:0:0:0:
320,192,144876,1,0,0:0:0:0:
192,192,144965,128,8,145053:1:0:0:0:
448,192,144965,1,0,0:0:0:0:
64,192,145053,1,0,0:0:0:0:
320,192,145141,1,8,1:0:0:0:
448,192,145141,1,0,0:0:0:0:
192,192,145229,1,0,0:0:0:0:
192,192,145318,1,0,0:0:0:0:
320,192,145406,1,8,1:0:0:0:
64,192,145406,1,0,0:0:0:0:
320,192,145494,1,0,0:0:0:0:
448,192,145582,1,0,0:0:0:0:
448,192,145670,1,0,0:0:0:0:
64,192,145759,128,0,145847:0:0:0:0:
320,192,145847,1,0,0:0:0:0:
192,192,145935,1,0,0:0:0:0:
64,192,146023,128,0,146112:0:0:0:0:
320,192,146112,1,8,1:0:0:0:
448,192,146112,1,0,0:0:0:0:
192,192,146200,1,0,0:0:0:0:
64,192,146288,128,0,146376:0:0:0:0:
320,192,146376,1,0,0:0:0:0:
448,192,146465,128,0,146641:0:0:0:0:
192,192,146465,1,0,0:0:0:0:
320,192,146641,128,8,146818:1:0:0:0:
64,192,146641,1,0,0:0:0:0:
64,192,146818,128,8,147170:1:0:0:0:
192,192,146818,1,0,0:0:0:0:
448,192,146906,1,0,0:0:0:0:
320,192,146994,1,8,1:0:0:0:
192,192,146994,1,0,0:0:0:0:
448,192,147082,1,0,0:0:0:0:
320,192,147170,1,0,0:0:0:0:
64,192,147259,1,8,1:0:0:0:
192,192,147259,1,0,0:0:0:0:
448,192,147347,1,0,0:0:0:0:
320,192,147391,1,0,0:0:0:0:
64,192,147435,1,0,0:0:0:0:
192,192,147479,1,0,0:0:0:0:
320,192,147523,1,8,1:0:0:0:
448,192,147523,128,0,147700:0:0:0:0:
64,192,147700,1,0,0:0:0:0:
192,192,147700,1,0,0:0:0:0:
320,192,147788,1,8,1:0:0:0:
448,192,147788,1,0,0:0:0:0:
192,192,147876,128,0,147965:0:0:0:0:
64,192,147965,1,8,1:0:0:0:
320,192,147965,1,0,0:0:0:0:
448,192,148053,128,0,148141:0:0:0:0:
320,192,148141,128,0,148229:0:0:0:0:
64,192,148229,1,8,1:0:0:0:
192,192,148229,128,0,148406:0:0:0:0:
320,192,148406,1,8,1:0:0:0:
448,192,148450,1,8,1:0:0:0:
64,192,148494,1,8,1:0:0:0:
192,192,148538,1,8,1:0:0:0:
320,192,148582,1,0,0:0:0:0:
64,192,148670,1,8,1:0:0:0:
448,192,148670,1,0,0:0:0:0:
192,192,148759,1,8,1:0:0:0:
320,192,148759,1,0,0:0:0:0:
64,192,148847,1,0,0:0:0:0:
320,192,148935,1,0,0:0:0:0:
448,192,148935,128,0,149023:0:0:0:0:
64,192,149023,1,8,1:0:0:0:
192,192,149023,1,0,0:0:0:0:
320,192,149112,1,8,1:0:0:0:
448,192,149112,1,0,0:0:0:0:
64,192,149200,1,0,0:0:0:0:
192,192,149288,128,0,149376:0:0:0:0:
320,192,149376,1,0,0:0:0:0:
448,192,149376,1,0,0:0:0:0:
192,192,149465,1,8,1:0:0:0:
64,192,149465,128,0,149553:0:0:0:0:
448,192,149553,128,0,149641:0:0:0:0:
192,192,149641,128,0,149729:0:0:0:0:
448,192,149729,1,0,0:0:0:0:
320,192,149729,128,0,149818:0:0:0:0:
64,192,149818,128,0,149906:0:0:0:0:
448,192,149906,128,0,149994:0:0:0:0:
320,192,149906,1,0,0:0:0:0:
192,192,149994,1,4,0:0:0:0:
64,192,149994,1,2,0:0:0:0:
320,192,150170,1,0,0:0:0:0:
64,192,150259,1,0,0:0:0:0:
192,192,150347,1,8,1:0:0:0:
320,192,150347,1,0,0:0:0:0:
448,192,150347,1,0,0:0:0:0:
64,192,150435,1,0,0:0:0:0:
320,192,150523,1,0,0:0:0:0:
192,192,150612,1,0,0:0:0:0:
64,192,150700,1,2,0:0:0:0:
448,192,150700,1,0,0:0:0:0:
320,192,150788,1,0,0:0:0:0:
192,192,150788,1,0,0:0:0:0:
448,192,150876,1,0,0:0:0:0:
448,192,150965,1,0,0:0:0:0:
64,192,151053,1,8,1:0:0:0:
192,192,151053,1,0,0:0:0:0:
320,192,151053,1,0,0:0:0:0:
64,192,151141,1,0,0:0:0:0:
320,192,151229,1,0,0:0:0:0:
320,192,151318,1,0,0:0:0:0:
64,192,151406,1,0,0:0:0:0:
448,192,151406,1,2,0:0:0:0:
192,192,151494,1,0,0:0:0:0:
320,192,151494,1,0,0:0:0:0:
64,192,151582,1,0,0:0:0:0:
320,192,151670,1,0,0:0:0:0:
64,192,151759,1,8,1:0:0:0:
192,192,151759,1,0,0:0:0:0:
448,192,151759,1,0,0:0:0:0:
320,192,151847,1,0,0:0:0:0:
448,192,151935,1,0,0:0:0:0:
64,192,152023,1,0,0:0:0:0:
320,192,152112,1,2,0:0:0:0:
192,192,152112,1,0,0:0:0:0:
448,192,152200,1,0,0:0:0:0:
64,192,152200,1,0,0:0:0:0:
192,192,152288,1,0,0:0:0:0:
320,192,152376,1,0,0:0:0:0:
64,192,152465,1,8,1:0:0:0:
448,192,152465,1,0,0:0:0:0:
192,192,152465,1,0,0:0:0:0:
320,192,152553,1,0,0:0:0:0:
64,192,152641,1,0,0:0:0:0:
192,192,152641,1,2,0:0:0:0:
64,192,152729,1,0,0:0:0:0:
192,192,152729,1,2,0:0:0:0:
320,192,152818,1,2,0:0:0:0:
448,192,152818,1,0,0:0:0:0:
448,192,152906,1,0,0:0:0:0:
192,192,152994,1,0,0:0:0:0:
192,192,153082,1,0,0:0:0:0:
64,192,153170,1,8,1:0:0:0:
320,192,153170,1,0,0:0:0:0:
448,192,153170,1,0,0:0:0:0:
192,192,153259,1,0,0:0:0:0:
320,192,153347,1,0,0:0:0:0:
448,192,153435,1,0,0:0:0:0:
64,192,153523,1,0,0:0:0:0:
192,192,153523,1,2,0:0:0:0:
320,192,153612,1,0,0:0:0:0:
448,192,153612,1,0,0:0:0:0:
64,192,153700,1,0,0:0:0:0:
448,192,153788,1,0,0:0:0:0:
64,192,153876,1,8,1:0:0:0:
320,192,153876,1,0,0:0:0:0:
192,192,153876,1,0,0:0:0:0:
448,192,153965,1,0,0:0:0:0:
64,192,154053,1,0,0:0:0:0:
192,192,154097,1,0,0:0:0:0:
448,192,154141,1,0,0:0:0:0:
320,192,154185,1,0,0:0:0:0:
64,192,154229,1,2,0:0:0:0:
192,192,154229,1,0,0:0:0:0:
320,192,154318,1,0,0:0:0:0:
448,192,154318,1,0,0:0:0:0:
192,192,154406,1,0,0:0:0:0:
64,192,154494,1,0,0:0:0:0:
192,192,154582,1,8,1:0:0:0:
320,192,154582,1,0,0:0:0:0:
448,192,154582,1,0,0:0:0:0:
64,192,154670,1,0,0:0:0:0:
320,192,154759,1,0,0:0:0:0:
192,192,154847,1,0,0:0:0:0:
64,192,154935,1,0,0:0:0:0:
448,192,154935,1,2,0:0:0:0:
320,192,155023,1,0,0:0:0:0:
64,192,155112,1,0,0:0:0:0:
192,192,155112,1,2,0:0:0:0:
64,192,155200,1,0,0:0:0:0:
192,192,155200,1,2,0:0:0:0:
320,192,155288,1,8,1:0:0:0:
448,192,155288,1,0,0:0:0:0:
64,192,155376,1,0,0:0:0:0:
320,192,155465,1,2,0:0:0:0:
192,192,155465,1,0,0:0:0:0:
320,192,155553,1,2,0:0:0:0:
192,192,155553,1,0,0:0:0:0:
64,192,155641,1,2,0:0:0:0:
448,192,155641,1,0,0:0:0:0:
320,192,155729,1,8,1:0:0:0:
192,192,155818,1,8,1:0:0:0:
64,192,155818,1,0,0:0:0:0:
320,192,155906,1,8,1:0:0:0:
64,192,155994,1,8,1:0:0:0:
448,192,155994,1,2,0:0:0:0:
192,192,156082,1,8,1:0:0:0:
320,192,156170,1,8,1:0:0:0:
64,192,156170,1,0,0:0:0:0:
448,192,156259,1,8,1:0:0:0:
192,192,156347,1,2,0:0:0:0:
320,192,156347,1,8,1:0:0:0:
64,192,156435,1,8,1:0:0:0:
192,192,156523,1,8,1:0:0:0:
448,192,156523,1,0,0:0:0:0:
320,192,156612,1,8,1:0:0:0:
64,192,156700,1,8,1:0:0:0:
448,192,156700,1,2,0:0:0:0:
192,192,156788,1,8,1:0:0:0:
320,192,156876,1,8,1:0:0:0:
448,192,156876,1,0,0:0:0:0:
64,192,156965,1,8,1:0:0:0:
192,192,157053,1,2,0:0:0:0:
320,192,157053,128,8,157141:1:0:0:0:
448,192,157141,1,8,1:0:0:0:
64,192,157229,1,8,1:0:0:0:
192,192,157229,1,0,0:0:0:0:
320,192,157318,128,8,157406:1:0:0:0:
64,192,157406,1,2,0:0:0:0:
448,192,157406,1,8,1:0:0:0:
192,192,157494,1,8,1:0:0:0:
448,192,157582,1,8,1:0:0:0:
320,192,157582,128,0,157670:0:0:0:0:
64,192,157670,1,8,1:0:0:0:
448,192,157759,128,8,157935:1:0:0:0:
192,192,157759,1,2,0:0:0:0:
320,192,157847,1,8,1:0:0:0:
64,192,157935,128,8,158112:1:0:0:0:
192,192,157935,1,0,0:0:0:0:
320,192,158023,1,8,1:0:0:0:
192,192,158112,1,2,0:0:0:0:
448,192,158112,128,8,158465:1:0:0:0:
320,192,158200,1,8,1:0:0:0:
192,192,158288,1,8,1:0:0:0:
64,192,158288,1,0,0:0:0:0:
320,192,158376,1,8,1:0:0:0:
192,192,158465,1,2,0:0:0:0:
64,192,158465,1,8,1:0:0:0:
448,192,158553,1,8,1:0:0:0:
320,192,158553,1,2,0:0:0:0:
192,192,158641,1,2,0:0:0:0:
64,192,158641,1,8,1:0:0:0:
320,192,158729,1,2,0:0:0:0:
192,192,158818,1,8,1:0:0:0:
448,192,158818,1,2,0:0:0:0:
320,192,158906,1,2,0:0:0:0:
64,192,158906,1,8,1:0:0:0:
192,192,158994,1,8,1:0:0:0:
448,192,158994,1,2,0:0:0:0:
320,192,159082,1,2,0:0:0:0:
64,192,159170,1,8,1:0:0:0:
448,192,159170,1,2,0:0:0:0:
192,192,159259,1,2,0:0:0:0:
320,192,159259,1,8,1:0:0:0:
64,192,159347,1,2,0:0:0:0:
448,192,159347,1,8,1:0:0:0:
320,192,159435,1,2,0:0:0:0:
64,192,159523,1,2,0:0:0:0:
192,192,159523,1,8,1:0:0:0:
320,192,159568,1,2,0:0:0:0:
448,192,159612,1,2,0:0:0:0:
64,192,159656,1,2,0:0:0:0:
192,192,159700,1,2,0:0:0:0:
448,192,159744,1,2,0:0:0:0:
320,192,159788,1,2,0:0:0:0:
192,192,159832,1,2,0:0:0:0:
448,192,159876,1,2,0:0:0:0:
64,192,159876,128,0,160053:0:0:0:0:
192,192,160053,1,8,1:0:0:0:
320,192,160053,128,0,160229:0:0:0:0:
448,192,160229,128,8,160406:1:0:0:0:
64,192,160229,1,0,0:0:0:0:
64,192,160318,1,8,1:0:0:0:
320,192,160406,1,0,0:0:0:0:
64,192,160494,1,8,1:0:0:0:
192,192,160494,1,0,0:0:0:0:
320,192,160582,1,8,1:0:0:0:
448,192,160582,128,0,160759:0:0:0:0:
192,192,160670,1,0,0:0:0:0:
64,192,160759,128,0,160935:0:0:0:0:
448,192,160847,1,8,1:0:0:0:
320,192,160847,1,0,0:0:0:0:
192,192,160935,1,0,0:0:0:0:
192,192,161023,1,0,0:0:0:0:
320,192,161112,1,0,0:0:0:0:
320,192,161200,1,0,0:0:0:0:
64,192,161288,1,2,0:0:0:0:
192,192,161288,1,4,0:0:0:0:
448,192,161288,1,0,0:0:0:0:
320,192,161465,1,0,0:0:0:0:
192,192,161553,1,0,0:0:0:0:
64,192,161641,1,8,0:0:0:0:
320,192,161641,1,2,0:0:0:0:
448,192,161641,1,0,0:0:0:0:
320,192,161818,128,0,161906:0:0:0:0:
192,192,161906,128,0,161994:0:0:0:0:
448,192,161994,1,2,0:0:0:0:
64,192,161994,1,0,0:0:0:0:
320,192,162170,1,0,0:0:0:0:
448,192,162259,1,0,0:0:0:0:
64,192,162347,1,2,0:0:0:0:
192,192,162347,1,8,0:0:0:0:
320,192,162347,1,0,0:0:0:0:
448,192,162523,128,0,162612:0:0:0:0:
64,192,162612,128,0,162700:0:0:0:0:
192,192,162700,1,2,0:0:0:0:
320,192,162700,1,0,0:0:0:0:
64,192,162876,1,0,0:0:0:0:
192,192,162965,1,0,0:0:0:0:
64,192,163053,1,8,0:0:0:0:
320,192,163053,1,2,0:0:0:0:
448,192,163053,1,0,0:0:0:0:
320,192,163229,128,0,163318:0:0:0:0:
448,192,163318,128,0,163406:0:0:0:0:
64,192,163406,1,2,0:0:0:0:
192,192,163406,1,0,0:0:0:0:
320,192,163582,1,0,0:0:0:0:
64,192,163670,1,0,0:0:0:0:
192,192,163759,1,2,0:0:0:0:
320,192,163759,1,8,0:0:0:0:
448,192,163759,1,0,0:0:0:0:
64,192,163935,128,0,164023:0:0:0:0:
192,192,164023,128,0,164112:0:0:0:0:
448,192,164112,128,2,164465:0:0:0:0:
320,192,164112,1,0,0:0:0:0:
192,192,164288,1,0,0:0:0:0:
320,192,164465,128,2,164818:0:0:0:0:
192,192,164465,1,8,0:0:0:0:
64,192,164465,1,0,0:0:0:0:
192,192,164641,128,0,164729:0:0:0:0:
448,192,164729,128,0,164818:0:0:0:0:
64,192,164818,128,2,165170:0:0:0:0:
192,192,164818,1,0,0:0:0:0:
448,192,164994,1,0,0:0:0:0:
320,192,165170,1,8,0:0:0:0:
448,192,165170,1,2,0:0:0:0:
192,192,165170,128,0,165876:0:0:0:0:
64,192,165347,128,0,165435:0:0:0:0:
320,192,165435,128,0,165523:0:0:0:0:
448,192,165523,1,2,0:0:0:0:
64,192,165523,1,0,0:0:0:0:
320,192,165700,1,0,0:0:0:0:
448,192,165876,1,2,0:0:0:0:
64,192,165876,1,8,0:0:0:0:
320,192,165876,1,0,0:0:0:0:
320,192,166053,128,0,166141:0:0:0:0:
448,192,166141,128,0,166229:0:0:0:0:
64,192,166229,1,2,0:0:0:0:
192,192,166229,1,0,0:0:0:0:
320,192,166406,1,0,0:0:0:0:
192,192,166494,1,0,0:0:0:0:
320,192,166582,1,8,0:0:0:0:
448,192,166582,1,2,0:0:0:0:
64,192,166582,1,0,0:0:0:0:
192,192,166759,128,0,166847:0:0:0:0:
64,192,166847,128,0,166935:0:0:0:0:
320,192,166935,1,2,0:0:0:0:
448,192,166935,1,0,0:0:0:0:
192,192,167112,1,0,0:0:0:0:
320,192,167200,1,0,0:0:0:0:
448,192,167288,1,8,0:0:0:0:
64,192,167288,1,2,0:0:0:0:
192,192,167288,1,0,0:0:0:0:
320,192,167465,128,0,167553:0:0:0:0:
64,192,167553,128,0,167641:0:0:0:0:
448,192,167641,1,2,0:0:0:0:
192,192,167641,1,0,0:0:0:0:
320,192,167818,1,0,0:0:0:0:
192,192,167906,1,0,0:0:0:0:
64,192,167994,1,2,0:0:0:0:
320,192,167994,1,8,0:0:0:0:
448,192,167994,1,0,0:0:0:0:
448,192,168170,128,0,168259:0:0:0:0:
320,192,168259,128,0,168347:0:0:0:0:
192,192,168347,1,2,0:0:0:0:
64,192,168347,1,0,0:0:0:0:
448,192,168523,1,0,0:0:0:0:
64,192,168612,1,0,0:0:0:0:
192,192,168700,1,2,0:0:0:0:
448,192,168700,1,8,0:0:0:0:
320,192,168700,1,0,0:0:0:0:
448,192,168876,128,0,168965:0:0:0:0:
192,192,168965,128,0,169053:0:0:0:0:
64,192,169053,1,2,0:0:0:0:
320,192,169053,1,0,0:0:0:0:
192,192,169229,1,0,0:0:0:0:
448,192,169318,1,0,0:0:0:0:
320,192,169406,1,2,0:0:0:0:
192,192,169406,1,8,0:0:0:0:
64,192,169406,1,0,0:0:0:0:
64,192,169582,128,0,169670:0:0:0:0:
192,192,169670,128,0,169759:0:0:0:0:
320,192,169759,128,2,170112:0:0:0:0:
448,192,169759,1,0,0:0:0:0:
64,192,169935,1,0,0:0:0:0:
448,192,170112,128,8,170465:0:0:0:0:
64,192,170112,1,2,0:0:0:0:
192,192,170112,1,0,0:0:0:0:
192,192,170288,128,0,170376:0:0:0:0:
320,192,170376,128,0,170465:0:0:0:0:
192,192,170465,1,2,0:0:0:0:
64,192,170465,128,0,170818:0:0:0:0:
448,192,170641,1,0,0:0:0:0:
448,192,170818,1,8,0:0:0:0:
320,192,170818,1,2,0:0:0:0:
192,192,170818,128,0,171876:0:0:0:0:
320,192,170994,128,0,171082:0:0:0:0:
448,192,171082,128,0,171170:0:0:0:0:
64,192,171170,1,2,0:0:0:0:
320,192,171170,1,0,0:0:0:0:
448,192,171347,1,0,0:0:0:0:
320,192,171523,1,2,0:0:0:0:
448,192,171523,1,8,0:0:0:0:
64,192,171523,1,0,0:0:0:0:
320,192,171700,128,0,171788:0:0:0:0:
64,192,171788,128,0,171876:0:0:0:0:
448,192,171876,1,2,0:0:0:0:
320,192,171876,1,0,0:0:0:0:
448,192,172053,1,0,0:0:0:0:
192,192,172141,1,0,0:0:0:0:
448,192,172229,1,8,0:0:0:0:
320,192,172229,1,2,0:0:0:0:
64,192,172229,1,0,0:0:0:0:
192,192,172406,128,0,172494:0:0:0:0:
320,192,172494,128,0,172582:0:0:0:0:
64,192,172582,1,2,0:0:0:0:
192,192,172582,1,8,1:0:0:0:
448,192,172582,128,0,172935:0:0:0:0:
64,192,172935,1,2,0:0:0:0:
192,192,172935,1,8,1:0:0:0:
320,192,172935,1,4,0:0:0:0:
448,192,173112,128,0,173200:0:0:0:0:
192,192,173200,128,0,173288:0:0:0:0:
320,192,173288,1,8,1:0:0:0:
448,192,173288,1,2,0:0:0:0:
64,192,173288,1,0,0:0:0:0:
192,192,173465,1,0,0:0:0:0:
320,192,173553,1,0,0:0:0:0:
64,192,173641,1,2,0:0:0:0:
448,192,173641,1,8,1:0:0:0:
192,192,173641,1,0,0:0:0:0:
320,192,173818,128,0,173906:0:0:0:0:
64,192,173906,128,0,173994:0:0:0:0:
448,192,173994,1,2,0:0:0:0:
192,192,173994,1,8,1:0:0:0:
320,192,173994,1,0,0:0:0:0:
448,192,174170,1,0,0:0:0:0:
64,192,174259,1,0,0:0:0:0:
320,192,174347,1,2,0:0:0:0:
448,192,174347,1,8,1:0:0:0:
192,192,174347,1,0,0:0:0:0:
320,192,174523,128,0,174612:0:0:0:0:
448,192,174612,128,0,174700:0:0:0:0:
192,192,174700,1,2,0:0:0:0:
64,192,174700,1,8,1:0:0:0:
320,192,174700,1,0,0:0:0:0:
64,192,174876,1,0,0:0:0:0:
192,192,174965,1,0,0:0:0:0:
448,192,175053,1,8,1:0:0:0:
64,192,175053,1,2,0:0:0:0:
320,192,175053,1,0,0:0:0:0:
448,192,175229,1,8,1:0:0:0:
192,192,175229,128,0,175318:0:0:0:0:
320,192,175318,1,8,1:0:0:0:
64,192,175318,128,0,175406:0:0:0:0:
448,192,175406,128,2,175759:0:0:0:0:
192,192,175406,1,8,1:0:0:0:
320,192,175582,1,0,0:0:0:0:
64,192,175759,128,8,176112:1:0:0:0:
320,192,175759,1,2,0:0:0:0:
192,192,175759,1,0,0:0:0:0:
448,192,175935,128,0,176023:0:0:0:0:
320,192,176023,128,0,176112:0:0:0:0:
192,192,176112,128,8,176465:1:0:0:0:
448,192,176112,1,2,0:0:0:0:
64,192,176288,1,0,0:0:0:0:
320,192,176465,128,8,177523:1:0:0:0:
64,192,176465,1,2,0:0:0:0:
448,192,176465,1,0,0:0:0:0:
192,192,176641,128,0,176729:0:0:0:0:
448,192,176729,128,0,176818:0:0:0:0:
64,192,176818,1,2,0:0:0:0:
192,192,176818,1,8,1:0:0:0:
64,192,176994,1,0,0:0:0:0:
192,192,177170,1,2,0:0:0:0:
448,192,177170,1,8,1:0:0:0:
64,192,177170,1,0,0:0:0:0:
64,192,177347,128,0,177435:0:0:0:0:
448,192,177435,128,0,177523:0:0:0:0:
64,192,177523,1,2,0:0:0:0:
192,192,177523,1,8,1:0:0:0:
448,192,177700,1,8,1:0:0:0:
320,192,177700,1,0,0:0:0:0:
448,192,177788,1,8,1:0:0:0:
320,192,177788,1,0,0:0:0:0:
64,192,177876,1,2,0:0:0:0:
192,192,177876,1,8,1:0:0:0:
64,192,178053,1,8,1:0:0:0:
448,192,178053,1,0,0:0:0:0:
192,192,178141,1,0,0:0:0:0:
320,192,178229,1,8,1:0:0:0:
448,192,178229,1,2,0:0:0:0:
192,192,178318,1,8,1:0:0:0:
64,192,178318,1,0,0:0:0:0:
320,192,178406,1,8,1:0:0:0:
448,192,178406,1,0,0:0:0:0:
192,192,178494,1,8,1:0:0:0:
64,192,178582,1,2,0:0:0:0:
320,192,178582,1,8,0:0:0:0:
192,192,178670,1,8,1:0:0:0:
448,192,178670,1,0,0:0:0:0:
320,192,178759,1,8,1:0:0:0:
64,192,178759,1,0,0:0:0:0:
448,192,178847,1,8,1:0:0:0:
320,192,178935,1,8,1:0:0:0:
192,192,178935,1,2,0:0:0:0:
64,192,179023,1,8,1:0:0:0:
448,192,179023,1,0,0:0:0:0:
192,192,179112,1,8,1:0:0:0:
320,192,179112,1,0,0:0:0:0:
448,192,179200,1,8,1:0:0:0:
192,192,179288,1,2,0:0:0:0:
64,192,179288,1,8,0:0:0:0:
320,192,179376,1,8,1:0:0:0:
448,192,179376,1,0,0:0:0:0:
192,192,179465,1,8,1:0:0:0:
64,192,179465,1,0,0:0:0:0:
320,192,179553,1,8,1:0:0:0:
448,192,179641,1,8,1:0:0:0:
64,192,179641,1,2,0:0:0:0:
192,192,179729,1,8,1:0:0:0:
320,192,179729,1,0,0:0:0:0:
64,192,179818,1,8,1:0:0:0:
448,192,179818,1,0,0:0:0:0:
192,192,179906,1,8,1:0:0:0:
448,192,179994,1,8,0:0:0:0:
320,192,179994,1,2,0:0:0:0:
64,192,180082,1,8,1:0:0:0:
192,192,180082,1,0,0:0:0:0:
320,192,180170,1,8,1:0:0:0:
448,192,180170,1,0,0:0:0:0:
64,192,180259,1,8,1:0:0:0:
320,192,180347,1,8,1:0:0:0:
448,192,180347,1,2,0:0:0:0:
192,192,180391,1,8,1:0:0:0:
64,192,180435,1,8,1:0:0:0:
320,192,180479,1,8,1:0:0:0:
448,192,180523,1,8,1:0:0:0:
64,192,180568,1,8,1:0:0:0:
192,192,180612,1,8,1:0:0:0:
320,192,180656,1,8,1:0:0:0:
448,192,180700,1,8,1:0:0:0:
64,192,180700,1,2,0:0:0:0:
192,192,180744,1,8,1:0:0:0:
320,192,180788,1,8,1:0:0:0:
64,192,180832,1,8,1:0:0:0:
192,192,180876,1,8,1:0:0:0:
448,192,180920,1,8,1:0:0:0:
320,192,180965,1,8,1:0:0:0:
192,192,181009,1,8,1:0:0:0:
64,192,181053,128,4,181406:0:0:0:0:
448,192,181053,1,2,0:0:0:0:
448,192,181582,128,0,181935:0:0:0:0:
320,192,182112,128,0,182818:0:0:0:0:
192,192,182112,128,0,182465:0:0:0:0:
448,192,182465,128,0,183170:0:0:0:0:
64,192,182818,128,0,183876:0:0:0:0:
192,192,182818,128,0,183170:0:0:0:0:
320,192,183170,128,0,183523:0:0:0:0:
448,192,183523,128,0,183876:0:0:0:0:
192,192,183876,1,4,0:0:0:0:
320,192,183876,128,2,184053:0:0:0:0:
192,192,184229,128,0,184406:0:0:0:0:
320,192,184406,128,0,184582:0:0:0:0:
64,192,184406,1,0,0:0:0:0:
448,192,184759,128,0,184935:0:0:0:0:
64,192,185112,128,0,185641:0:0:0:0:
320,192,185112,1,0,0:0:0:0:
192,192,185465,1,0,0:0:0:0:
448,192,185641,1,0,0:0:0:0:
320,192,185994,128,0,186347:0:0:0:0:
192,192,186347,128,0,186700:0:0:0:0:
64,192,186347,1,0,0:0:0:0:
64,192,186700,128,0,187053:0:0:0:0:
448,192,186700,1,0,0:0:0:0:
320,192,186876,1,0,0:0:0:0:
448,192,187053,128,0,187406:0:0:0:0:
192,192,187053,1,0,0:0:0:0:
320,192,187406,128,0,187759:0:0:0:0:
64,192,187406,1,0,0:0:0:0:
448,192,187582,1,0,0:0:0:0:
192,192,187759,128,0,188112:0:0:0:0:
64,192,187759,1,0,0:0:0:0:
448,192,188112,1,0,0:0:0:0:
320,192,188288,1,0,0:0:0:0:
64,192,188465,128,0,188818:0:0:0:0:
192,192,188465,1,0,0:0:0:0:
192,192,188818,128,0,189170:0:0:0:0:
320,192,188818,1,0,0:0:0:0:
448,192,188994,1,0,0:0:0:0:
320,192,189170,128,0,189347:0:0:0:0:
64,192,189170,1,0,0:0:0:0:
64,192,189523,128,0,189700:0:0:0:0:
192,192,189523,1,0,0:0:0:0:
448,192,189876,128,0,190053:0:0:0:0:
320,192,190053,128,0,190229:0:0:0:0:
64,192,190053,1,0,0:0:0:0:
192,192,190406,128,0,190582:0:0:0:0:
64,192,190582,1,0,0:0:0:0:
448,192,190759,128,0,191112:0:0:0:0:
320,192,190759,1,0,0:0:0:0:
320,192,191112,1,0,0:0:0:0:
64,192,191288,128,0,191465:0:0:0:0:
192,192,191288,1,0,0:0:0:0:
192,192,191641,128,0,191818:0:0:0:0:
448,192,191818,1,0,0:0:0:0:
320,192,191994,128,0,192170:0:0:0:0:
192,192,191994,1,0,0:0:0:0:
64,192,192347,1,0,0:0:0:0:
448,192,192347,128,0,192700:0:0:0:0:
64,192,192612,1,0,0:0:0:0:
320,192,192700,128,0,192876:0:0:0:0:
64,192,192876,1,0,0:0:0:0:
64,192,193053,128,0,193406:0:0:0:0:
448,192,193141,1,0,0:0:0:0:
192,192,193406,128,0,193759:0:0:0:0:
448,192,193406,1,0,0:0:0:0:
64,192,193582,1,0,0:0:0:0:
448,192,193759,1,0,0:0:0:0:
64,192,193935,1,0,0:0:0:0:
448,192,194023,1,0,0:0:0:0:
192,192,194112,128,0,194465:0:0:0:0:
320,192,194112,1,0,0:0:0:0:
64,192,194288,1,0,0:0:0:0:
320,192,194465,128,0,194818:0:0:0:0:
448,192,194465,1,0,0:0:0:0:
192,192,194641,1,0,0:0:0:0:
448,192,194818,128,0,195170:0:0:0:0:
64,192,194818,1,0,0:0:0:0:
192,192,194994,1,0,0:0:0:0:
320,192,195170,1,2,0:0:0:0:
64,192,195170,1,0,0:0:0:0:
448,192,195347,1,0,0:0:0:0:
192,192,195523,1,2,0:0:0:0:
320,192,195700,1,0,0:0:0:0:
64,192,195876,1,8,0:0:0:0:
448,192,195876,1,0,0:0:0:0:
192,192,195876,1,0,0:0:0:0:
320,192,196053,1,0,0:0:0:0:
64,192,196229,1,0,0:0:0:0:
448,192,196406,1,0,0:0:0:0:
192,192,196582,1,2,0:0:0:0:
320,192,196582,1,0,0:0:0:0:
320,192,196759,1,0,0:0:0:0:
64,192,196935,1,2,0:0:0:0:
448,192,196935,1,0,0:0:0:0:
64,192,197112,1,0,0:0:0:0:
320,192,197288,1,8,0:0:0:0:
448,192,197288,1,0,0:0:0:0:
192,192,197288,1,0,0:0:0:0:
64,192,197465,1,0,0:0:0:0:
320,192,197641,1,0,0:0:0:0:
192,192,197818,1,0,0:0:0:0:
448,192,197994,128,2,198347:0:0:0:0:
320,192,197994,1,0,0:0:0:0:
64,192,198170,1,0,0:0:0:0:
192,192,198347,128,2,198700:0:0:0:0:
320,192,198347,1,0,0:0:0:0:
64,192,198523,1,0,0:0:0:0:
320,192,198700,128,8,199053:0:0:0:0:
448,192,198700,1,0,0:0:0:0:
64,192,198700,1,0,0:0:0:0:
192,192,198876,1,0,0:0:0:0:
64,192,199053,128,0,199759:0:0:0:0:
448,192,199053,1,0,0:0:0:0:
192,192,199229,1,0,0:0:0:0:
320,192,199406,1,2,0:0:0:0:
448,192,199406,1,0,0:0:0:0:
448,192,199582,1,0,0:0:0:0:
192,192,199759,1,2,0:0:0:0:
320,192,199759,1,0,0:0:0:0:
320,192,199935,1,0,0:0:0:0:
192,192,200112,1,8,0:0:0:0:
448,192,200112,1,0,0:0:0:0:
64,192,200112,1,0,0:0:0:0:
64,192,200288,1,0,0:0:0:0:
320,192,200465,1,0,0:0:0:0:
448,192,200641,1,0,0:0:0:0:
64,192,200818,1,2,0:0:0:0:
192,192,200818,128,0,200906:0:0:0:0:
64,192,200994,1,0,0:0:0:0:
320,192,201082,128,0,201170:0:0:0:0:
448,192,201170,1,2,0:0:0:0:
192,192,201170,1,0,0:0:0:0:
64,192,201347,128,0,201435:0:0:0:0:
192,192,201523,1,8,0:0:0:0:
320,192,201523,1,0,0:0:0:0:
448,192,201523,1,0,0:0:0:0:
448,192,201612,128,0,201700:0:0:0:0:
64,192,201700,1,0,0:0:0:0:
64,192,201876,1,0,0:0:0:0:
192,192,201876,128,0,201965:0:0:0:0:
320,192,202053,1,0,0:0:0:0:
320,192,202229,1,2,0:0:0:0:
448,192,202229,1,0,0:0:0:0:
64,192,202229,128,0,202318:0:0:0:0:
448,192,202406,1,0,0:0:0:0:
320,192,202494,128,0,202582:0:0:0:0:
192,192,202582,1,2,0:0:0:0:
64,192,202582,1,0,0:0:0:0:
64,192,202759,1,0,0:0:0:0:
448,192,202759,128,0,202847:0:0:0:0:
448,192,202935,1,8,0:0:0:0:
320,192,202935,1,0,0:0:0:0:
192,192,202935,1,0,0:0:0:0:
64,192,203112,1,0,0:0:0:0:
192,192,203288,128,0,203376:0:0:0:0:
448,192,203465,1,0,0:0:0:0:
64,192,203641,128,2,205053:0:0:0:0:
320,192,203641,1,0,0:0:0:0:
192,192,203906,128,0,203994:0:0:0:0:
448,192,203994,1,0,0:0:0:0:
320,192,204170,128,0,204259:0:0:0:0:
192,192,204347,1,0,0:0:0:0:
448,192,204435,128,0,204523:0:0:0:0:
192,192,204523,128,0,204876:0:0:0:0:
448,192,204876,128,0,205053:0:0:0:0:
320,192,205053,128,0,205759:0:0:0:0:
192,192,205053,128,0,205406:0:0:0:0:
448,192,205406,128,0,205759:0:0:0:0:
64,192,205759,128,8,205935:1:0:0:0:
192,192,205759,1,0,0:0:0:0:
320,192,205935,1,8,1:0:0:0:
448,192,205935,1,0,0:0:0:0:
192,192,205935,128,0,206023:0:0:0:0:
64,192,206023,128,0,206112:0:0:0:0:
192,192,206112,1,8,1:0:0:0:
320,192,206112,128,0,206200:0:0:0:0:
448,192,206200,128,0,206288:0:0:0:0:
192,192,206288,128,8,206376:1:0:0:0:
320,192,206376,128,0,206465:0:0:0:0:
192,192,206465,1,2,0:0:0:0:
448,192,206465,1,4,0:0:0:0:
64,192,206465,1,0,0:0:0:0:
64,192,206641,128,0,206729:0:0:0:0:
192,192,206729,128,0,206818:0:0:0:0:
448,192,206818,1,8,1:0:0:0:
320,192,206818,1,0,0:0:0:0:
64,192,206906,128,0,206994:0:0:0:0:
448,192,206994,128,0,207082:0:0:0:0:
192,192,207170,128,8,207259:1:0:0:0:
64,192,207170,1,0,0:0:0:0:
320,192,207259,128,0,207347:0:0:0:0:
64,192,207435,128,0,207523:0:0:0:0:
192,192,207523,1,8,1:0:0:0:
448,192,207523,1,0,0:0:0:0:
320,192,207612,128,0,207700:0:0:0:0:
448,192,207700,128,0,207788:0:0:0:0:
192,192,207876,128,8,207965:1:0:0:0:
320,192,207876,1,0,0:0:0:0:
64,192,208053,128,0,208141:0:0:0:0:
320,192,208141,128,0,208229:0:0:0:0:
64,192,208229,1,8,1:0:0:0:
192,192,208229,1,0,0:0:0:0:
448,192,208318,128,0,208406:0:0:0:0:
192,192,208406,128,0,208494:0:0:0:0:
448,192,208582,128,8,208670:1:0:0:0:
64,192,208582,1,0,0:0:0:0:
192,192,208670,128,0,208759:0:0:0:0:
320,192,208759,128,0,208847:0:0:0:0:
448,192,208847,128,0,208935:0:0:0:0:
192,192,208935,1,8,1:0:0:0:
64,192,208935,128,0,209023:0:0:0:0:
320,192,209023,128,0,209112:0:0:0:0:
192,192,209112,128,0,209200:0:0:0:0:
64,192,209200,128,0,209288:0:0:0:0:
448,192,209288,128,8,209376:1:0:0:0:
320,192,209288,1,0,0:0:0:0:
448,192,209465,128,0,209553:0:0:0:0:
64,192,209553,128,0,209641:0:0:0:0:
320,192,209641,1,8,1:0:0:0:
192,192,209641,1,0,0:0:0:0:
448,192,209729,128,0,209818:0:0:0:0:
320,192,209818,128,0,209906:0:0:0:0:
192,192,209994,128,8,210082:1:0:0:0:
64,192,209994,1,0,0:0:0:0:
320,192,210082,128,0,210170:0:0:0:0:
448,192,210259,128,0,210347:0:0:0:0:
192,192,210347,1,8,1:0:0:0:
320,192,210347,1,0,0:0:0:0:
64,192,210435,128,0,210523:0:0:0:0:
320,192,210523,128,0,210612:0:0:0:0:
192,192,210700,128,8,210788:1:0:0:0:
448,192,210700,1,0,0:0:0:0:
64,192,210876,128,0,210965:0:0:0:0:
448,192,210965,128,0,211053:0:0:0:0:
64,192,211053,1,8,1:0:0:0:
192,192,211053,1,0,0:0:0:0:
320,192,211141,128,0,211229:0:0:0:0:
448,192,211229,128,0,211318:0:0:0:0:
64,192,211406,128,8,211494:1:0:0:0:
192,192,211406,1,0,0:0:0:0:
320,192,211494,128,0,211582:0:0:0:0:
192,192,211582,128,0,211670:0:0:0:0:
448,192,211670,128,0,211759:0:0:0:0:
320,192,211759,128,8,211847:1:0:0:0:
64,192,211759,1,0,0:0:0:0:
192,192,211847,128,0,211935:0:0:0:0:
64,192,211935,128,0,212023:0:0:0:0:
320,192,212023,128,0,212112:0:0:0:0:
192,192,212112,1,8,1:0:0:0:
448,192,212112,128,0,212200:0:0:0:0:
192,192,212288,128,0,212376:0:0:0:0:
320,192,212376,128,0,212465:0:0:0:0:
448,192,212465,1,8,1:0:0:0:
192,192,212465,1,0,0:0:0:0:
64,192,212553,128,0,212641:0:0:0:0:
448,192,212641,128,0,212729:0:0:0:0:
320,192,212818,128,8,212906:1:0:0:0:
64,192,212818,1,0,0:0:0:0:
192,192,212906,128,0,212994:0:0:0:0:
64,192,213082,128,0,213170:0:0:0:0:
320,192,213170,1,8,1:0:0:0:
448,192,213170,1,0,0:0:0:0:
192,192,213259,128,0,213347:0:0:0:0:
64,192,213347,128,0,213435:0:0:0:0:
192,192,213523,128,8,213612:1:0:0:0:
448,192,213523,1,0,0:0:0:0:
320,192,213700,128,0,213788:0:0:0:0:
192,192,213788,128,0,213876:0:0:0:0:
448,192,213876,1,8,1:0:0:0:
64,192,213876,1,0,0:0:0:0:
320,192,213965,128,0,214053:0:0:0:0:
448,192,214053,128,0,214141:0:0:0:0:
448,192,214229,128,8,214318:1:0:0:0:
64,192,214229,1,0,0:0:0:0:
320,192,214318,128,0,214406:0:0:0:0:
192,192,214406,128,0,214494:0:0:0:0:
64,192,214494,128,0,214582:0:0:0:0:
320,192,214582,128,8,214670:1:0:0:0:
192,192,214582,1,0,0:0:0:0:
448,192,214670,128,0,214759:0:0:0:0:
192,192,214759,128,0,214847:0:0:0:0:
64,192,214847,128,0,214935:0:0:0:0:
320,192,214935,128,8,215023:1:0:0:0:
448,192,214935,1,0,0:0:0:0:
64,192,215112,128,0,215200:0:0:0:0:
320,192,215200,128,0,215288:0:0:0:0:
448,192,215288,128,8,215376:1:0:0:0:
192,192,215288,1,0,0:0:0:0:
64,192,215465,128,0,215553:0:0:0:0:
192,192,215553,128,0,215641:0:0:0:0:
448,192,215641,1,8,1:0:0:0:
320,192,215641,1,0,0:0:0:0:
192,192,215729,128,0,215818:0:0:0:0:
64,192,215818,128,0,215906:0:0:0:0:
320,192,215906,128,0,215994:0:0:0:0:
448,192,215994,128,8,216082:1:0:0:0:
192,192,215994,1,0,0:0:0:0:
64,192,216170,128,0,216259:0:0:0:0:
192,192,216259,128,0,216347:0:0:0:0:
320,192,216347,1,8,1:0:0:0:
64,192,216347,1,0,0:0:0:0:
448,192,216435,128,0,216523:0:0:0:0:
64,192,216523,128,0,216612:0:0:0:0:
320,192,216612,1,8,1:0:0:0:
448,192,216612,1,0,0:0:0:0:
192,192,216700,128,0,216788:0:0:0:0:
320,192,216788,128,0,216876:0:0:0:0:
448,192,216876,128,8,216965:1:0:0:0:
192,192,216876,1,0,0:0:0:0:
64,192,216965,128,0,217053:0:0:0:0:
192,192,217053,128,0,217141:0:0:0:0:
448,192,217141,128,8,217229:1:0:0:0:
64,192,217141,1,0,0:0:0:0:
320,192,217229,128,0,217318:0:0:0:0:
192,192,217318,128,0,217406:0:0:0:0:
64,192,217406,1,8,1:0:0:0:
320,192,217494,1,8,1:0:0:0:
64,192,217582,1,8,1:0:0:0:
320,192,217670,1,8,1:0:0:0:
192,192,217759,1,2,0:0:0:0:
64,192,217759,1,4,0:0:0:0:
448,192,217759,1,0,0:0:0:0:
320,192,217847,1,0,0:0:0:0:
64,192,217935,1,0,0:0:0:0:
192,192,217935,1,0,0:0:0:0:
448,192,218023,1,0,0:0:0:0:
192,192,218112,1,8,0:0:0:0:
320,192,218112,1,0,0:0:0:0:
64,192,218200,1,0,0:0:0:0:
448,192,218288,1,0,0:0:0:0:
320,192,218288,1,0,0:0:0:0:
64,192,218376,1,0,0:0:0:0:
192,192,218465,1,2,0:0:0:0:
448,192,218465,1,0,0:0:0:0:
320,192,218553,1,0,0:0:0:0:
64,192,218641,1,0,0:0:0:0:
192,192,218641,1,0,0:0:0:0:
448,192,218729,1,0,0:0:0:0:
64,192,218818,1,8,0:0:0:0:
192,192,218818,1,0,0:0:0:0:
64,192,218906,1,0,0:0:0:0:
192,192,218906,1,0,0:0:0:0:
320,192,218994,1,0,0:0:0:0:
448,192,218994,1,0,0:0:0:0:
64,192,219082,1,0,0:0:0:0:
192,192,219170,1,2,0:0:0:0:
320,192,219170,1,0,0:0:0:0:
448,192,219259,1,0,0:0:0:0:
192,192,219347,1,0,0:0:0:0:
64,192,219347,1,0,0:0:0:0:
320,192,219435,1,0,0:0:0:0:
64,192,219523,1,8,0:0:0:0:
448,192,219523,1,0,0:0:0:0:
192,192,219612,1,0,0:0:0:0:
320,192,219700,1,0,0:0:0:0:
448,192,219700,1,0,0:0:0:0:
192,192,219788,1,0,0:0:0:0:
64,192,219876,128,2,220053:0:0:0:0:
448,192,219876,128,0,220229:0:0:0:0:
320,192,219876,1,0,0:0:0:0:
192,192,220053,128,0,220406:0:0:0:0:
320,192,220229,128,8,220582:0:0:0:0:
64,192,220229,128,0,220406:0:0:0:0:
448,192,220406,128,0,220582:0:0:0:0:
192,192,220582,1,2,0:0:0:0:
64,192,220582,1,0,0:0:0:0:
448,192,220670,1,0,0:0:0:0:
320,192,220759,1,0,0:0:0:0:
192,192,220759,1,0,0:0:0:0:
64,192,220847,1,0,0:0:0:0:
448,192,220935,1,8,0:0:0:0:
320,192,220935,1,0,0:0:0:0:
192,192,221023,1,0,0:0:0:0:
64,192,221112,1,0,0:0:0:0:
448,192,221112,1,0,0:0:0:0:
320,192,221200,1,0,0:0:0:0:
192,192,221288,1,2,0:0:0:0:
448,192,221288,1,0,0:0:0:0:
64,192,221376,1,0,0:0:0:0:
192,192,221465,1,0,0:0:0:0:
320,192,221465,1,0,0:0:0:0:
448,192,221553,1,0,0:0:0:0:
64,192,221641,1,8,0:0:0:0:
192,192,221641,1,0,0:0:0:0:
64,192,221729,1,0,0:0:0:0:
192,192,221729,1,0,0:0:0:0:
320,192,221818,1,0,0:0:0:0:
448,192,221818,1,0,0:0:0:0:
64,192,221906,1,0,0:0:0:0:
448,192,221994,128,2,222170:0:0:0:0:
192,192,221994,1,0,0:0:0:0:
320,192,221994,1,0,0:0:0:0:
64,192,222082,1,0,0:0:0:0:
320,192,222170,1,0,0:0:0:0:
64,192,222259,1,0,0:0:0:0:
448,192,222347,128,8,222523:0:0:0:0:
320,192,222347,1,0,0:0:0:0:
192,192,222347,1,0,0:0:0:0:
64,192,222435,1,0,0:0:0:0:
320,192,222523,1,0,0:0:0:0:
64,192,222612,1,0,0:0:0:0:
320,192,222700,1,2,0:0:0:0:
192,192,222700,128,0,222876:0:0:0:0:
448,192,222788,1,0,0:0:0:0:
64,192,222876,1,0,0:0:0:0:
448,192,222965,1,0,0:0:0:0:
64,192,223053,1,8,0:0:0:0:
192,192,223053,1,0,0:0:0:0:
320,192,223141,1,0,0:0:0:0:
192,192,223229,1,0,0:0:0:0:
448,192,223318,1,0,0:0:0:0:
64,192,223406,1,2,0:0:0:0:
320,192,223406,1,0,0:0:0:0:
192,192,223494,1,2,0:0:0:0:
448,192,223494,1,0,0:0:0:0:
64,192,223582,1,2,0:0:0:0:
320,192,223582,1,0,0:0:0:0:
448,192,223670,1,2,0:0:0:0:
320,192,223759,1,2,0:0:0:0:
192,192,223759,1,0,0:0:0:0:
64,192,223847,1,2,0:0:0:0:
448,192,223847,1,0,0:0:0:0:
192,192,223935,1,2,0:0:0:0:
320,192,223935,1,0,0:0:0:0:
64,192,224023,1,2,0:0:0:0:
320,192,224112,1,2,0:0:0:0:
448,192,224112,1,0,0:0:0:0:
64,192,224200,1,2,0:0:0:0:
192,192,224200,1,0,0:0:0:0:
320,192,224288,1,2,0:0:0:0:
448,192,224288,1,0,0:0:0:0:
192,192,224376,1,2,0:0:0:0:
64,192,224465,1,2,0:0:0:0:
448,192,224465,1,0,0:0:0:0:
192,192,224509,1,2,0:0:0:0:
320,192,224553,1,2,0:0:0:0:
448,192,224597,1,2,0:0:0:0:
64,192,224641,1,2,0:0:0:0:
192,192,224685,1,2,0:0:0:0:
320,192,224729,1,2,0:0:0:0:
448,192,224773,1,2,0:0:0:0:
64,192,224818,1,2,0:0:0:0:
192,192,224818,1,0,0:0:0:0:
320,192,224906,1,2,0:0:0:0:
448,192,224906,1,0,0:0:0:0:
64,192,224994,1,2,0:0:0:0:
192,192,224994,1,0,0:0:0:0:
320,192,225082,1,2,0:0:0:0:
64,192,225170,1,2,0:0:0:0:
448,192,225170,1,0,0:0:0:0:
192,192,225259,1,2,0:0:0:0:
320,192,225259,1,0,0:0:0:0:
64,192,225347,1,2,0:0:0:0:
448,192,225347,1,0,0:0:0:0:
320,192,225435,1,2,0:0:0:0:
64,192,225523,1,2,0:0:0:0:
192,192,225523,1,0,0:0:0:0:
320,192,225612,1,2,0:0:0:0:
448,192,225612,1,0,0:0:0:0:
64,192,225700,1,2,0:0:0:0:
192,192,225700,1,0,0:0:0:0:
448,192,225788,1,2,0:0:0:0:
64,192,225876,1,2,0:0:0:0:
192,192,225876,1,0,0:0:0:0:
320,192,225920,1,2,0:0:0:0:
448,192,225965,1,2,0:0:0:0:
64,192,226009,1,2,0:0:0:0:
192,192,226053,1,2,0:0:0:0:
320,192,226097,1,2,0:0:0:0:
448,192,226141,1,2,0:0:0:0:
64,192,226185,1,2,0:0:0:0:
192,192,226229,1,2,0:0:0:0:
320,192,226229,1,0,0:0:0:0:
448,192,226273,1,2,0:0:0:0:
64,192,226318,1,2,0:0:0:0:
192,192,226362,1,2,0:0:0:0:
448,192,226406,1,2,0:0:0:0:
320,192,226450,1,2,0:0:0:0:
64,192,226494,1,2,0:0:0:0:
192,192,226538,1,2,0:0:0:0:
448,192,226582,1,2,0:0:0:0:
320,192,226626,1,2,0:0:0:0:
192,192,226670,1,2,0:0:0:0:
64,192,226715,1,2,0:0:0:0:
320,192,226759,1,2,0:0:0:0:
448,192,226803,1,2,0:0:0:0:
192,192,226847,1,2,0:0:0:0:
64,192,226891,1,2,0:0:0:0:
320,192,226935,1,2,0:0:0:0:
448,192,226979,1,2,0:0:0:0:
192,192,227023,1,2,0:0:0:0:
64,192,227068,1,2,0:0:0:0:
448,192,227112,1,2,0:0:0:0:
320,192,227156,1,2,0:0:0:0:
192,192,227200,1,2,0:0:0:0:
64,192,227244,1,2,0:0:0:0:
448,192,227288,1,2,0:0:0:0:
192,192,227332,1,2,0:0:0:0:
320,192,227376,1,2,0:0:0:0:
448,192,227420,1,2,0:0:0:0:
64,192,227465,1,2,0:0:0:0:
192,192,227509,1,2,0:0:0:0:
320,192,227553,1,2,0:0:0:0:
448,192,227597,1,2,0:0:0:0:
192,192,227641,1,2,0:0:0:0:
64,192,227641,128,0,227729:0:0:0:0:
320,192,227818,128,0,227906:0:0:0:0:
192,192,227906,128,0,227994:0:0:0:0:
64,192,227906,1,0,0:0:0:0:
448,192,227994,1,0,0:0:0:0:
64,192,228082,128,0,228170:0:0:0:0:
320,192,228082,1,0,0:0:0:0:
192,192,228170,1,0,0:0:0:0:
448,192,228259,128,0,228347:0:0:0:0:
320,192,228259,1,0,0:0:0:0:
64,192,228347,128,0,228700:0:0:0:0:
192,192,228347,128,0,228435:0:0:0:0:
320,192,228435,128,0,228523:0:0:0:0:
448,192,228523,128,0,228612:0:0:0:0:
192,192,228612,128,0,228700:0:0:0:0:
448,192,228700,128,0,229053:0:0:0:0:
320,192,228700,128,0,228876:0:0:0:0:
64,192,228788,1,0,0:0:0:0:
192,192,228876,1,0,0:0:0:0:
320,192,228965,1,0,0:0:0:0:
192,192,229053,128,4,229141:0:0:0:0:
64,192,229053,1,2,0:0:0:0:
448,192,229229,128,0,229318:0:0:0:0:
64,192,229318,128,0,229406:0:0:0:0:
192,192,229406,1,2,0:0:0:0:
320,192,229406,1,8,0:0:0:0:
64,192,229494,128,0,229582:0:0:0:0:
192,192,229582,128,0,229670:0:0:0:0:
320,192,229759,128,2,229847:0:0:0:0:
448,192,229759,1,0,0:0:0:0:
192,192,229847,128,0,229935:0:0:0:0:
64,192,229935,1,0,0:0:0:0:
448,192,230023,128,0,230112:0:0:0:0:
192,192,230112,1,2,0:0:0:0:
320,192,230112,1,8,0:0:0:0:
64,192,230200,128,0,230288:0:0:0:0:
320,192,230288,128,0,230376:0:0:0:0:
192,192,230465,128,2,230553:0:0:0:0:
448,192,230465,1,0,0:0:0:0:
320,192,230641,128,0,230729:0:0:0:0:
448,192,230729,128,0,230818:0:0:0:0:
192,192,230818,1,8,0:0:0:0:
64,192,230818,1,2,0:0:0:0:
320,192,230906,128,0,230994:0:0:0:0:
192,192,230994,128,0,231082:0:0:0:0:
64,192,231170,128,2,231523:0:0:0:0:
448,192,231170,128,0,231259:0:0:0:0:
320,192,231259,128,0,231347:0:0:0:0:
192,192,231347,128,0,231435:0:0:0:0:
320,192,231435,128,0,231523:0:0:0:0:
448,192,231523,128,8,231876:0:0:0:0:
192,192,231523,128,2,231612:0:0:0:0:
64,192,231612,128,0,231700:0:0:0:0:
320,192,231700,128,0,231788:0:0:0:0:
192,192,231788,128,0,231876:0:0:0:0:
320,192,231876,1,2,0:0:0:0:
64,192,231876,128,0,231965:0:0:0:0:
320,192,232053,128,0,232141:0:0:0:0:
192,192,232141,128,0,232229:0:0:0:0:
448,192,232229,1,2,0:0:0:0:
320,192,232229,1,8,0:0:0:0:
64,192,232318,128,0,232406:0:0:0:0:
448,192,232406,128,0,232494:0:0:0:0:
192,192,232582,128,2,232670:0:0:0:0:
64,192,232582,1,0,0:0:0:0:
320,192,232670,128,0,232759:0:0:0:0:
448,192,232759,1,0,0:0:0:0:
64,192,232847,128,0,232935:0:0:0:0:
320,192,232935,1,8,0:0:0:0:
448,192,232935,1,2,0:0:0:0:
192,192,233023,128,0,233112:0:0:0:0:
448,192,233112,128,0,233200:0:0:0:0:
320,192,233288,128,2,233376:0:0:0:0:
64,192,233288,1,0,0:0:0:0:
192,192,233465,128,0,233553:0:0:0:0:
448,192,233553,128,0,233641:0:0:0:0:
64,192,233641,1,2,0:0:0:0:
320,192,233641,1,8,0:0:0:0:
192,192,233729,128,0,233818:0:0:0:0:
320,192,233818,128,0,233906:0:0:0:0:
448,192,233994,128,2,234347:0:0:0:0:
64,192,233994,128,0,234082:0:0:0:0:
192,192,234082,128,0,234170:0:0:0:0:
320,192,234170,128,0,234259:0:0:0:0:
192,192,234259,128,0,234347:0:0:0:0:
320,192,234347,128,8,234435:0:0:0:0:
64,192,234347,128,2,234700:0:0:0:0:
448,192,234435,128,0,234523:0:0:0:0:
192,192,234523,128,0,234612:0:0:0:0:
320,192,234612,128,0,234700:0:0:0:0:
192,192,234700,1,2,0:0:0:0:
448,192,234700,128,0,234788:0:0:0:0:
64,192,234876,128,0,234965:0:0:0:0:
192,192,234965,128,0,235053:0:0:0:0:
320,192,235053,1,8,0:0:0:0:
448,192,235053,1,2,0:0:0:0:
64,192,235141,128,0,235229:0:0:0:0:
448,192,235229,128,0,235318:0:0:0:0:
448,192,235406,128,2,235494:0:0:0:0:
192,192,235406,1,0,0:0:0:0:
64,192,235494,128,0,235582:0:0:0:0:
320,192,235582,1,0,0:0:0:0:
192,192,235670,128,0,235759:0:0:0:0:
64,192,235759,1,2,0:0:0:0:
320,192,235759,1,8,0:0:0:0:
448,192,235847,128,0,235935:0:0:0:0:
320,192,235935,128,0,236023:0:0:0:0:
64,192,236112,1,2,0:0:0:0:
448,192,236112,128,0,236200:0:0:0:0:
192,192,236288,128,0,236376:0:0:0:0:
64,192,236376,128,0,236465:0:0:0:0:
448,192,236465,1,8,0:0:0:0:
320,192,236465,1,2,0:0:0:0:
192,192,236553,128,0,236641:0:0:0:0:
320,192,236641,128,0,236729:0:0:0:0:
320,192,236818,128,2,237170:0:0:0:0:
64,192,236818,128,0,236906:0:0:0:0:
192,192,236906,128,0,236994:0:0:0:0:
448,192,236994,128,0,237082:0:0:0:0:
64,192,237082,128,0,237170:0:0:0:0:
192,192,237170,128,2,237523:0:0:0:0:
448,192,237170,128,8,237259:0:0:0:0:
320,192,237259,128,0,237347:0:0:0:0:
64,192,237347,128,0,237435:0:0:0:0:
448,192,237435,128,0,237523:0:0:0:0:
320,192,237523,128,2,237612:0:0:0:0:
64,192,237523,1,0,0:0:0:0:
448,192,237612,1,0,0:0:0:0:
192,192,237700,128,0,237788:0:0:0:0:
320,192,237788,128,0,237876:0:0:0:0:
64,192,237876,1,8,0:0:0:0:
448,192,237876,128,2,237965:0:0:0:0:
320,192,238053,128,0,238141:0:0:0:0:
448,192,238141,128,0,238229:0:0:0:0:
320,192,238229,1,2,0:0:0:0:
64,192,238229,1,0,0:0:0:0:
192,192,238318,128,0,238406:0:0:0:0:
64,192,238406,128,0,238494:0:0:0:0:
320,192,238494,128,0,238582:0:0:0:0:
192,192,238582,1,2,0:0:0:0:
448,192,238582,128,8,238670:0:0:0:0:
320,192,238759,128,0,238847:0:0:0:0:
448,192,238847,128,0,238935:0:0:0:0:
64,192,238935,1,2,0:0:0:0:
192,192,238935,1,0,0:0:0:0:
448,192,239023,128,0,239112:0:0:0:0:
64,192,239112,128,0,239200:0:0:0:0:
448,192,239288,1,8,0:0:0:0:
192,192,239288,128,2,239376:0:0:0:0:
320,192,239465,128,0,239553:0:0:0:0:
64,192,239553,128,0,239641:0:0:0:0:
192,192,239641,128,2,239994:0:0:0:0:
448,192,239641,128,0,239729:0:0:0:0:
320,192,239729,128,0,239818:0:0:0:0:
64,192,239818,128,0,239906:0:0:0:0:
448,192,239906,128,0,239994:0:0:0:0:
64,192,239994,128,2,240082:0:0:0:0:
320,192,239994,128,8,240347:0:0:0:0:
192,192,240082,128,0,240170:0:0:0:0:
448,192,240170,128,0,240259:0:0:0:0:
64,192,240259,128,0,240347:0:0:0:0:
192,192,240347,128,4,240435:0:0:0:0:
448,192,240347,1,2,0:0:0:0:
64,192,240435,1,0,0:0:0:0:
448,192,240523,128,0,240612:0:0:0:0:
192,192,240612,128,0,240700:0:0:0:0:
64,192,240700,1,2,0:0:0:0:
320,192,240700,1,8,0:0:0:0:
192,192,240788,128,0,240876:0:0:0:0:
320,192,240876,128,0,240965:0:0:0:0:
64,192,241053,128,2,241141:0:0:0:0:
448,192,241053,1,0,0:0:0:0:
192,192,241141,128,0,241229:0:0:0:0:
320,192,241229,1,0,0:0:0:0:
448,192,241318,128,0,241406:0:0:0:0:
320,192,241406,1,8,0:0:0:0:
64,192,241406,128,2,241582:0:0:0:0:
192,192,241494,128,0,241582:0:0:0:0:
448,192,241582,128,0,241670:0:0:0:0:
64,192,241759,1,2,0:0:0:0:
320,192,241759,128,0,241847:0:0:0:0:
192,192,241935,128,0,242023:0:0:0:0:
64,192,242023,128,0,242112:0:0:0:0:
448,192,242112,1,2,0:0:0:0:
320,192,242112,1,8,0:0:0:0:
192,192,242200,128,0,242288:0:0:0:0:
320,192,242288,128,0,242376:0:0:0:0:
448,192,242465,128,2,242818:0:0:0:0:
64,192,242465,128,0,242553:0:0:0:0:
192,192,242553,128,0,242641:0:0:0:0:
320,192,242641,128,0,242729:0:0:0:0:
192,192,242729,128,0,242818:0:0:0:0:
320,192,242818,128,8,242994:0:0:0:0:
64,192,242818,128,2,243170:0:0:0:0:
448,192,242906,128,0,242994:0:0:0:0:
192,192,242994,128,0,243082:0:0:0:0:
320,192,243082,128,0,243170:0:0:0:0:
192,192,243170,1,2,0:0:0:0:
448,192,243170,128,0,243259:0:0:0:0:
448,192,243347,128,0,243435:0:0:0:0:
64,192,243435,128,0,243523:0:0:0:0:
192,192,243523,1,8,0:0:0:0:
320,192,243523,1,2,0:0:0:0:
64,192,243612,128,0,243700:0:0:0:0:
448,192,243700,128,0,243788:0:0:0:0:
192,192,243876,128,2,243965:0:0:0:0:
320,192,243876,128,0,243965:0:0:0:0:
64,192,243965,128,0,244053:0:0:0:0:
448,192,243965,128,0,244053:0:0:0:0:
320,192,244141,128,0,244229:0:0:0:0:
192,192,244141,128,0,244229:0:0:0:0:
64,192,244229,128,10,244406:0:0:0:0:
448,192,244318,128,0,244406:0:0:0:0:
320,192,244318,128,0,244406:0:0:0:0:
192,192,244494,128,0,244582:0:0:0:0:
320,192,244494,128,0,244582:0:0:0:0:
64,192,244582,128,2,244759:0:0:0:0:
448,192,244582,1,0,0:0:0:0:
320,192,244759,1,0,0:0:0:0:
320,192,244847,1,0,0:0:0:0:
64,192,244935,128,2,245112:0:0:0:0:
192,192,244935,1,8,0:0:0:0:
320,192,245023,1,0,0:0:0:0:
448,192,245112,1,0,0:0:0:0:
448,192,245200,1,0,0:0:0:0:
192,192,245288,1,2,0:0:0:0:
320,192,245288,1,0,0:0:0:0:
64,192,245376,1,0,0:0:0:0:
64,192,245465,1,0,0:0:0:0:
192,192,245553,1,0,0:0:0:0:
320,192,245641,1,2,0:0:0:0:
448,192,245641,1,8,0:0:0:0:
64,192,245729,1,0,0:0:0:0:
192,192,245818,1,0,0:0:0:0:
320,192,245906,1,0,0:0:0:0:
64,192,245994,1,2,0:0:0:0:
192,192,245994,1,4,0:0:0:0:
448,192,245994,1,0,0:0:0:0:
448,192,246082,1,8,1:0:0:0:
320,192,246170,1,8,1:0:0:0:
64,192,246170,1,0,0:0:0:0:
192,192,246259,1,8,1:0:0:0:
448,192,246347,1,8,0:0:0:0:
64,192,246347,1,2,0:0:0:0:
320,192,246347,1,0,0:0:0:0:
64,192,246435,1,8,1:0:0:0:
320,192,246523,1,8,1:0:0:0:
192,192,246523,1,0,0:0:0:0:
448,192,246612,1,8,1:0:0:0:
192,192,246700,1,2,0:0:0:0:
64,192,246700,1,8,1:0:0:0:
320,192,246700,1,0,0:0:0:0:
320,192,246788,1,8,1:0:0:0:
448,192,246876,1,8,1:0:0:0:
64,192,246876,1,0,0:0:0:0:
192,192,246965,1,8,1:0:0:0:
320,192,247053,1,2,0:0:0:0:
448,192,247053,1,8,0:0:0:0:
64,192,247053,1,0,0:0:0:0:
192,192,247141,1,8,1:0:0:0:
192,192,247229,1,8,1:0:0:0:
448,192,247229,1,0,0:0:0:0:
320,192,247318,1,8,1:0:0:0:
64,192,247406,1,2,0:0:0:0:
192,192,247406,1,8,1:0:0:0:
448,192,247406,1,0,0:0:0:0:
448,192,247494,1,8,1:0:0:0:
320,192,247582,1,8,1:0:0:0:
64,192,247582,1,0,0:0:0:0:
192,192,247670,1,8,1:0:0:0:
448,192,247759,1,8,0:0:0:0:
320,192,247759,1,2,0:0:0:0:
64,192,247759,1,0,0:0:0:0:
64,192,247847,1,8,1:0:0:0:
192,192,247935,1,8,1:0:0:0:
320,192,247935,1,0,0:0:0:0:
448,192,248023,1,8,1:0:0:0:
64,192,248112,1,2,0:0:0:0:
192,192,248112,1,8,1:0:0:0:
320,192,248156,1,8,1:0:0:0:
448,192,248200,1,8,1:0:0:0:
192,192,248244,1,8,1:0:0:0:
64,192,248288,1,8,1:0:0:0:
320,192,248332,1,8,1:0:0:0:
448,192,248376,1,8,1:0:0:0:
64,192,248420,1,8,1:0:0:0:
192,192,248465,1,10,0:0:0:0:
320,192,248509,1,8,1:0:0:0:
448,192,248553,1,8,1:0:0:0:
64,192,248597,1,8,1:0:0:0:
192,192,248641,1,8,1:0:0:0:
448,192,248685,1,8,1:0:0:0:
320,192,248729,1,8,1:0:0:0:
192,192,248773,1,8,1:0:0:0:
64,192,248818,1,8,1:0:0:0:
448,192,248818,1,6,0:0:0:0:
448,192,248994,128,0,249170:0:0:0:0:
192,192,249170,1,2,0:0:0:0:
320,192,249170,1,8,1:0:0:0:
64,192,249170,1,4,0:0:0:0:
320,192,249347,128,0,249523:0:0:0:0:
64,192,249523,1,2,0:0:0:0:
448,192,249523,1,8,1:0:0:0:
192,192,249523,1,4,0:0:0:0:
64,192,249612,1,0,0:0:0:0:
448,192,249700,1,0,0:0:0:0:
448,192,249788,1,0,0:0:0:0:
192,192,249876,1,4,0:0:0:0:
320,192,249876,1,2,0:0:0:0:
64,192,249876,1,8,1:0:0:0:
64,192,249965,1,0,0:0:0:0:
320,192,250053,128,2,250229:0:0:0:0:
448,192,250053,128,0,250229:0:0:0:0:
192,192,250229,1,0,0:0:0:0:
320,192,250318,1,0,0:0:0:0:
448,192,250406,1,8,1:0:0:0:
64,192,250406,1,0,0:0:0:0:
448,192,250582,1,8,1:0:0:0:
64,192,250582,1,0,0:0:0:0:
192,192,250670,1,8,1:0:0:0:
320,192,250759,1,8,1:0:0:0:
64,192,250847,1,8,1:0:0:0:
192,192,250847,1,0,0:0:0:0:
320,192,250935,1,8,1:0:0:0:
448,192,250935,1,0,0:0:0:0:
64,192,251023,1,8,1:0:0:0:
448,192,251112,1,8,1:0:0:0:
320,192,251200,1,8,1:0:0:0:
192,192,251200,1,0,0:0:0:0:
448,192,251288,1,8,1:0:0:0:
64,192,251288,128,0,251641:0:0:0:0:
192,192,251465,128,0,251641:0:0:0:0:
320,192,251641,1,2,0:0:0:0:
448,192,251641,1,4,0:0:0:0:
192,192,251729,1,0,0:0:0:0:
64,192,251818,1,0,0:0:0:0:
320,192,251906,1,0,0:0:0:0:
64,192,251994,1,8,0:0:0:0:
192,192,251994,1,2,0:0:0:0:
448,192,251994,1,0,0:0:0:0:
320,192,252082,1,0,0:0:0:0:
448,192,252170,1,0,0:0:0:0:
64,192,252259,1,0,0:0:0:0:
192,192,252347,1,2,0:0:0:0:
320,192,252347,1,0,0:0:0:0:
448,192,252435,1,0,0:0:0:0:
64,192,252523,1,0,0:0:0:0:
192,192,252612,1,0,0:0:0:0:
64,192,252700,1,8,0:0:0:0:
320,192,252700,1,2,0:0:0:0:
448,192,252700,1,0,0:0:0:0:
192,192,252788,1,0,0:0:0:0:
448,192,252876,1,0,0:0:0:0:
320,192,252965,1,0,0:0:0:0:
64,192,253053,1,2,0:0:0:0:
192,192,253053,1,0,0:0:0:0:
448,192,253141,1,0,0:0:0:0:
320,192,253229,1,0,0:0:0:0:
64,192,253318,1,0,0:0:0:0:
192,192,253406,1,2,0:0:0:0:
320,192,253406,1,8,0:0:0:0:
448,192,253406,1,0,0:0:0:0:
64,192,253494,1,0,0:0:0:0:
448,192,253582,1,0,0:0:0:0:
192,192,253670,1,0,0:0:0:0:
320,192,253759,1,2,0:0:0:0:
448,192,253759,1,0,0:0:0:0:
64,192,253847,1,0,0:0:0:0:
192,192,253935,1,0,0:0:0:0:
448,192,254023,1,0,0:0:0:0:
192,192,254112,1,8,0:0:0:0:
320,192,254112,1,2,0:0:0:0:
64,192,254112,1,0,0:0:0:0:
448,192,254200,1,0,0:0:0:0:
64,192,254288,1,0,0:0:0:0:
192,192,254376,1,0,0:0:0:0:
448,192,254465,1,2,0:0:0:0:
64,192,254465,128,0,254818:0:0:0:0:
320,192,254553,1,0,0:0:0:0:
192,192,254641,1,0,0:0:0:0:
448,192,254729,1,0,0:0:0:0:
192,192,254818,128,2,255170:0:0:0:0:
320,192,254818,1,8,0:0:0:0:
448,192,254906,1,0,0:0:0:0:
64,192,254994,1,0,0:0:0:0:
320,192,255082,1,0,0:0:0:0:
448,192,255170,128,2,255523:0:0:0:0:
64,192,255170,1,0,0:0:0:0:
320,192,255259,1,0,0:0:0:0:
64,192,255347,1,0,0:0:0:0:
192,192,255435,1,0,0:0:0:0:
320,192,255523,128,8,255876:0:0:0:0:
64,192,255523,1,2,0:0:0:0:
192,192,255612,1,0,0:0:0:0:
448,192,255700,1,0,0:0:0:0:
64,192,255788,1,0,0:0:0:0:
192,192,255876,1,2,0:0:0:0:
448,192,255876,1,0,0:0:0:0:
64,192,255965,1,0,0:0:0:0:
320,192,256053,1,0,0:0:0:0:
192,192,256141,1,0,0:0:0:0:
64,192,256229,1,8,0:0:0:0:
320,192,256229,1,2,0:0:0:0:
448,192,256229,1,0,0:0:0:0:
192,192,256318,1,0,0:0:0:0:
448,192,256406,1,0,0:0:0:0:
64,192,256494,1,0,0:0:0:0:
320,192,256582,1,2,0:0:0:0:
192,192,256582,1,0,0:0:0:0:
448,192,256670,1,0,0:0:0:0:
320,192,256759,1,0,0:0:0:0:
64,192,256847,1,0,0:0:0:0:
192,192,256935,1,2,0:0:0:0:
320,192,256935,1,8,0:0:0:0:
448,192,256935,1,0,0:0:0:0:
64,192,257023,1,0,0:0:0:0:
448,192,257112,1,0,0:0:0:0:
192,192,257200,1,0,0:0:0:0:
320,192,257288,1,2,0:0:0:0:
64,192,257288,1,0,0:0:0:0:
192,192,257376,1,0,0:0:0:0:
320,192,257465,1,0,0:0:0:0:
448,192,257553,1,0,0:0:0:0:
192,192,257641,1,8,0:0:0:0:
64,192,257641,1,2,0:0:0:0:
320,192,257641,1,0,0:0:0:0:
448,192,257729,1,0,0:0:0:0:
64,192,257818,1,0,0:0:0:0:
320,192,257906,1,0,0:0:0:0:
192,192,257994,1,2,0:0:0:0:
64,192,257994,1,0,0:0:0:0:
448,192,258082,1,0,0:0:0:0:
320,192,258170,1,0,0:0:0:0:
448,192,258259,1,0,0:0:0:0:
192,192,258347,1,2,0:0:0:0:
320,192,258347,1,8,0:0:0:0:
64,192,258347,1,0,0:0:0:0:
448,192,258435,1,0,0:0:0:0:
192,192,258523,1,0,0:0:0:0:
320,192,258612,1,0,0:0:0:0:
64,192,258700,1,2,0:0:0:0:
448,192,258700,1,0,0:0:0:0:
192,192,258788,1,0,0:0:0:0:
320,192,258876,1,0,0:0:0:0:
64,192,258965,1,0,0:0:0:0:
192,192,259053,1,2,0:0:0:0:
448,192,259053,1,8,0:0:0:0:
320,192,259053,1,0,0:0:0:0:
64,192,259141,1,0,0:0:0:0:
448,192,259229,1,0,0:0:0:0:
320,192,259318,1,0,0:0:0:0:
64,192,259406,1,2,0:0:0:0:
192,192,259406,1,0,0:0:0:0:
448,192,259494,1,0,0:0:0:0:
64,192,259582,1,0,0:0:0:0:
448,192,259670,1,0,0:0:0:0:
64,192,259759,1,8,0:0:0:0:
192,192,259759,1,2,0:0:0:0:
320,192,259759,1,0,0:0:0:0:
448,192,259847,1,0,0:0:0:0:
192,192,259935,1,0,0:0:0:0:
320,192,260023,1,0,0:0:0:0:
64,192,260112,128,2,260465:0:0:0:0:
448,192,260112,1,0,0:0:0:0:
192,192,260200,1,0,0:0:0:0:
320,192,260288,1,0,0:0:0:0:
448,192,260376,1,0,0:0:0:0:
320,192,260465,128,8,260818:0:0:0:0:
192,192,260465,1,2,0:0:0:0:
448,192,260553,1,0,0:0:0:0:
64,192,260641,1,0,0:0:0:0:
192,192,260729,1,0,0:0:0:0:
448,192,260818,128,2,261170:0:0:0:0:
64,192,260818,1,0,0:0:0:0:
192,192,260906,1,0,0:0:0:0:
320,192,260994,1,0,0:0:0:0:
64,192,261082,1,0,0:0:0:0:
192,192,261170,128,8,261523:0:0:0:0:
320,192,261170,1,2,0:0:0:0:
64,192,261259,1,0,0:0:0:0:
448,192,261347,1,0,0:0:0:0:
320,192,261435,1,0,0:0:0:0:
64,192,261523,1,2,0:0:0:0:
448,192,261523,1,0,0:0:0:0:
320,192,261612,1,0,0:0:0:0:
64,192,261700,1,0,0:0:0:0:
192,192,261788,1,0,0:0:0:0:
64,192,261876,1,2,0:0:0:0:
320,192,261876,1,8,0:0:0:0:
448,192,261876,1,0,0:0:0:0:
192,192,261965,1,0,0:0:0:0:
64,192,262053,1,0,0:0:0:0:
320,192,262141,1,0,0:0:0:0:
192,192,262229,1,2,0:0:0:0:
448,192,262229,1,0,0:0:0:0:
320,192,262318,1,0,0:0:0:0:
64,192,262406,1,0,0:0:0:0:
192,192,262494,1,0,0:0:0:0:
320,192,262582,1,2,0:0:0:0:
448,192,262582,1,8,0:0:0:0:
64,192,262582,1,0,0:0:0:0:
192,192,262670,1,0,0:0:0:0:
448,192,262759,1,0,0:0:0:0:
320,192,262847,1,0,0:0:0:0:
64,192,262935,1,2,0:0:0:0:
192,192,262935,1,8,1:0:0:0:
448,192,262935,1,4,0:0:0:0:
320,192,263023,1,0,0:0:0:0:
192,192,263112,1,0,0:0:0:0:
320,192,263200,1,0,0:0:0:0:
64,192,263288,1,2,0:0:0:0:
192,192,263288,1,8,1:0:0:0:
448,192,263288,1,0,0:0:0:0:
320,192,263376,1,0,0:0:0:0:
64,192,263465,1,0,0:0:0:0:
192,192,263553,1,0,0:0:0:0:
64,192,263641,1,2,0:0:0:0:
320,192,263641,1,8,1:0:0:0:
448,192,263641,1,0,0:0:0:0:
192,192,263729,1,0,0:0:0:0:
320,192,263818,1,0,0:0:0:0:
192,192,263906,1,0,0:0:0:0:
64,192,263994,1,2,0:0:0:0:
320,192,263994,1,8,1:0:0:0:
448,192,263994,1,0,0:0:0:0:
192,192,264082,1,0,0:0:0:0:
448,192,264170,1,0,0:0:0:0:
64,192,264259,1,0,0:0:0:0:
192,192,264347,1,2,0:0:0:0:
320,192,264347,1,8,1:0:0:0:
448,192,264347,1,0,0:0:0:0:
64,192,264435,1,0,0:0:0:0:
320,192,264523,1,0,0:0:0:0:
64,192,264612,1,0,0:0:0:0:
192,192,264700,1,2,0:0:0:0:
320,192,264700,1,8,1:0:0:0:
448,192,264700,1,0,0:0:0:0:
64,192,264788,1,0,0:0:0:0:
192,192,264876,1,0,0:0:0:0:
448,192,264965,1,0,0:0:0:0:
320,192,265053,1,8,1:0:0:0:
64,192,265053,1,2,0:0:0:0:
192,192,265053,1,0,0:0:0:0:
448,192,265141,1,0,0:0:0:0:
192,192,265229,1,0,0:0:0:0:
448,192,265318,1,0,0:0:0:0:
64,192,265406,1,8,1:0:0:0:
192,192,265406,1,2,0:0:0:0:
320,192,265406,1,0,0:0:0:0:
448,192,265494,1,0,0:0:0:0:
320,192,265582,1,8,1:0:0:0:
192,192,265670,1,8,1:0:0:0:
64,192,265670,1,0,0:0:0:0:
320,192,265759,1,8,1:0:0:0:
448,192,265759,128,2,266112:0:0:0:0:
64,192,265847,1,0,0:0:0:0:
192,192,265935,1,0,0:0:0:0:
320,192,266023,1,0,0:0:0:0:
64,192,266112,128,2,266465:0:0:0:0:
192,192,266112,1,8,1:0:0:0:
448,192,266200,1,0,0:0:0:0:
320,192,266288,1,0,0:0:0:0:
192,192,266376,1,0,0:0:0:0:
320,192,266465,128,2,266818:0:0:0:0:
448,192,266465,1,8,1:0:0:0:
192,192,266553,1,0,0:0:0:0:
64,192,266641,1,0,0:0:0:0:
448,192,266729,1,0,0:0:0:0:
192,192,266818,128,8,267523:1:0:0:0:
64,192,266818,1,2,0:0:0:0:
448,192,266906,1,0,0:0:0:0:
320,192,266994,1,0,0:0:0:0:
64,192,267082,1,0,0:0:0:0:
320,192,267170,1,2,0:0:0:0:
448,192,267170,1,8,1:0:0:0:
64,192,267259,1,0,0:0:0:0:
448,192,267347,1,0,0:0:0:0:
320,192,267435,1,0,0:0:0:0:
64,192,267523,1,2,0:0:0:0:
448,192,267523,1,8,1:0:0:0:
320,192,267612,1,0,0:0:0:0:
192,192,267700,1,0,0:0:0:0:
448,192,267788,1,0,0:0:0:0:
64,192,267876,1,2,0:0:0:0:
192,192,267876,1,8,1:0:0:0:
320,192,267876,1,0,0:0:0:0:
448,192,267965,1,0,0:0:0:0:
64,192,268053,1,8,1:0:0:0:
64,192,268141,1,8,1:0:0:0:
192,192,268229,1,8,1:0:0:0:
320,192,268229,1,2,0:0:0:0:
448,192,268229,1,0,0:0:0:0:
64,192,268318,1,0,0:0:0:0:
448,192,268406,1,8,0:0:0:0:
448,192,268494,1,8,0:0:0:0:
192,192,268582,1,4,0:0:0:0:
64,192,268582,1,2,0:0:0:0:
320,192,268670,1,8,1:0:0:0:
448,192,268670,1,0,0:0:0:0:
64,192,268759,1,8,1:0:0:0:
192,192,268759,1,0,0:0:0:0:
448,192,268847,1,8,1:0:0:0:
320,192,268935,1,8,1:0:0:0:
192,192,268935,1,0,0:0:0:0:
64,192,269023,1,8,1:0:0:0:
448,192,269023,1,0,0:0:0:0:
192,192,269112,1,8,1:0:0:0:
320,192,269112,1,0,0:0:0:0:
64,192,269200,1,8,1:0:0:0:
448,192,269288,1,8,1:0:0:0:
192,192,269288,1,0,0:0:0:0:
64,192,269376,1,8,1:0:0:0:
320,192,269376,1,0,0:0:0:0:
448,192,269465,1,8,1:0:0:0:
192,192,269465,1,0,0:0:0:0:
64,192,269553,1,8,1:0:0:0:
320,192,269553,1,0,0:0:0:0:
192,192,269641,1,2,0:0:0:0:
448,192,269641,128,0,269994:0:0:0:0:
192,192,269994,1,2,0:0:0:0:
320,192,269994,1,4,0:0:0:0:
64,192,270082,1,8,1:0:0:0:
448,192,270082,1,0,0:0:0:0:
192,192,270170,1,8,1:0:0:0:
320,192,270170,1,0,0:0:0:0:
448,192,270259,1,8,1:0:0:0:
192,192,270347,1,8,1:0:0:0:
64,192,270347,1,0,0:0:0:0:
320,192,270435,1,8,1:0:0:0:
448,192,270435,1,0,0:0:0:0:
64,192,270523,1,8,1:0:0:0:
192,192,270523,1,0,0:0:0:0:
448,192,270612,1,8,1:0:0:0:
64,192,270700,1,8,1:0:0:0:
320,192,270700,1,0,0:0:0:0:
192,192,270788,1,8,1:0:0:0:
448,192,270788,1,0,0:0:0:0:
64,192,270876,1,8,1:0:0:0:
320,192,270876,1,0,0:0:0:0:
192,192,270965,1,8,1:0:0:0:
448,192,271053,1,2,0:0:0:0:
320,192,271053,1,0,0:0:0:0:
64,192,271097,1,0,0:0:0:0:
192,192,271141,1,0,0:0:0:0:
448,192,271185,1,0,0:0:0:0:
320,192,271229,1,0,0:0:0:0:
64,192,271273,1,0,0:0:0:0:
192,192,271318,1,0,0:0:0:0:
320,192,271362,1,0,0:0:0:0:
64,192,271406,1,2,0:0:0:0:
448,192,271406,1,4,0:0:0:0:
192,192,271450,1,8,1:0:0:0:
320,192,271494,1,8,1:0:0:0:
448,192,271538,1,8,1:0:0:0:
192,192,271582,1,8,1:0:0:0:
64,192,271626,1,8,1:0:0:0:
320,192,271670,1,8,1:0:0:0:
448,192,271715,1,8,1:0:0:0:
64,192,271759,1,8,1:0:0:0:
192,192,271759,1,2,0:0:0:0:
320,192,271803,1,8,1:0:0:0:
448,192,271847,1,8,1:0:0:0:
64,192,271891,1,8,1:0:0:0:
192,192,271935,1,8,1:0:0:0:
320,192,271935,1,2,0:0:0:0:
448,192,271979,1,8,1:0:0:0:
64,192,272023,1,8,1:0:0:0:
192,192,272068,1,8,1:0:0:0:
448,192,272112,1,8,1:0:0:0:
320,192,272156,1,8,1:0:0:0:
192,192,272200,1,8,1:0:0:0:
64,192,272244,1,8,1:0:0:0:
448,192,272244,1,2,0:0:0:0:
320,192,272288,1,8,1:0:0:0:
192,192,272332,1,8,1:0:0:0:
64,192,272376,1,8,1:0:0:0:
448,192,272420,1,8,1:0:0:0:
320,192,272465,1,8,1:0:0:0:
64,192,272509,1,8,1:0:0:0:
192,192,272553,1,8,1:0:0:0:
320,192,272597,1,8,1:0:0:0:
64,192,272641,1,4,0:0:0:0:
448,192,272641,1,2,0:0:0:0:
192,192,272729,128,0,272818:0:0:0:0:
320,192,272818,128,0,272906:0:0:0:0:
448,192,272818,128,0,272906:0:0:0:0:
64,192,272906,128,0,272994:0:0:0:0:
448,192,272994,128,0,273082:0:0:0:0:
320,192,272994,128,0,273082:0:0:0:0:
192,192,273082,128,0,273170:0:0:0:0:
64,192,273082,128,0,273170:0:0:0:0:
320,192,273259,128,0,273347:0:0:0:0:
192,192,273259,128,0,273347:0:0:0:0:
448,192,273435,128,0,273523:0:0:0:0:
320,192,273435,128,0,273523:0:0:0:0:
64,192,273523,128,0,273700:0:0:0:0:
192,192,273612,128,0,273788:0:0:0:0:
320,192,273700,128,0,273876:0:0:0:0:
448,192,273788,128,0,273965:0:0:0:0:
64,192,273876,128,0,274053:0:0:0:0:
192,192,273965,128,0,274053:0:0:0:0:
448,192,274053,128,0,274229:0:0:0:0:
320,192,274141,128,0,274229:0:0:0:0:
192,192,274229,128,4,274318:0:0:0:0:
64,192,274229,128,2,274318:0:0:0:0:
320,192,274318,1,0,0:0:0:0:
448,192,274406,1,0,0:0:0:0:
192,192,274494,1,0,0:0:0:0:
320,192,274582,1,0,0:0:0:0:
64,192,274670,1,0,0:0:0:0:
320,192,274759,1,0,0:0:0:0:
448,192,274759,128,0,274847:0:0:0:0:
192,192,274847,1,0,0:0:0:0:
64,192,274935,1,0,0:0:0:0:
448,192,275023,1,0,0:0:0:0:
192,192,275112,1,0,0:0:0:0:
320,192,275200,1,0,0:0:0:0:
448,192,275288,1,0,0:0:0:0:
64,192,275288,128,0,275376:0:0:0:0:
192,192,275376,1,0,0:0:0:0:
320,192,275465,1,0,0:0:0:0:
64,192,275553,1,0,0:0:0:0:
448,192,275641,128,0,275729:0:0:0:0:
320,192,275641,128,0,275729:0:0:0:0:
192,192,275729,1,0,0:0:0:0:
320,192,275818,1,0,0:0:0:0:
64,192,275906,1,0,0:0:0:0:
448,192,275994,1,0,0:0:0:0:
320,192,276082,1,0,0:0:0:0:
64,192,276170,1,0,0:0:0:0:
192,192,276170,128,0,276259:0:0:0:0:
448,192,276259,1,0,0:0:0:0:
320,192,276347,1,0,0:0:0:0:
192,192,276435,1,0,0:0:0:0:
448,192,276523,1,0,0:0:0:0:
64,192,276612,1,0,0:0:0:0:
192,192,276700,1,0,0:0:0:0:
320,192,276700,128,0,276788:0:0:0:0:
448,192,276788,1,0,0:0:0:0:
64,192,276876,1,0,0:0:0:0:
320,192,276965,1,0,0:0:0:0:
64,192,277053,128,0,277141:0:0:0:0:
192,192,277053,128,0,277141:0:0:0:0:
448,192,277141,1,0,0:0:0:0:
320,192,277229,1,0,0:0:0:0:
192,192,277318,1,0,0:0:0:0:
320,192,277406,1,0,0:0:0:0:
64,192,277494,1,0,0:0:0:0:
192,192,277582,1,0,0:0:0:0:
448,192,277582,128,0,277670:0:0:0:0:
320,192,277670,1,0,0:0:0:0:
64,192,277759,1,0,0:0:0:0:
192,192,277847,1,0,0:0:0:0:
448,192,277935,1,0,0:0:0:0:
320,192,278023,1,0,0:0:0:0:
192,192,278112,1,0,0:0:0:0:
64,192,278112,128,0,278200:0:0:0:0:
448,192,278200,1,0,0:0:0:0:
320,192,278288,1,0,0:0:0:0:
64,192,278376,1,0,0:0:0:0:
320,192,278465,128,0,278553:0:0:0:0:
192,192,278465,128,0,278553:0:0:0:0:
448,192,278553,1,0,0:0:0:0:
64,192,278641,1,0,0:0:0:0:
192,192,278729,1,0,0:0:0:0:
448,192,278818,1,0,0:0:0:0:
320,192,278906,1,0,0:0:0:0:
64,192,278994,128,0,279082:0:0:0:0:
192,192,278994,1,0,0:0:0:0:
320,192,279082,1,0,0:0:0:0:
448,192,279170,1,0,0:0:0:0:
320,192,279259,1,0,0:0:0:0:
192,192,279347,1,0,0:0:0:0:
448,192,279347,128,0,279523:0:0:0:0:
64,192,279435,1,0,0:0:0:0:
192,192,279523,1,0,0:0:0:0:
320,192,279523,1,0,0:0:0:0:
64,192,279612,1,0,0:0:0:0:
192,192,279700,1,0,0:0:0:0:
448,192,279700,128,0,279876:0:0:0:0:
320,192,279788,1,0,0:0:0:0:
64,192,279876,128,0,279965:0:0:0:0:
192,192,279876,128,0,279965:0:0:0:0:
320,192,280053,1,0,0:0:0:0:
192,192,280141,1,0,0:0:0:0:
448,192,280229,1,0,0:0:0:0:
448,192,280318,1,0,0:0:0:0:
192,192,280406,1,0,0:0:0:0:
320,192,280406,1,0,0:0:0:0:
192,192,280494,1,0,0:0:0:0:
64,192,280582,1,0,0:0:0:0:
448,192,280670,1,0,0:0:0:0:
320,192,280759,1,0,0:0:0:0:
64,192,280847,1,0,0:0:0:0:
192,192,280935,1,0,0:0:0:0:
448,192,280935,1,0,0:0:0:0:
320,192,281023,1,0,0:0:0:0:
192,192,281112,1,0,0:0:0:0:
320,192,281200,1,0,0:0:0:0:
448,192,281288,128,0,281376:0:0:0:0:
64,192,281288,128,0,281376:0:0:0:0:
192,192,281465,1,0,0:0:0:0:
320,192,281553,1,0,0:0:0:0:
448,192,281641,1,0,0:0:0:0:
64,192,281729,1,0,0:0:0:0:
448,192,281818,1,0,0:0:0:0:
320,192,281818,1,0,0:0:0:0:
192,192,281906,1,0,0:0:0:0:
64,192,281994,1,0,0:0:0:0:
448,192,282082,1,0,0:0:0:0:
320,192,282170,1,0,0:0:0:0:
448,192,282259,1,0,0:0:0:0:
192,192,282347,1,0,0:0:0:0:
64,192,282347,1,0,0:0:0:0:
320,192,282435,1,0,0:0:0:0:
64,192,282523,1,0,0:0:0:0:
448,192,282612,1,0,0:0:0:0:
192,192,282700,128,0,282788:0:0:0:0:
320,192,282700,128,0,282788:0:0:0:0:
64,192,282876,1,0,0:0:0:0:
448,192,282965,1,0,0:0:0:0:
64,192,283053,1,0,0:0:0:0:
64,192,283141,1,0,0:0:0:0:
320,192,283229,1,0,0:0:0:0:
192,192,283229,1,0,0:0:0:0:
320,192,283318,1,0,0:0:0:0:
448,192,283406,1,0,0:0:0:0:
64,192,283494,1,0,0:0:0:0:
320,192,283582,1,0,0:0:0:0:
192,192,283670,1,0,0:0:0:0:
448,192,283759,1,0,0:0:0:0:
64,192,283759,1,0,0:0:0:0:
192,192,283847,1,0,0:0:0:0:
320,192,283935,1,0,0:0:0:0:
64,192,284023,1,0,0:0:0:0:
320,192,284112,128,0,284200:0:0:0:0:
448,192,284112,128,0,284200:0:0:0:0:
192,192,284288,1,0,0:0:0:0:
448,192,284376,1,0,0:0:0:0:
320,192,284465,1,0,0:0:0:0:
64,192,284553,1,0,0:0:0:0:
192,192,284641,1,0,0:0:0:0:
448,192,284641,1,0,0:0:0:0:
320,192,284729,1,0,0:0:0:0:
64,192,284818,1,0,0:0:0:0:
192,192,284906,1,0,0:0:0:0:
64,192,284994,128,0,285170:0:0:0:0:
448,192,284994,1,0,0:0:0:0:
192,192,285082,1,0,0:0:0:0:
448,192,285170,1,0,0:0:0:0:
320,192,285170,1,0,0:0:0:0:
192,192,285259,1,0,0:0:0:0:
64,192,285347,128,0,285523:0:0:0:0:
448,192,285347,1,0,0:0:0:0:
320,192,285435,1,0,0:0:0:0:
448,192,285523,1,0,0:0:0:0:
192,192,285523,1,0,0:0:0:0:
320,192,285612,1,0,0:0:0:0:
64,192,285700,1,0,0:0:0:0:
192,192,285788,1,0,0:0:0:0:
448,192,285876,1,0,0:0:0:0:
448,192,285965,1,0,0:0:0:0:
64,192,286053,1,0,0:0:0:0:
64,192,286141,1,0,0:0:0:0:
448,192,286229,1,0,0:0:0:0:
192,192,286318,1,0,0:0:0:0:
320,192,286406,1,0,0:0:0:0:
64,192,286494,1,0,0:0:0:0:
448,192,286582,1,0,0:0:0:0:
192,192,286670,1,0,0:0:0:0:
320,192,286759,1,0,0:0:0:0:
448,192,286847,1,0,0:0:0:0:
64,192,286935,1,0,0:0:0:0:
192,192,286935,1,0,0:0:0:0:
320,192,287023,1,0,0:0:0:0:
448,192,287112,1,0,0:0:0:0:
192,192,287200,1,0,0:0:0:0:
320,192,287288,1,0,0:0:0:0:
64,192,287376,1,0,0:0:0:0:
192,192,287465,1,0,0:0:0:0:
448,192,287553,1,0,0:0:0:0:
320,192,287641,1,0,0:0:0:0:
192,192,287729,1,0,0:0:0:0:
64,192,287818,1,0,0:0:0:0:
448,192,287906,1,0,0:0:0:0:
192,192,287994,1,0,0:0:0:0:
320,192,288082,1,0,0:0:0:0:
448,192,288170,1,0,0:0:0:0:
64,192,288259,1,0,0:0:0:0:
192,192,288347,1,0,0:0:0:0:
320,192,288347,1,0,0:0:0:0:
448,192,288435,1,0,0:0:0:0:
64,192,288523,1,0,0:0:0:0:
320,192,288612,1,0,0:0:0:0:
192,192,288700,1,0,0:0:0:0:
192,192,288788,1,0,0:0:0:0:
320,192,288876,1,0,0:0:0:0:
320,192,288965,1,0,0:0:0:0:
64,192,289053,1,0,0:0:0:0:
448,192,289141,1,0,0:0:0:0:
192,192,289229,1,0,0:0:0:0:
64,192,289318,1,0,0:0:0:0:
448,192,289406,1,0,0:0:0:0:
192,192,289494,1,0,0:0:0:0:
320,192,289582,1,0,0:0:0:0:
64,192,289670,1,0,0:0:0:0:
192,192,289759,1,0,0:0:0:0:
448,192,289759,1,0,0:0:0:0:
320,192,289847,1,0,0:0:0:0:
64,192,289935,1,0,0:0:0:0:
448,192,290023,1,0,0:0:0:0:
192,192,290112,1,0,0:0:0:0:
320,192,290200,1,0,0:0:0:0:
64,192,290288,1,0,0:0:0:0:
448,192,290376,1,0,0:0:0:0:
192,192,290465,1,0,0:0:0:0:
320,192,290553,1,0,0:0:0:0:
448,192,290641,1,0,0:0:0:0:
64,192,290729,1,0,0:0:0:0:
320,192,290818,1,0,0:0:0:0:
192,192,290906,1,0,0:0:0:0:
64,192,290994,1,0,0:0:0:0:
448,192,291082,1,0,0:0:0:0:
192,192,291170,1,0,0:0:0:0:
320,192,291170,1,0,0:0:0:0:
64,192,291259,1,0,0:0:0:0:
448,192,291347,1,0,0:0:0:0:
192,192,291435,1,0,0:0:0:0:
320,192,291523,1,0,0:0:0:0:
320,192,291612,1,0,0:0:0:0:
64,192,291700,1,0,0:0:0:0:
64,192,291788,1,0,0:0:0:0:
192,192,291876,1,0,0:0:0:0:
448,192,291965,1,0,0:0:0:0:
320,192,292053,1,0,0:0:0:0:
64,192,292141,1,0,0:0:0:0:
320,192,292229,1,0,0:0:0:0:
192,192,292318,1,0,0:0:0:0:
448,192,292406,1,0,0:0:0:0:
64,192,292494,1,0,0:0:0:0:
320,192,292582,1,0,0:0:0:0:
448,192,292582,1,0,0:0:0:0:
192,192,292670,1,0,0:0:0:0:
64,192,292759,1,0,0:0:0:0:
320,192,292847,1,0,0:0:0:0:
448,192,292935,1,0,0:0:0:0:
192,192,293023,1,0,0:0:0:0:
320,192,293112,1,0,0:0:0:0:
192,192,293200,1,0,0:0:0:0:
64,192,293288,1,0,0:0:0:0:
448,192,293376,1,0,0:0:0:0:
320,192,293465,1,0,0:0:0:0:
64,192,293553,1,0,0:0:0:0:
192,192,293641,1,0,0:0:0:0:
448,192,293729,1,0,0:0:0:0:
64,192,293818,1,0,0:0:0:0:
320,192,293906,1,0,0:0:0:0:
64,192,293994,1,0,0:0:0:0:
192,192,293994,1,0,0:0:0:0:
448,192,294082,1,0,0:0:0:0:
192,192,294170,1,0,0:0:0:0:
320,192,294259,1,0,0:0:0:0:
192,192,294347,1,0,0:0:0:0:
64,192,294435,1,0,0:0:0:0:
320,192,294523,1,0,0:0:0:0:
448,192,294612,1,0,0:0:0:0:
64,192,294700,1,0,0:0:0:0:
320,192,294788,1,0,0:0:0:0:
64,192,294876,1,0,0:0:0:0:
320,192,294965,1,0,0:0:0:0:
192,192,295053,1,0,0:0:0:0:
320,192,295141,1,0,0:0:0:0:
64,192,295229,1,0,0:0:0:0:
448,192,295318,1,0,0:0:0:0:
192,192,295406,1,0,0:0:0:0:
448,192,295494,1,0,0:0:0:0:
192,192,295582,1,0,0:0:0:0:
320,192,295670,1,0,0:0:0:0:
192,192,295759,1,0,0:0:0:0:
64,192,295847,1,0,0:0:0:0:
320,192,295935,1,0,0:0:0:0:
448,192,296023,1,0,0:0:0:0:
64,192,296112,1,0,0:0:0:0:
320,192,296200,1,0,0:0:0:0:
64,192,296288,1,0,0:0:0:0:
320,192,296376,1,0,0:0:0:0:
192,192,296465,1,0,0:0:0:0:
320,192,296553,1,0,0:0:0:0:
192,192,296641,1,0,0:0:0:0:
448,192,296729,1,0,0:0:0:0:
64,192,296818,1,0,0:0:0:0:
192,192,296906,1,0,0:0:0:0:
64,192,296994,1,0,0:0:0:0:
192,192,297082,1,0,0:0:0:0:
320,192,297170,1,0,0:0:0:0:
192,192,297259,1,0,0:0:0:0:
320,192,297347,1,0,0:0:0:0:
448,192,297435,1,0,0:0:0:0:
64,192,297523,1,0,0:0:0:0:
192,192,297612,1,0,0:0:0:0:
64,192,297700,1,0,0:0:0:0:
192,192,297788,1,0,0:0:0:0:
320,192,297876,1,0,0:0:0:0:
192,192,297965,1,0,0:0:0:0:
320,192,298053,1,0,0:0:0:0:
448,192,298141,1,0,0:0:0:0:
64,192,298229,1,0,0:0:0:0:
192,192,298318,1,0,0:0:0:0:
64,192,298406,1,0,0:0:0:0:
192,192,298494,1,0,0:0:0:0:
320,192,298582,1,0,0:0:0:0:
192,192,298670,1,0,0:0:0:0:
320,192,298759,1,0,0:0:0:0:
448,192,298847,1,0,0:0:0:0:
64,192,298935,1,0,0:0:0:0:
192,192,299023,1,0,0:0:0:0:
64,192,299112,1,0,0:0:0:0:
192,192,299200,1,0,0:0:0:0:
320,192,299288,1,0,0:0:0:0:
192,192,299376,1,0,0:0:0:0:
320,192,299465,1,0,0:0:0:0:
64,192,299553,128,0,301053:0:0:0:0:
448,192,299553,128,0,301053:0:0:0:0:
