osu file format v14

[General]
AudioFilename: audio.mp3
AudioLeadIn: 0
PreviewTime: 12667
Countdown: 0
SampleSet: Normal
StackLeniency: 0.7
Mode: 3
LetterboxInBreaks: 0
SpecialStyle: 0
WidescreenStoryboard: 0

[Editor]
DistanceSpacing: 0.8
BeatDivisor: 4
GridSize: 8
TimelineZoom: 2

[Metadata]
Title:ULTRA HAPPY MEGAMIX
TitleUnicode:ULTRA HAPPY MEGAMIX
Artist:DJ Genki
ArtistUnicode:DJ Genki
Creator:Shinzo-
Version:7K EXTREME
Source:jubeat Qubell
Tags:
BeatmapID:1160333
BeatmapSetID:547872

[Difficulty]
HPDrainRate:8
CircleSize:7
OverallDifficulty:8
ApproachRate:5
SliderMultiplier:1.4
SliderTickRate:1

[Events]
//Background and Video events
0,0,"Background Map.jpg",0,0
//Break Periods
//Storyboard Layer 0 (Background)
//Storyboard Layer 1 (Fail)
//Storyboard Layer 2 (Pass)
//Storyboard Layer 3 (Foreground)
//Storyboard Sound Samples

[TimingPoints]
2418,333.333333333333,4,1,0,30,1,0
11751,-66.6666666666667,4,1,0,30,0,0
11834,-142.857142857143,4,1,0,30,0,0
12084,-66.6666666666667,4,1,0,30,0,0
12168,-142.857142857143,4,1,0,30,0,0
12418,-66.6666666666667,4,1,0,30,0,0
12501,-142.857142857143,4,1,0,30,0,0
12751,-50,4,1,0,30,0,0
12834,-200,4,1,0,30,0,0
13084,-100,4,1,0,30,0,1
22417,-80,4,1,0,30,0,1
22501,-133.333333333333,4,1,0,30,0,1
22667,-80,4,1,0,30,0,1
22751,-133.333333333333,4,1,0,30,0,1
22917,-80,4,1,0,30,0,1
23001,-133.333333333333,4,1,0,30,0,1
23084,-80,4,1,0,30,0,1
23167,-133.333333333333,4,1,0,30,0,1
23251,-80,4,1,0,30,0,1
23334,-133.333333333333,4,1,0,30,0,1
23417,-100,4,1,0,30,0,1
37084,-100,4,1,0,30,0,0
53167,-153.846153846154,4,1,0,30,0,0
53334,-74.0740740740741,4,1,0,30,0,0
53417,-100,4,1,0,30,0,0
53501,-153.846153846154,4,1,0,30,0,0
53667,-74.0740740740741,4,1,0,30,0,0
53751,-100,4,1,0,30,0,0
53834,-153.846153846154,4,1,0,30,0,0
53917,-74.0740740740741,4,1,0,30,0,0
54001,-100,4,1,0,30,0,0
54084,-153.846153846154,4,1,0,30,0,0
54167,-74.0740740740741,4,1,0,30,0,0
54251,-100,4,1,0,30,0,0
54334,-153.846153846154,4,1,0,30,0,0
54501,-74.0740740740741,4,1,0,30,0,0
54584,-100,4,1,0,30,0,0
54834,-153.846153846154,4,1,0,30,0,0
55001,-74.0740740740741,4,1,0,30,0,0
55084,-100,4,1,0,30,0,0
55167,-153.846153846154,4,1,0,30,0,0
55334,-74.0740740740741,4,1,0,30,0,0
55417,-100,4,1,0,30,0,0
61084,-133.333333333333,4,1,0,30,0,0
66417,-117.647058823529,4,1,0,30,0,0
69084,-105.263157894737,4,1,0,30,0,0
70417,-100,4,1,0,30,0,0
82084,-50,4,1,0,30,0,0
82167,-200,4,1,0,30,0,0
82417,-100,4,1,0,30,0,1
110417,-100,4,1,0,30,0,0

[HitObjects]
256,192,1084,128,0,2417:0:0:0:0:
36,192,2417,1,0,0:0:0:0:
109,192,2417,1,0,0:0:0:0:
402,192,2417,1,0,0:0:0:0:
475,192,2417,1,0,0:0:0:0:
36,192,2584,1,0,0:0:0:0:
182,192,2751,1,0,0:0:0:0:
329,192,2751,1,0,0:0:0:0:
475,192,2917,1,0,0:0:0:0:
329,192,3751,1,0,0:0:0:0:
475,192,3751,1,0,0:0:0:0:
36,192,3917,1,0,0:0:0:0:
256,192,3917,1,0,0:0:0:0:
109,192,4084,1,0,0:0:0:0:
329,192,4084,1,0,0:0:0:0:
182,192,4251,1,0,0:0:0:0:
402,192,4251,1,0,0:0:0:0:
329,192,4584,1,0,0:0:0:0:
475,192,4584,1,0,0:0:0:0:
109,192,4917,1,0,0:0:0:0:
256,192,5084,1,0,0:0:0:0:
475,192,5084,1,0,0:0:0:0:
182,192,5251,1,0,0:0:0:0:
402,192,5251,1,0,0:0:0:0:
109,192,5417,1,0,0:0:0:0:
329,192,5417,1,0,0:0:0:0:
36,192,5584,1,0,0:0:0:0:
475,192,5584,1,0,0:0:0:0:
402,192,5917,1,0,0:0:0:0:
256,192,5917,1,0,0:0:0:0:
182,192,6084,1,0,0:0:0:0:
329,192,6084,1,0,0:0:0:0:
109,192,6251,1,0,0:0:0:0:
256,192,6251,1,0,0:0:0:0:
36,192,6417,1,0,0:0:0:0:
402,192,6417,1,0,0:0:0:0:
109,192,6584,1,0,0:0:0:0:
329,192,6584,1,0,0:0:0:0:
182,192,6751,1,0,0:0:0:0:
475,192,6751,1,0,0:0:0:0:
256,192,6917,1,0,0:0:0:0:
402,192,6917,1,0,0:0:0:0:
36,192,7251,1,0,0:0:0:0:
182,192,7251,1,0,0:0:0:0:
402,192,7584,1,0,0:0:0:0:
36,192,7751,128,0,8084:0:0:0:0:
182,192,7751,1,0,0:0:0:0:
329,192,7751,1,0,0:0:0:0:
109,192,8084,1,0,0:0:0:0:
475,192,8251,128,0,8751:0:0:0:0:
256,192,8251,1,0,0:0:0:0:
402,192,8751,128,0,9084:0:0:0:0:
256,192,8751,1,0,0:0:0:0:
329,192,9084,128,0,9417:0:0:0:0:
36,192,9084,1,0,0:0:0:0:
109,192,9251,1,0,0:0:0:0:
256,192,9417,128,0,9584:0:0:0:0:
475,192,9417,1,0,0:0:0:0:
182,192,9584,128,0,9751:0:0:0:0:
402,192,9584,1,0,0:0:0:0:
109,192,9917,128,0,10084:0:0:0:0:
402,192,10084,1,0,0:0:0:0:
36,192,10251,128,0,11751:0:0:0:0:
329,192,10417,1,0,0:0:0:0:
475,192,10417,1,0,0:0:0:0:
182,192,10751,1,0,0:0:0:0:
329,192,10917,1,0,0:0:0:0:
475,192,10917,1,0,0:0:0:0:
329,192,11417,1,0,0:0:0:0:
475,192,11417,1,0,0:0:0:0:
109,192,11751,1,0,0:0:0:0:
256,192,11751,1,0,0:0:0:0:
402,192,11751,1,0,0:0:0:0:
182,192,12084,1,0,0:0:0:0:
329,192,12084,1,0,0:0:0:0:
256,192,12417,1,0,0:0:0:0:
36,192,12751,1,0,0:0:0:0:
182,192,12751,1,0,0:0:0:0:
329,192,12751,1,0,0:0:0:0:
475,192,12751,1,0,0:0:0:0:
109,192,13084,1,0,0:0:0:0:
329,192,13084,1,0,0:0:0:0:
475,192,13084,128,0,13251:0:0:0:0:
256,192,13251,1,0,0:0:0:0:
36,192,13417,128,0,13584:0:0:0:0:
182,192,13417,1,0,0:0:0:0:
402,192,13417,1,0,0:0:0:0:
329,192,13584,1,0,0:0:0:0:
182,192,13751,128,0,13917:0:0:0:0:
256,192,13751,1,0,0:0:0:0:
329,192,13917,128,0,14084:0:0:0:0:
36,192,13917,1,0,0:0:0:0:
109,192,14084,1,0,0:0:0:0:
475,192,14084,1,0,0:0:0:0:
402,192,14251,128,0,14417:0:0:0:0:
256,192,14251,1,0,0:0:0:0:
329,192,14417,1,0,0:0:0:0:
36,192,14417,1,0,0:0:0:0:
109,192,14584,128,0,14751:0:0:0:0:
182,192,14584,1,0,0:0:0:0:
475,192,14751,128,0,14917:0:0:0:0:
256,192,14751,1,0,0:0:0:0:
402,192,14751,1,0,0:0:0:0:
36,192,14917,128,0,15084:0:0:0:0:
329,192,14917,1,0,0:0:0:0:
109,192,15084,1,0,0:0:0:0:
402,192,15084,1,0,0:0:0:0:
256,192,15251,1,0,0:0:0:0:
475,192,15251,1,0,0:0:0:0:
36,192,15251,128,0,15417:0:0:0:0:
182,192,15334,1,0,0:0:0:0:
402,192,15334,1,0,0:0:0:0:
109,192,15417,1,0,0:0:0:0:
329,192,15417,1,0,0:0:0:0:
475,192,15417,128,0,15501:0:0:0:0:
256,192,15501,128,0,15584:0:0:0:0:
402,192,15584,128,0,15667:0:0:0:0:
182,192,15667,128,0,15751:0:0:0:0:
36,192,15751,1,0,0:0:0:0:
109,192,15751,1,0,0:0:0:0:
329,192,15751,128,0,15917:0:0:0:0:
475,192,15917,1,0,0:0:0:0:
182,192,16084,128,0,16251:0:0:0:0:
36,192,16084,1,0,0:0:0:0:
329,192,16084,1,0,0:0:0:0:
256,192,16251,1,0,0:0:0:0:
402,192,16417,128,0,16584:0:0:0:0:
182,192,16417,1,0,0:0:0:0:
256,192,16584,1,0,0:0:0:0:
109,192,16751,128,0,16917:0:0:0:0:
329,192,16751,1,0,0:0:0:0:
475,192,16751,1,0,0:0:0:0:
256,192,16917,128,0,17084:0:0:0:0:
36,192,16917,1,0,0:0:0:0:
182,192,17084,1,0,0:0:0:0:
402,192,17084,1,0,0:0:0:0:
329,192,17251,1,0,0:0:0:0:
36,192,17251,128,0,17417:0:0:0:0:
475,192,17417,128,0,17584:0:0:0:0:
109,192,17417,1,0,0:0:0:0:
402,192,17417,1,0,0:0:0:0:
256,192,17584,128,0,17751:0:0:0:0:
182,192,17584,1,0,0:0:0:0:
329,192,17751,1,0,0:0:0:0:
402,192,17751,1,0,0:0:0:0:
36,192,17751,1,0,0:0:0:0:
109,192,17917,1,0,0:0:0:0:
182,192,17917,1,0,0:0:0:0:
475,192,17917,1,0,0:0:0:0:
109,192,18084,1,0,0:0:0:0:
182,192,18084,1,0,0:0:0:0:
475,192,18084,1,0,0:0:0:0:
329,192,18167,1,0,0:0:0:0:
402,192,18167,1,0,0:0:0:0:
256,192,18251,1,0,0:0:0:0:
182,192,18251,1,0,0:0:0:0:
109,192,18334,1,0,0:0:0:0:
36,192,18334,1,0,0:0:0:0:
329,192,18417,1,0,0:0:0:0:
182,192,18417,1,0,0:0:0:0:
402,192,18417,128,0,18584:0:0:0:0:
475,192,18584,1,0,0:0:0:0:
36,192,18751,128,0,18917:0:0:0:0:
109,192,18751,1,0,0:0:0:0:
256,192,18751,1,0,0:0:0:0:
329,192,18917,1,0,0:0:0:0:
109,192,19084,128,0,19251:0:0:0:0:
402,192,19084,1,0,0:0:0:0:
475,192,19251,128,0,19417:0:0:0:0:
256,192,19251,1,0,0:0:0:0:
329,192,19417,1,0,0:0:0:0:
36,192,19417,1,0,0:0:0:0:
256,192,19584,128,0,19751:0:0:0:0:
109,192,19584,1,0,0:0:0:0:
182,192,19751,1,0,0:0:0:0:
475,192,19751,1,0,0:0:0:0:
402,192,19917,128,0,20084:0:0:0:0:
36,192,19917,1,0,0:0:0:0:
329,192,20084,128,0,20251:0:0:0:0:
182,192,20084,1,0,0:0:0:0:
475,192,20084,1,0,0:0:0:0:
109,192,20251,128,0,20417:0:0:0:0:
402,192,20251,1,0,0:0:0:0:
329,192,20417,1,0,0:0:0:0:
36,192,20417,1,0,0:0:0:0:
256,192,20584,1,0,0:0:0:0:
475,192,20584,128,0,20667:0:0:0:0:
182,192,20667,1,0,0:0:0:0:
402,192,20667,128,0,20751:0:0:0:0:
109,192,20751,1,0,0:0:0:0:
329,192,20751,128,0,20834:0:0:0:0:
256,192,20834,128,0,20917:0:0:0:0:
182,192,20917,128,0,21001:0:0:0:0:
109,192,21001,128,0,21084:0:0:0:0:
36,192,21084,128,0,21251:0:0:0:0:
402,192,21084,1,0,0:0:0:0:
475,192,21084,1,0,0:0:0:0:
329,192,21251,1,0,0:0:0:0:
182,192,21417,128,0,21584:0:0:0:0:
256,192,21417,1,0,0:0:0:0:
36,192,21417,1,0,0:0:0:0:
109,192,21584,1,0,0:0:0:0:
329,192,21751,128,0,21917:0:0:0:0:
182,192,21751,1,0,0:0:0:0:
402,192,21917,1,0,0:0:0:0:
475,192,22084,128,0,22417:0:0:0:0:
329,192,22084,1,0,0:0:0:0:
109,192,22084,1,0,0:0:0:0:
36,192,22251,128,0,22417:0:0:0:0:
182,192,22251,1,0,0:0:0:0:
256,192,22417,1,0,0:0:0:0:
109,192,22417,1,0,0:0:0:0:
402,192,22417,1,0,0:0:0:0:
36,192,22667,1,0,0:0:0:0:
329,192,22667,1,0,0:0:0:0:
475,192,22667,1,0,0:0:0:0:
36,192,22917,1,0,0:0:0:0:
182,192,22917,1,0,0:0:0:0:
475,192,22917,1,0,0:0:0:0:
109,192,23084,1,0,0:0:0:0:
256,192,23084,1,0,0:0:0:0:
402,192,23084,1,0,0:0:0:0:
36,192,23251,1,0,0:0:0:0:
256,192,23251,1,0,0:0:0:0:
475,192,23251,1,0,0:0:0:0:
109,192,23417,1,0,0:0:0:0:
402,192,23417,1,0,0:0:0:0:
36,192,23501,1,0,0:0:0:0:
329,192,23501,1,0,0:0:0:0:
256,192,23584,1,0,0:0:0:0:
475,192,23584,1,0,0:0:0:0:
182,192,23667,1,0,0:0:0:0:
402,192,23667,1,0,0:0:0:0:
329,192,23751,1,0,0:0:0:0:
109,192,23751,1,0,0:0:0:0:
475,192,23751,128,0,24751:0:0:0:0:
36,192,23751,128,0,23917:0:0:0:0:
182,192,23917,1,0,0:0:0:0:
256,192,24084,128,0,24251:0:0:0:0:
402,192,24084,1,0,0:0:0:0:
109,192,24251,1,0,0:0:0:0:
36,192,24417,128,0,24584:0:0:0:0:
329,192,24417,1,0,0:0:0:0:
109,192,24584,128,0,24751:0:0:0:0:
182,192,24584,1,0,0:0:0:0:
402,192,24751,128,0,24917:0:0:0:0:
329,192,24751,1,0,0:0:0:0:
36,192,24917,128,0,25084:0:0:0:0:
256,192,24917,128,0,25084:0:0:0:0:
182,192,24917,1,0,0:0:0:0:
402,192,25084,1,0,0:0:0:0:
109,192,25251,128,0,25417:0:0:0:0:
475,192,25251,128,0,25417:0:0:0:0:
329,192,25251,1,0,0:0:0:0:
182,192,25417,128,0,25584:0:0:0:0:
402,192,25417,128,0,25584:0:0:0:0:
256,192,25417,1,0,0:0:0:0:
36,192,25584,128,0,25917:0:0:0:0:
329,192,25584,128,0,25751:0:0:0:0:
109,192,25584,1,0,0:0:0:0:
182,192,25751,1,0,0:0:0:0:
475,192,25917,128,0,26084:0:0:0:0:
109,192,25917,128,0,26084:0:0:0:0:
256,192,25917,1,0,0:0:0:0:
402,192,26084,128,0,26251:0:0:0:0:
182,192,26084,128,0,26251:0:0:0:0:
256,192,26084,1,0,0:0:0:0:
329,192,26251,128,0,26417:0:0:0:0:
36,192,26251,1,0,0:0:0:0:
109,192,26334,1,0,0:0:0:0:
182,192,26417,128,0,26584:0:0:0:0:
475,192,26417,128,0,26584:0:0:0:0:
256,192,26417,1,0,0:0:0:0:
36,192,26584,1,0,0:0:0:0:
109,192,26751,128,0,26917:0:0:0:0:
475,192,26751,128,0,26917:0:0:0:0:
329,192,26751,1,0,0:0:0:0:
256,192,26917,1,0,0:0:0:0:
402,192,27084,128,0,27251:0:0:0:0:
182,192,27084,128,0,27251:0:0:0:0:
36,192,27084,1,0,0:0:0:0:
475,192,27251,1,0,0:0:0:0:
329,192,27417,128,0,27584:0:0:0:0:
182,192,27417,128,0,27584:0:0:0:0:
36,192,27417,1,0,0:0:0:0:
402,192,27584,128,0,27751:0:0:0:0:
109,192,27584,128,0,27751:0:0:0:0:
256,192,27584,1,0,0:0:0:0:
475,192,27751,1,0,0:0:0:0:
182,192,27751,1,0,0:0:0:0:
329,192,27751,1,0,0:0:0:0:
36,192,27917,128,0,28084:0:0:0:0:
475,192,28084,128,0,28251:0:0:0:0:
256,192,28251,128,0,28584:0:0:0:0:
109,192,28251,1,0,0:0:0:0:
402,192,28251,1,0,0:0:0:0:
182,192,28584,1,0,0:0:0:0:
329,192,28584,1,0,0:0:0:0:
36,192,28584,1,0,0:0:0:0:
36,192,28751,1,0,0:0:0:0:
256,192,28751,1,0,0:0:0:0:
475,192,28751,1,0,0:0:0:0:
182,192,28834,1,0,0:0:0:0:
402,192,28834,1,0,0:0:0:0:
109,192,28917,1,0,0:0:0:0:
329,192,28917,1,0,0:0:0:0:
256,192,29001,1,0,0:0:0:0:
475,192,29001,1,0,0:0:0:0:
402,192,29084,1,0,0:0:0:0:
182,192,29084,1,0,0:0:0:0:
36,192,29084,1,0,0:0:0:0:
182,192,29251,1,0,0:0:0:0:
402,192,29251,1,0,0:0:0:0:
109,192,29417,1,0,0:0:0:0:
329,192,29417,1,0,0:0:0:0:
109,192,29584,1,0,0:0:0:0:
329,192,29584,1,0,0:0:0:0:
182,192,29751,1,0,0:0:0:0:
36,192,29751,1,0,0:0:0:0:
475,192,29751,1,0,0:0:0:0:
256,192,29834,1,0,0:0:0:0:
402,192,29834,1,0,0:0:0:0:
36,192,29917,1,0,0:0:0:0:
182,192,29917,1,0,0:0:0:0:
329,192,30001,1,0,0:0:0:0:
475,192,30001,1,0,0:0:0:0:
109,192,30084,1,0,0:0:0:0:
256,192,30084,1,0,0:0:0:0:
329,192,30167,1,0,0:0:0:0:
475,192,30167,1,0,0:0:0:0:
182,192,30251,1,0,0:0:0:0:
36,192,30251,1,0,0:0:0:0:
256,192,30334,1,0,0:0:0:0:
402,192,30334,1,0,0:0:0:0:
109,192,30417,1,0,0:0:0:0:
36,192,30417,1,0,0:0:0:0:
475,192,30417,1,0,0:0:0:0:
109,192,30584,1,0,0:0:0:0:
36,192,30584,1,0,0:0:0:0:
475,192,30751,1,0,0:0:0:0:
402,192,30751,1,0,0:0:0:0:
475,192,30917,1,0,0:0:0:0:
402,192,30917,1,0,0:0:0:0:
36,192,31084,1,0,0:0:0:0:
256,192,31084,1,0,0:0:0:0:
475,192,31084,1,0,0:0:0:0:
402,192,31167,1,0,0:0:0:0:
329,192,31167,1,0,0:0:0:0:
182,192,31251,1,0,0:0:0:0:
109,192,31251,1,0,0:0:0:0:
475,192,31251,1,0,0:0:0:0:
256,192,31334,1,0,0:0:0:0:
329,192,31334,1,0,0:0:0:0:
402,192,31417,1,0,0:0:0:0:
475,192,31417,1,0,0:0:0:0:
36,192,31417,1,0,0:0:0:0:
109,192,31501,1,0,0:0:0:0:
182,192,31584,1,0,0:0:0:0:
329,192,31584,1,0,0:0:0:0:
402,192,31667,1,0,0:0:0:0:
475,192,31751,1,0,0:0:0:0:
256,192,31751,1,0,0:0:0:0:
36,192,31751,1,0,0:0:0:0:
182,192,31834,1,0,0:0:0:0:
36,192,31917,1,0,0:0:0:0:
109,192,31917,1,0,0:0:0:0:
402,192,32001,1,0,0:0:0:0:
329,192,32084,1,0,0:0:0:0:
109,192,32084,1,0,0:0:0:0:
36,192,32084,1,0,0:0:0:0:
256,192,32167,1,0,0:0:0:0:
36,192,32251,1,0,0:0:0:0:
109,192,32251,1,0,0:0:0:0:
475,192,32251,1,0,0:0:0:0:
402,192,32334,1,0,0:0:0:0:
109,192,32417,1,0,0:0:0:0:
36,192,32417,1,0,0:0:0:0:
329,192,32417,1,0,0:0:0:0:
256,192,32501,1,0,0:0:0:0:
402,192,32584,1,0,0:0:0:0:
475,192,32584,1,0,0:0:0:0:
182,192,32584,1,0,0:0:0:0:
109,192,32667,1,0,0:0:0:0:
36,192,32751,1,0,0:0:0:0:
402,192,32751,1,0,0:0:0:0:
475,192,32751,1,0,0:0:0:0:
256,192,32834,1,0,0:0:0:0:
182,192,32917,1,0,0:0:0:0:
402,192,32917,1,0,0:0:0:0:
475,192,32917,1,0,0:0:0:0:
109,192,33001,1,0,0:0:0:0:
36,192,33084,1,0,0:0:0:0:
475,192,33084,1,0,0:0:0:0:
402,192,33084,1,0,0:0:0:0:
329,192,33167,1,0,0:0:0:0:
182,192,33251,128,0,33417:0:0:0:0:
256,192,33251,1,0,0:0:0:0:
36,192,33334,1,0,0:0:0:0:
475,192,33417,128,0,33584:0:0:0:0:
109,192,33417,1,0,0:0:0:0:
402,192,33501,1,0,0:0:0:0:
36,192,33584,128,0,33751:0:0:0:0:
329,192,33584,1,0,0:0:0:0:
109,192,33667,1,0,0:0:0:0:
182,192,33751,128,0,33917:0:0:0:0:
475,192,33751,1,0,0:0:0:0:
402,192,33834,1,0,0:0:0:0:
256,192,33917,128,0,34084:0:0:0:0:
329,192,33917,1,0,0:0:0:0:
36,192,34001,1,0,0:0:0:0:
109,192,34084,1,0,0:0:0:0:
475,192,34084,128,0,34251:0:0:0:0:
402,192,34167,1,0,0:0:0:0:
36,192,34251,128,0,34417:0:0:0:0:
329,192,34251,1,0,0:0:0:0:
109,192,34334,1,0,0:0:0:0:
182,192,34417,1,0,0:0:0:0:
475,192,34501,1,0,0:0:0:0:
109,192,34584,1,0,0:0:0:0:
402,192,34667,1,0,0:0:0:0:
36,192,34751,1,0,0:0:0:0:
256,192,34751,1,0,0:0:0:0:
109,192,34834,1,0,0:0:0:0:
182,192,34917,1,0,0:0:0:0:
329,192,34917,1,0,0:0:0:0:
402,192,35001,1,0,0:0:0:0:
475,192,35084,1,0,0:0:0:0:
36,192,35167,1,0,0:0:0:0:
402,192,35251,1,0,0:0:0:0:
109,192,35334,1,0,0:0:0:0:
329,192,35417,1,0,0:0:0:0:
475,192,35459,1,0,0:0:0:0:
182,192,35501,1,0,0:0:0:0:
36,192,35542,1,0,0:0:0:0:
329,192,35584,1,0,0:0:0:0:
402,192,35584,1,0,0:0:0:0:
109,192,35667,1,0,0:0:0:0:
182,192,35667,1,0,0:0:0:0:
256,192,35751,1,0,0:0:0:0:
402,192,35751,1,0,0:0:0:0:
475,192,35751,1,0,0:0:0:0:
182,192,36084,1,0,0:0:0:0:
402,192,36084,1,0,0:0:0:0:
475,192,36084,1,0,0:0:0:0:
109,192,36417,1,0,0:0:0:0:
402,192,36417,1,0,0:0:0:0:
475,192,36417,1,0,0:0:0:0:
182,192,36584,1,0,0:0:0:0:
329,192,36584,1,0,0:0:0:0:
182,192,36667,1,0,0:0:0:0:
329,192,36667,1,0,0:0:0:0:
36,192,36751,1,0,0:0:0:0:
109,192,36751,1,0,0:0:0:0:
402,192,36751,1,0,0:0:0:0:
475,192,36751,1,0,0:0:0:0:
109,192,37084,1,0,0:0:0:0:
256,192,37084,1,0,0:0:0:0:
402,192,37084,1,0,0:0:0:0:
329,192,37251,1,0,0:0:0:0:
475,192,37251,1,0,0:0:0:0:
329,192,37334,1,0,0:0:0:0:
475,192,37334,1,0,0:0:0:0:
36,192,37417,1,0,0:0:0:0:
182,192,37417,1,0,0:0:0:0:
256,192,37417,1,0,0:0:0:0:
329,192,37584,1,0,0:0:0:0:
475,192,37584,1,0,0:0:0:0:
329,192,37667,1,0,0:0:0:0:
109,192,37751,1,0,0:0:0:0:
36,192,37751,1,0,0:0:0:0:
256,192,37751,1,0,0:0:0:0:
402,192,37834,1,0,0:0:0:0:
182,192,37917,1,0,0:0:0:0:
36,192,37917,1,0,0:0:0:0:
182,192,38001,1,0,0:0:0:0:
256,192,38084,1,0,0:0:0:0:
329,192,38084,1,0,0:0:0:0:
475,192,38084,1,0,0:0:0:0:
36,192,38251,1,0,0:0:0:0:
182,192,38251,1,0,0:0:0:0:
36,192,38334,1,0,0:0:0:0:
256,192,38417,1,0,0:0:0:0:
402,192,38417,1,0,0:0:0:0:
475,192,38417,1,0,0:0:0:0:
109,192,38584,1,0,0:0:0:0:
329,192,38584,1,0,0:0:0:0:
329,192,38667,1,0,0:0:0:0:
182,192,38751,1,0,0:0:0:0:
256,192,38751,1,0,0:0:0:0:
475,192,38751,1,0,0:0:0:0:
109,192,38834,1,0,0:0:0:0:
36,192,38917,1,0,0:0:0:0:
36,192,39001,1,0,0:0:0:0:
182,192,39084,1,0,0:0:0:0:
475,192,39084,1,0,0:0:0:0:
256,192,39084,1,0,0:0:0:0:
329,192,39167,1,0,0:0:0:0:
402,192,39251,1,0,0:0:0:0:
402,192,39334,1,0,0:0:0:0:
109,192,39417,1,0,0:0:0:0:
36,192,39417,1,0,0:0:0:0:
475,192,39417,1,0,0:0:0:0:
256,192,39501,1,0,0:0:0:0:
182,192,39584,1,0,0:0:0:0:
182,192,39667,1,0,0:0:0:0:
109,192,39751,1,0,0:0:0:0:
402,192,39751,1,0,0:0:0:0:
36,192,39751,1,0,0:0:0:0:
329,192,39917,1,0,0:0:0:0:
475,192,39917,1,0,0:0:0:0:
475,192,40001,1,0,0:0:0:0:
329,192,40001,1,0,0:0:0:0:
182,192,40084,1,0,0:0:0:0:
36,192,40084,1,0,0:0:0:0:
256,192,40084,1,0,0:0:0:0:
329,192,40251,1,0,0:0:0:0:
475,192,40251,1,0,0:0:0:0:
329,192,40334,1,0,0:0:0:0:
109,192,40417,1,0,0:0:0:0:
36,192,40417,1,0,0:0:0:0:
256,192,40417,1,0,0:0:0:0:
402,192,40501,1,0,0:0:0:0:
182,192,40584,1,0,0:0:0:0:
36,192,40584,1,0,0:0:0:0:
182,192,40667,1,0,0:0:0:0:
256,192,40751,1,0,0:0:0:0:
329,192,40751,1,0,0:0:0:0:
475,192,40751,1,0,0:0:0:0:
36,192,40917,1,0,0:0:0:0:
182,192,40917,1,0,0:0:0:0:
36,192,41001,1,0,0:0:0:0:
256,192,41084,1,0,0:0:0:0:
402,192,41084,1,0,0:0:0:0:
475,192,41084,1,0,0:0:0:0:
109,192,41251,1,0,0:0:0:0:
329,192,41251,1,0,0:0:0:0:
329,192,41334,1,0,0:0:0:0:
182,192,41417,1,0,0:0:0:0:
256,192,41417,1,0,0:0:0:0:
475,192,41417,1,0,0:0:0:0:
109,192,41501,1,0,0:0:0:0:
36,192,41584,1,0,0:0:0:0:
36,192,41667,1,0,0:0:0:0:
182,192,41751,1,0,0:0:0:0:
475,192,41751,1,0,0:0:0:0:
256,192,41751,1,0,0:0:0:0:
329,192,41834,1,0,0:0:0:0:
402,192,41917,1,0,0:0:0:0:
402,192,42001,1,0,0:0:0:0:
109,192,42084,1,0,0:0:0:0:
36,192,42084,1,0,0:0:0:0:
475,192,42084,1,0,0:0:0:0:
256,192,42167,1,0,0:0:0:0:
182,192,42251,1,0,0:0:0:0:
182,192,42334,1,0,0:0:0:0:
109,192,42417,1,0,0:0:0:0:
36,192,42417,1,0,0:0:0:0:
402,192,42417,1,0,0:0:0:0:
329,192,42584,1,0,0:0:0:0:
329,192,42667,1,0,0:0:0:0:
36,192,42751,1,0,0:0:0:0:
109,192,42751,1,0,0:0:0:0:
256,192,42751,1,0,0:0:0:0:
402,192,42917,1,0,0:0:0:0:
329,192,43001,1,0,0:0:0:0:
36,192,43084,1,0,0:0:0:0:
109,192,43084,1,0,0:0:0:0:
256,192,43084,1,0,0:0:0:0:
36,192,43251,1,0,0:0:0:0:
109,192,43251,1,0,0:0:0:0:
329,192,43251,1,0,0:0:0:0:
329,192,43334,1,0,0:0:0:0:
256,192,43417,1,0,0:0:0:0:
182,192,43417,1,0,0:0:0:0:
402,192,43501,1,0,0:0:0:0:
109,192,43584,1,0,0:0:0:0:
36,192,43584,1,0,0:0:0:0:
475,192,43584,1,0,0:0:0:0:
475,192,43667,1,0,0:0:0:0:
36,192,43917,1,0,0:0:0:0:
109,192,43917,1,0,0:0:0:0:
329,192,43917,1,0,0:0:0:0:
329,192,44001,1,0,0:0:0:0:
36,192,44084,1,0,0:0:0:0:
109,192,44084,1,0,0:0:0:0:
256,192,44084,1,0,0:0:0:0:
475,192,44251,1,0,0:0:0:0:
329,192,44334,1,0,0:0:0:0:
36,192,44417,1,0,0:0:0:0:
109,192,44417,1,0,0:0:0:0:
256,192,44584,1,0,0:0:0:0:
256,192,44667,1,0,0:0:0:0:
109,192,44751,1,0,0:0:0:0:
402,192,44751,1,0,0:0:0:0:
182,192,44834,1,0,0:0:0:0:
256,192,44917,1,0,0:0:0:0:
329,192,45001,1,0,0:0:0:0:
475,192,45084,1,0,0:0:0:0:
402,192,45084,1,0,0:0:0:0:
36,192,45084,1,0,0:0:0:0:
402,192,45251,1,0,0:0:0:0:
475,192,45251,1,0,0:0:0:0:
182,192,45251,1,0,0:0:0:0:
182,192,45334,1,0,0:0:0:0:
402,192,45417,1,0,0:0:0:0:
475,192,45417,1,0,0:0:0:0:
256,192,45417,1,0,0:0:0:0:
36,192,45584,1,0,0:0:0:0:
182,192,45667,1,0,0:0:0:0:
402,192,45751,1,0,0:0:0:0:
475,192,45751,1,0,0:0:0:0:
475,192,45917,1,0,0:0:0:0:
402,192,45917,1,0,0:0:0:0:
182,192,45917,1,0,0:0:0:0:
182,192,46001,1,0,0:0:0:0:
256,192,46084,1,0,0:0:0:0:
329,192,46084,1,0,0:0:0:0:
36,192,46167,1,0,0:0:0:0:
402,192,46251,1,0,0:0:0:0:
475,192,46251,1,0,0:0:0:0:
182,192,46251,1,0,0:0:0:0:
182,192,46334,1,0,0:0:0:0:
256,192,46417,128,0,46501:0:0:0:0:
182,192,46584,128,0,46667:0:0:0:0:
329,192,46584,128,0,46667:0:0:0:0:
109,192,46751,128,0,46834:0:0:0:0:
256,192,46751,128,0,46834:0:0:0:0:
402,192,46751,128,0,46834:0:0:0:0:
36,192,46917,128,0,47001:0:0:0:0:
475,192,46917,128,0,47001:0:0:0:0:
182,192,46917,128,0,47001:0:0:0:0:
329,192,46917,128,0,47001:0:0:0:0:
36,192,47084,128,0,47167:0:0:0:0:
475,192,47084,128,0,47167:0:0:0:0:
109,192,47084,128,0,47167:0:0:0:0:
256,192,47084,128,0,47167:0:0:0:0:
402,192,47084,128,0,47167:0:0:0:0:
402,192,47251,128,0,47334:0:0:0:0:
329,192,47251,128,0,47334:0:0:0:0:
475,192,47251,128,0,47334:0:0:0:0:
182,192,47251,128,0,47334:0:0:0:0:
109,192,47251,128,0,47334:0:0:0:0:
36,192,47251,128,0,47334:0:0:0:0:
36,192,47417,1,0,0:0:0:0:
402,192,47417,1,0,0:0:0:0:
475,192,47417,1,0,0:0:0:0:
109,192,47417,1,0,0:0:0:0:
182,192,47501,1,0,0:0:0:0:
329,192,47501,1,0,0:0:0:0:
36,192,47584,1,0,0:0:0:0:
475,192,47584,1,0,0:0:0:0:
109,192,47667,1,0,0:0:0:0:
402,192,47667,1,0,0:0:0:0:
182,192,47751,1,0,0:0:0:0:
256,192,47751,1,0,0:0:0:0:
329,192,47751,1,0,0:0:0:0:
256,192,48084,1,0,0:0:0:0:
475,192,48251,1,0,0:0:0:0:
329,192,48306,1,0,0:0:0:0:
182,192,48362,1,0,0:0:0:0:
36,192,48417,1,0,0:0:0:0:
475,192,48417,1,0,0:0:0:0:
36,192,48584,1,0,0:0:0:0:
402,192,48584,1,0,0:0:0:0:
36,192,48751,1,0,0:0:0:0:
329,192,48751,1,0,0:0:0:0:
256,192,48834,1,0,0:0:0:0:
182,192,48917,1,0,0:0:0:0:
109,192,49001,1,0,0:0:0:0:
36,192,49084,1,0,0:0:0:0:
475,192,49084,1,0,0:0:0:0:
329,192,49167,1,0,0:0:0:0:
475,192,49251,1,0,0:0:0:0:
329,192,49334,1,0,0:0:0:0:
402,192,49417,1,0,0:0:0:0:
109,192,49417,1,0,0:0:0:0:
256,192,49501,1,0,0:0:0:0:
402,192,49584,1,0,0:0:0:0:
256,192,49667,1,0,0:0:0:0:
329,192,49751,1,0,0:0:0:0:
36,192,49751,1,0,0:0:0:0:
182,192,49834,1,0,0:0:0:0:
329,192,49917,1,0,0:0:0:0:
475,192,49917,1,0,0:0:0:0:
182,192,50001,1,0,0:0:0:0:
256,192,50084,1,0,0:0:0:0:
475,192,50084,1,0,0:0:0:0:
109,192,50167,1,0,0:0:0:0:
256,192,50251,1,0,0:0:0:0:
475,192,50251,1,0,0:0:0:0:
109,192,50334,1,0,0:0:0:0:
329,192,50417,1,0,0:0:0:0:
475,192,50417,1,0,0:0:0:0:
329,192,50529,1,0,0:0:0:0:
475,192,50529,1,0,0:0:0:0:
36,192,50640,1,0,0:0:0:0:
182,192,50640,1,0,0:0:0:0:
36,192,50751,1,0,0:0:0:0:
182,192,50751,1,0,0:0:0:0:
109,192,50917,1,0,0:0:0:0:
182,192,50973,1,0,0:0:0:0:
329,192,51029,1,0,0:0:0:0:
402,192,51084,1,0,0:0:0:0:
109,192,51084,1,0,0:0:0:0:
402,192,51251,1,0,0:0:0:0:
36,192,51251,1,0,0:0:0:0:
36,192,51417,1,0,0:0:0:0:
475,192,51417,1,0,0:0:0:0:
109,192,51501,1,0,0:0:0:0:
182,192,51584,1,0,0:0:0:0:
256,192,51667,1,0,0:0:0:0:
329,192,51751,1,0,0:0:0:0:
36,192,51751,1,0,0:0:0:0:
109,192,51792,1,0,0:0:0:0:
182,192,51834,1,0,0:0:0:0:
475,192,51834,1,0,0:0:0:0:
329,192,51917,1,0,0:0:0:0:
402,192,51917,1,0,0:0:0:0:
36,192,52001,1,0,0:0:0:0:
109,192,52001,1,0,0:0:0:0:
182,192,52084,1,0,0:0:0:0:
475,192,52084,1,0,0:0:0:0:
402,192,52126,1,0,0:0:0:0:
329,192,52167,1,0,0:0:0:0:
36,192,52167,1,0,0:0:0:0:
109,192,52251,1,0,0:0:0:0:
182,192,52251,1,0,0:0:0:0:
402,192,52334,1,0,0:0:0:0:
475,192,52334,1,0,0:0:0:0:
36,192,52417,1,0,0:0:0:0:
256,192,52417,1,0,0:0:0:0:
329,192,52417,1,0,0:0:0:0:
109,192,52459,1,0,0:0:0:0:
182,192,52501,1,0,0:0:0:0:
475,192,52501,1,0,0:0:0:0:
329,192,52584,1,0,0:0:0:0:
402,192,52584,1,0,0:0:0:0:
109,192,52667,1,0,0:0:0:0:
36,192,52667,1,0,0:0:0:0:
402,192,52751,1,0,0:0:0:0:
475,192,52751,1,0,0:0:0:0:
36,192,52834,1,0,0:0:0:0:
109,192,52834,1,0,0:0:0:0:
402,192,52917,1,0,0:0:0:0:
475,192,52917,1,0,0:0:0:0:
36,192,53001,1,0,0:0:0:0:
109,192,53001,1,0,0:0:0:0:
256,192,53084,1,0,0:0:0:0:
475,192,53084,1,0,0:0:0:0:
402,192,53084,1,0,0:0:0:0:
329,192,53167,1,0,0:0:0:0:
36,192,53417,1,0,0:0:0:0:
109,192,53417,1,0,0:0:0:0:
256,192,53417,1,0,0:0:0:0:
182,192,53501,1,0,0:0:0:0:
256,192,53751,1,0,0:0:0:0:
329,192,53751,1,0,0:0:0:0:
475,192,53751,1,0,0:0:0:0:
402,192,53834,1,0,0:0:0:0:
36,192,54001,1,0,0:0:0:0:
182,192,54001,1,0,0:0:0:0:
256,192,54001,1,0,0:0:0:0:
109,192,54084,1,0,0:0:0:0:
36,192,54251,1,0,0:0:0:0:
329,192,54251,1,0,0:0:0:0:
475,192,54251,1,0,0:0:0:0:
182,192,54334,1,0,0:0:0:0:
36,192,54584,1,0,0:0:0:0:
182,192,54584,1,0,0:0:0:0:
475,192,54584,1,0,0:0:0:0:
329,192,54667,1,0,0:0:0:0:
475,192,54751,1,0,0:0:0:0:
36,192,54751,1,0,0:0:0:0:
182,192,54751,1,0,0:0:0:0:
329,192,54834,1,0,0:0:0:0:
36,192,55084,1,0,0:0:0:0:
475,192,55084,1,0,0:0:0:0:
329,192,55084,1,0,0:0:0:0:
182,192,55167,1,0,0:0:0:0:
36,192,55417,1,0,0:0:0:0:
475,192,55417,1,0,0:0:0:0:
256,192,55417,1,0,0:0:0:0:
402,192,55501,128,0,55667:0:0:0:0:
109,192,55501,128,0,55667:0:0:0:0:
109,192,55751,1,0,0:0:0:0:
256,192,55751,1,0,0:0:0:0:
402,192,55751,1,0,0:0:0:0:
36,192,56001,1,0,0:0:0:0:
256,192,56001,1,0,0:0:0:0:
475,192,56001,1,0,0:0:0:0:
109,192,56251,1,0,0:0:0:0:
256,192,56251,1,0,0:0:0:0:
402,192,56251,1,0,0:0:0:0:
182,192,56501,1,0,0:0:0:0:
329,192,56501,1,0,0:0:0:0:
256,192,56501,1,0,0:0:0:0:
36,192,56751,1,0,0:0:0:0:
256,192,56751,1,0,0:0:0:0:
475,192,56751,1,0,0:0:0:0:
109,192,56834,1,0,0:0:0:0:
402,192,56834,1,0,0:0:0:0:
182,192,56917,1,0,0:0:0:0:
329,192,56917,1,0,0:0:0:0:
109,192,57001,1,0,0:0:0:0:
402,192,57001,1,0,0:0:0:0:
36,192,57084,1,0,0:0:0:0:
256,192,57084,1,0,0:0:0:0:
475,192,57084,1,0,0:0:0:0:
36,192,57167,1,0,0:0:0:0:
256,192,57167,1,0,0:0:0:0:
475,192,57167,1,0,0:0:0:0:
109,192,57334,1,0,0:0:0:0:
182,192,57334,1,0,0:0:0:0:
402,192,57334,1,0,0:0:0:0:
109,192,57417,1,0,0:0:0:0:
182,192,57417,1,0,0:0:0:0:
402,192,57417,1,0,0:0:0:0:
256,192,57584,1,0,0:0:0:0:
475,192,57584,1,0,0:0:0:0:
36,192,57584,1,0,0:0:0:0:
36,192,57667,1,0,0:0:0:0:
256,192,57667,1,0,0:0:0:0:
475,192,57667,1,0,0:0:0:0:
329,192,57834,1,0,0:0:0:0:
402,192,57834,1,0,0:0:0:0:
109,192,57834,1,0,0:0:0:0:
402,192,57917,1,0,0:0:0:0:
329,192,57917,1,0,0:0:0:0:
109,192,57917,1,0,0:0:0:0:
256,192,58084,1,0,0:0:0:0:
475,192,58084,128,0,58251:0:0:0:0:
36,192,58084,128,0,58251:0:0:0:0:
109,192,58251,128,0,58417:0:0:0:0:
256,192,58251,1,0,0:0:0:0:
402,192,58251,128,0,58417:0:0:0:0:
182,192,58417,1,0,0:0:0:0:
36,192,58417,1,0,0:0:0:0:
329,192,58417,1,0,0:0:0:0:
475,192,58417,1,0,0:0:0:0:
329,192,59167,1,0,0:0:0:0:
329,192,59251,1,0,0:0:0:0:
182,192,59334,1,0,0:0:0:0:
182,192,59417,128,0,59751:0:0:0:0:
402,192,59584,1,0,0:0:0:0:
475,192,59584,1,0,0:0:0:0:
256,192,59667,1,0,0:0:0:0:
329,192,59667,1,0,0:0:0:0:
109,192,59751,1,0,0:0:0:0:
36,192,59751,1,0,0:0:0:0:
475,192,59751,1,0,0:0:0:0:
475,192,59917,1,0,0:0:0:0:
36,192,60084,1,0,0:0:0:0:
109,192,60084,1,0,0:0:0:0:
329,192,60084,1,0,0:0:0:0:
402,192,60167,1,0,0:0:0:0:
256,192,60251,1,0,0:0:0:0:
329,192,60334,1,0,0:0:0:0:
109,192,60417,1,0,0:0:0:0:
36,192,60417,1,0,0:0:0:0:
475,192,60417,1,0,0:0:0:0:
182,192,60584,1,0,0:0:0:0:
402,192,60584,1,0,0:0:0:0:
109,192,60667,1,0,0:0:0:0:
329,192,60667,1,0,0:0:0:0:
36,192,60751,1,0,0:0:0:0:
256,192,60751,1,0,0:0:0:0:
475,192,60751,1,0,0:0:0:0:
109,192,61084,1,0,0:0:0:0:
182,192,61084,1,0,0:0:0:0:
329,192,61084,1,0,0:0:0:0:
402,192,61084,1,0,0:0:0:0:
256,192,61251,1,0,0:0:0:0:
475,192,61417,1,0,0:0:0:0:
182,192,61584,1,0,0:0:0:0:
402,192,61667,1,0,0:0:0:0:
182,192,61834,1,0,0:0:0:0:
402,192,61917,1,0,0:0:0:0:
36,192,62084,1,0,0:0:0:0:
256,192,62251,1,0,0:0:0:0:
256,192,62417,1,0,0:0:0:0:
182,192,62584,1,0,0:0:0:0:
402,192,62751,1,0,0:0:0:0:
109,192,62917,1,0,0:0:0:0:
329,192,63001,1,0,0:0:0:0:
109,192,63167,1,0,0:0:0:0:
329,192,63251,1,0,0:0:0:0:
36,192,63417,1,0,0:0:0:0:
475,192,63584,1,0,0:0:0:0:
475,192,63751,1,0,0:0:0:0:
329,192,63917,1,0,0:0:0:0:
109,192,64084,1,0,0:0:0:0:
402,192,64251,1,0,0:0:0:0:
182,192,64334,1,0,0:0:0:0:
402,192,64501,1,0,0:0:0:0:
182,192,64584,1,0,0:0:0:0:
475,192,64751,1,0,0:0:0:0:
36,192,64917,1,0,0:0:0:0:
109,192,65084,1,0,0:0:0:0:
329,192,65251,1,0,0:0:0:0:
182,192,65417,1,0,0:0:0:0:
402,192,65584,1,0,0:0:0:0:
109,192,65667,1,0,0:0:0:0:
402,192,65834,1,0,0:0:0:0:
109,192,65917,1,0,0:0:0:0:
329,192,66084,1,0,0:0:0:0:
182,192,66251,1,0,0:0:0:0:
36,192,66417,1,0,0:0:0:0:
475,192,66417,1,0,0:0:0:0:
182,192,66584,1,0,0:0:0:0:
329,192,66584,1,0,0:0:0:0:
109,192,66751,1,0,0:0:0:0:
402,192,66751,1,0,0:0:0:0:
182,192,66917,1,0,0:0:0:0:
329,192,66917,1,0,0:0:0:0:
36,192,67001,1,0,0:0:0:0:
475,192,67001,1,0,0:0:0:0:
182,192,67167,1,0,0:0:0:0:
329,192,67167,1,0,0:0:0:0:
36,192,67251,1,0,0:0:0:0:
475,192,67251,1,0,0:0:0:0:
256,192,67417,1,0,0:0:0:0:
475,192,67417,1,0,0:0:0:0:
402,192,67501,1,0,0:0:0:0:
36,192,67584,1,0,0:0:0:0:
329,192,67584,1,0,0:0:0:0:
109,192,67667,1,0,0:0:0:0:
182,192,67751,1,0,0:0:0:0:
475,192,67751,1,0,0:0:0:0:
109,192,67917,1,0,0:0:0:0:
402,192,67917,1,0,0:0:0:0:
36,192,68084,1,0,0:0:0:0:
329,192,68084,1,0,0:0:0:0:
182,192,68251,1,0,0:0:0:0:
475,192,68251,1,0,0:0:0:0:
36,192,68334,1,0,0:0:0:0:
329,192,68334,1,0,0:0:0:0:
256,192,68417,1,0,0:0:0:0:
182,192,68501,1,0,0:0:0:0:
475,192,68501,1,0,0:0:0:0:
36,192,68584,1,0,0:0:0:0:
329,192,68584,1,0,0:0:0:0:
109,192,68667,1,0,0:0:0:0:
402,192,68751,1,0,0:0:0:0:
182,192,68751,1,0,0:0:0:0:
329,192,68834,1,0,0:0:0:0:
256,192,68917,1,0,0:0:0:0:
36,192,68917,1,0,0:0:0:0:
109,192,69001,1,0,0:0:0:0:
182,192,69084,1,0,0:0:0:0:
475,192,69084,1,0,0:0:0:0:
256,192,69251,1,0,0:0:0:0:
475,192,69251,1,0,0:0:0:0:
329,192,69417,1,0,0:0:0:0:
475,192,69417,1,0,0:0:0:0:
402,192,69584,1,0,0:0:0:0:
36,192,69584,1,0,0:0:0:0:
182,192,69667,1,0,0:0:0:0:
329,192,69751,1,0,0:0:0:0:
36,192,69751,1,0,0:0:0:0:
36,192,69917,1,0,0:0:0:0:
475,192,69917,1,0,0:0:0:0:
109,192,70001,1,0,0:0:0:0:
402,192,70001,1,0,0:0:0:0:
182,192,70167,1,0,0:0:0:0:
329,192,70167,1,0,0:0:0:0:
402,192,70251,1,0,0:0:0:0:
109,192,70251,1,0,0:0:0:0:
36,192,70417,128,0,70584:0:0:0:0:
475,192,70417,128,0,70584:0:0:0:0:
36,192,70751,128,0,70917:0:0:0:0:
475,192,70751,128,0,70917:0:0:0:0:
109,192,71001,128,0,71167:0:0:0:0:
402,192,71001,128,0,71167:0:0:0:0:
182,192,71251,128,0,71417:0:0:0:0:
329,192,71251,128,0,71417:0:0:0:0:
36,192,71417,128,0,71584:0:0:0:0:
475,192,71417,128,0,71501:0:0:0:0:
475,192,71584,128,0,71751:0:0:0:0:
36,192,71667,128,0,71751:0:0:0:0:
109,192,71751,1,0,0:0:0:0:
182,192,71751,1,0,0:0:0:0:
329,192,71751,1,0,0:0:0:0:
402,192,71751,1,0,0:0:0:0:
402,192,72084,1,0,0:0:0:0:
36,192,72084,1,0,0:0:0:0:
109,192,72084,1,0,0:0:0:0:
182,192,72334,1,0,0:0:0:0:
256,192,72334,1,0,0:0:0:0:
402,192,72417,1,0,0:0:0:0:
109,192,72584,1,0,0:0:0:0:
182,192,72584,1,0,0:0:0:0:
402,192,72751,1,0,0:0:0:0:
36,192,72751,1,0,0:0:0:0:
109,192,72751,1,0,0:0:0:0:
256,192,72834,1,0,0:0:0:0:
329,192,72834,1,0,0:0:0:0:
109,192,72917,1,0,0:0:0:0:
182,192,72917,1,0,0:0:0:0:
402,192,73001,1,0,0:0:0:0:
329,192,73001,1,0,0:0:0:0:
109,192,73084,1,0,0:0:0:0:
36,192,73084,1,0,0:0:0:0:
475,192,73084,1,0,0:0:0:0:
109,192,73417,1,0,0:0:0:0:
329,192,73417,1,0,0:0:0:0:
402,192,73417,1,0,0:0:0:0:
256,192,73667,1,0,0:0:0:0:
329,192,73667,1,0,0:0:0:0:
109,192,73751,1,0,0:0:0:0:
475,192,73917,1,0,0:0:0:0:
402,192,73917,1,0,0:0:0:0:
109,192,74084,1,0,0:0:0:0:
329,192,74084,1,0,0:0:0:0:
402,192,74084,1,0,0:0:0:0:
182,192,74167,1,0,0:0:0:0:
256,192,74167,1,0,0:0:0:0:
402,192,74251,1,0,0:0:0:0:
475,192,74251,1,0,0:0:0:0:
36,192,74334,1,0,0:0:0:0:
109,192,74334,1,0,0:0:0:0:
329,192,74417,1,0,0:0:0:0:
182,192,74417,1,0,0:0:0:0:
402,192,74417,1,0,0:0:0:0:
329,192,74751,1,0,0:0:0:0:
36,192,74751,1,0,0:0:0:0:
475,192,74751,1,0,0:0:0:0:
109,192,75001,1,0,0:0:0:0:
402,192,75001,1,0,0:0:0:0:
329,192,75084,1,0,0:0:0:0:
182,192,75251,1,0,0:0:0:0:
475,192,75251,1,0,0:0:0:0:
329,192,75417,1,0,0:0:0:0:
109,192,75417,1,0,0:0:0:0:
402,192,75417,1,0,0:0:0:0:
182,192,75501,1,0,0:0:0:0:
475,192,75501,1,0,0:0:0:0:
256,192,75584,1,0,0:0:0:0:
36,192,75584,1,0,0:0:0:0:
329,192,75667,1,0,0:0:0:0:
109,192,75667,1,0,0:0:0:0:
182,192,75751,1,0,0:0:0:0:
402,192,75751,1,0,0:0:0:0:
475,192,75751,1,0,0:0:0:0:
36,192,76084,1,0,0:0:0:0:
256,192,76084,1,0,0:0:0:0:
182,192,76084,1,0,0:0:0:0:
329,192,76334,1,0,0:0:0:0:
475,192,76334,1,0,0:0:0:0:
182,192,76417,1,0,0:0:0:0:
36,192,76584,1,0,0:0:0:0:
402,192,76584,1,0,0:0:0:0:
182,192,76751,1,0,0:0:0:0:
256,192,76751,1,0,0:0:0:0:
475,192,76751,1,0,0:0:0:0:
402,192,76834,1,0,0:0:0:0:
109,192,76834,1,0,0:0:0:0:
36,192,76917,1,0,0:0:0:0:
329,192,76917,1,0,0:0:0:0:
256,192,77001,1,0,0:0:0:0:
475,192,77001,1,0,0:0:0:0:
182,192,77084,1,0,0:0:0:0:
109,192,77084,1,0,0:0:0:0:
402,192,77084,1,0,0:0:0:0:
329,192,77167,1,0,0:0:0:0:
256,192,77251,1,0,0:0:0:0:
36,192,77334,1,0,0:0:0:0:
475,192,77334,1,0,0:0:0:0:
109,192,77417,1,0,0:0:0:0:
182,192,77501,1,0,0:0:0:0:
475,192,77584,1,0,0:0:0:0:
402,192,77667,1,0,0:0:0:0:
36,192,77667,1,0,0:0:0:0:
329,192,77751,1,0,0:0:0:0:
109,192,77834,1,0,0:0:0:0:
182,192,77917,1,0,0:0:0:0:
402,192,77917,1,0,0:0:0:0:
256,192,78001,1,0,0:0:0:0:
475,192,78084,1,0,0:0:0:0:
36,192,78084,1,0,0:0:0:0:
402,192,78167,1,0,0:0:0:0:
329,192,78251,1,0,0:0:0:0:
182,192,78251,1,0,0:0:0:0:
109,192,78334,1,0,0:0:0:0:
36,192,78417,1,0,0:0:0:0:
475,192,78417,1,0,0:0:0:0:
256,192,78417,1,0,0:0:0:0:
402,192,78501,1,0,0:0:0:0:
329,192,78584,1,0,0:0:0:0:
109,192,78667,1,0,0:0:0:0:
182,192,78751,1,0,0:0:0:0:
475,192,78751,1,0,0:0:0:0:
256,192,78834,1,0,0:0:0:0:
36,192,78917,1,0,0:0:0:0:
109,192,79001,1,0,0:0:0:0:
329,192,79001,1,0,0:0:0:0:
182,192,79084,1,0,0:0:0:0:
402,192,79084,1,0,0:0:0:0:
475,192,79167,1,0,0:0:0:0:
256,192,79167,1,0,0:0:0:0:
182,192,79251,1,0,0:0:0:0:
402,192,79251,1,0,0:0:0:0:
329,192,79334,1,0,0:0:0:0:
109,192,79334,1,0,0:0:0:0:
256,192,79417,1,0,0:0:0:0:
36,192,79417,1,0,0:0:0:0:
182,192,79501,1,0,0:0:0:0:
475,192,79501,1,0,0:0:0:0:
109,192,79584,1,0,0:0:0:0:
402,192,79584,1,0,0:0:0:0:
36,192,79667,1,0,0:0:0:0:
329,192,79667,1,0,0:0:0:0:
182,192,79751,1,0,0:0:0:0:
256,192,79751,1,0,0:0:0:0:
475,192,79751,1,0,0:0:0:0:
109,192,79917,1,0,0:0:0:0:
402,192,79917,1,0,0:0:0:0:
475,192,79917,1,0,0:0:0:0:
109,192,80084,1,0,0:0:0:0:
329,192,80084,1,0,0:0:0:0:
182,192,80084,1,0,0:0:0:0:
329,192,80251,1,0,0:0:0:0:
402,192,80251,1,0,0:0:0:0:
36,192,80251,1,0,0:0:0:0:
36,192,80417,1,0,0:0:0:0:
475,192,80417,1,0,0:0:0:0:
109,192,80417,1,0,0:0:0:0:
182,192,80501,1,0,0:0:0:0:
402,192,80501,1,0,0:0:0:0:
109,192,80584,1,0,0:0:0:0:
329,192,80584,1,0,0:0:0:0:
36,192,80667,1,0,0:0:0:0:
256,192,80667,1,0,0:0:0:0:
182,192,80751,1,0,0:0:0:0:
475,192,80751,1,0,0:0:0:0:
402,192,80834,1,0,0:0:0:0:
109,192,80834,1,0,0:0:0:0:
329,192,80917,1,0,0:0:0:0:
36,192,80917,1,0,0:0:0:0:
256,192,81001,1,0,0:0:0:0:
475,192,81001,1,0,0:0:0:0:
182,192,81084,1,0,0:0:0:0:
402,192,81084,1,0,0:0:0:0:
109,192,81084,1,0,0:0:0:0:
329,192,81084,1,0,0:0:0:0:
36,192,81334,1,0,0:0:0:0:
109,192,81334,1,0,0:0:0:0:
402,192,81334,1,0,0:0:0:0:
475,192,81334,1,0,0:0:0:0:
109,192,81584,1,0,0:0:0:0:
182,192,81584,1,0,0:0:0:0:
329,192,81584,1,0,0:0:0:0:
402,192,81584,1,0,0:0:0:0:
36,192,81751,1,0,0:0:0:0:
256,192,81751,1,0,0:0:0:0:
475,192,81751,1,0,0:0:0:0:
402,192,81834,1,0,0:0:0:0:
329,192,81917,1,0,0:0:0:0:
109,192,81917,1,0,0:0:0:0:
256,192,82001,1,0,0:0:0:0:
182,192,82084,1,0,0:0:0:0:
36,192,82084,1,0,0:0:0:0:
402,192,82084,1,0,0:0:0:0:
475,192,82084,1,0,0:0:0:0:
109,192,82417,1,0,0:0:0:0:
182,192,82417,1,0,0:0:0:0:
329,192,82417,1,0,0:0:0:0:
402,192,82417,128,0,82584:0:0:0:0:
256,192,82584,1,0,0:0:0:0:
36,192,82751,128,0,82917:0:0:0:0:
329,192,82751,1,0,0:0:0:0:
475,192,82751,1,0,0:0:0:0:
182,192,82917,1,0,0:0:0:0:
402,192,82917,1,0,0:0:0:0:
256,192,83001,1,0,0:0:0:0:
329,192,83084,1,0,0:0:0:0:
109,192,83084,1,0,0:0:0:0:
402,192,83167,1,0,0:0:0:0:
475,192,83251,128,0,83417:0:0:0:0:
36,192,83251,1,0,0:0:0:0:
182,192,83417,1,0,0:0:0:0:
329,192,83417,1,0,0:0:0:0:
402,192,83501,1,0,0:0:0:0:
256,192,83584,1,0,0:0:0:0:
475,192,83584,1,0,0:0:0:0:
182,192,83667,1,0,0:0:0:0:
329,192,83751,1,0,0:0:0:0:
109,192,83751,128,0,83917:0:0:0:0:
36,192,83917,1,0,0:0:0:0:
475,192,84084,128,0,84251:0:0:0:0:
182,192,84084,1,0,0:0:0:0:
402,192,84084,1,0,0:0:0:0:
329,192,84251,1,0,0:0:0:0:
36,192,84251,1,0,0:0:0:0:
109,192,84334,1,0,0:0:0:0:
182,192,84417,1,0,0:0:0:0:
402,192,84417,1,0,0:0:0:0:
329,192,84501,1,0,0:0:0:0:
36,192,84584,128,0,84751:0:0:0:0:
256,192,84584,1,0,0:0:0:0:
475,192,84751,1,0,0:0:0:0:
109,192,84751,1,0,0:0:0:0:
402,192,84751,1,0,0:0:0:0:
329,192,84834,1,0,0:0:0:0:
256,192,84917,1,0,0:0:0:0:
36,192,84917,1,0,0:0:0:0:
182,192,85001,1,0,0:0:0:0:
109,192,85084,1,0,0:0:0:0:
402,192,85084,128,0,85251:0:0:0:0:
256,192,85251,1,0,0:0:0:0:
182,192,85417,128,0,85584:0:0:0:0:
402,192,85417,1,0,0:0:0:0:
109,192,85417,1,0,0:0:0:0:
36,192,85584,1,0,0:0:0:0:
475,192,85584,1,0,0:0:0:0:
256,192,85667,1,0,0:0:0:0:
182,192,85751,1,0,0:0:0:0:
402,192,85751,1,0,0:0:0:0:
329,192,85834,1,0,0:0:0:0:
256,192,85917,128,0,86084:0:0:0:0:
36,192,85917,1,0,0:0:0:0:
109,192,86084,1,0,0:0:0:0:
475,192,86084,1,0,0:0:0:0:
402,192,86167,1,0,0:0:0:0:
329,192,86251,1,0,0:0:0:0:
36,192,86251,1,0,0:0:0:0:
109,192,86334,1,0,0:0:0:0:
182,192,86417,1,0,0:0:0:0:
475,192,86417,128,0,86584:0:0:0:0:
329,192,86584,1,0,0:0:0:0:
475,192,86751,128,0,86917:0:0:0:0:
109,192,86751,1,0,0:0:0:0:
256,192,86751,1,0,0:0:0:0:
402,192,86917,1,0,0:0:0:0:
36,192,87001,128,0,87167:0:0:0:0:
182,192,87084,1,0,0:0:0:0:
329,192,87084,1,0,0:0:0:0:
36,192,87251,128,0,87417:0:0:0:0:
256,192,87251,1,0,0:0:0:0:
402,192,87251,1,0,0:0:0:0:
109,192,87417,1,0,0:0:0:0:
256,192,87417,1,0,0:0:0:0:
402,192,87417,1,0,0:0:0:0:
475,192,87501,1,0,0:0:0:0:
329,192,87501,1,0,0:0:0:0:
36,192,87584,1,0,0:0:0:0:
182,192,87584,1,0,0:0:0:0:
475,192,87667,1,0,0:0:0:0:
329,192,87667,1,0,0:0:0:0:
256,192,87751,1,0,0:0:0:0:
36,192,87751,1,0,0:0:0:0:
109,192,87751,128,0,87917:0:0:0:0:
329,192,87917,1,0,0:0:0:0:
475,192,88084,128,0,88251:0:0:0:0:
182,192,88084,1,0,0:0:0:0:
402,192,88084,1,0,0:0:0:0:
329,192,88251,1,0,0:0:0:0:
109,192,88251,1,0,0:0:0:0:
256,192,88334,1,0,0:0:0:0:
182,192,88417,1,0,0:0:0:0:
402,192,88417,1,0,0:0:0:0:
109,192,88501,1,0,0:0:0:0:
36,192,88584,128,0,88751:0:0:0:0:
475,192,88584,1,0,0:0:0:0:
329,192,88751,1,0,0:0:0:0:
182,192,88751,1,0,0:0:0:0:
109,192,88834,1,0,0:0:0:0:
256,192,88917,1,0,0:0:0:0:
36,192,88917,1,0,0:0:0:0:
329,192,89001,1,0,0:0:0:0:
182,192,89084,1,0,0:0:0:0:
402,192,89084,128,0,89251:0:0:0:0:
475,192,89251,1,0,0:0:0:0:
36,192,89417,128,0,89584:0:0:0:0:
329,192,89417,1,0,0:0:0:0:
109,192,89417,1,0,0:0:0:0:
182,192,89584,1,0,0:0:0:0:
475,192,89584,1,0,0:0:0:0:
402,192,89667,1,0,0:0:0:0:
329,192,89751,1,0,0:0:0:0:
109,192,89751,1,0,0:0:0:0:
182,192,89834,1,0,0:0:0:0:
475,192,89917,128,0,90084:0:0:0:0:
256,192,89917,1,0,0:0:0:0:
36,192,90084,1,0,0:0:0:0:
402,192,90084,1,0,0:0:0:0:
109,192,90084,1,0,0:0:0:0:
182,192,90167,1,0,0:0:0:0:
256,192,90251,1,0,0:0:0:0:
475,192,90251,1,0,0:0:0:0:
329,192,90334,1,0,0:0:0:0:
402,192,90417,1,0,0:0:0:0:
109,192,90417,128,0,90584:0:0:0:0:
256,192,90584,1,0,0:0:0:0:
329,192,90751,128,0,90917:0:0:0:0:
109,192,90751,1,0,0:0:0:0:
475,192,90751,1,0,0:0:0:0:
402,192,90917,1,0,0:0:0:0:
36,192,90917,1,0,0:0:0:0:
256,192,91001,1,0,0:0:0:0:
109,192,91084,1,0,0:0:0:0:
329,192,91084,128,0,91251:0:0:0:0:
402,192,91251,1,0,0:0:0:0:
182,192,91334,128,0,91501:0:0:0:0:
36,192,91417,1,0,0:0:0:0:
475,192,91417,1,0,0:0:0:0:
256,192,91584,128,0,91751:0:0:0:0:
402,192,91584,1,0,0:0:0:0:
36,192,91751,1,0,0:0:0:0:
109,192,91751,1,0,0:0:0:0:
329,192,91751,1,0,0:0:0:0:
182,192,92001,1,0,0:0:0:0:
402,192,92001,1,0,0:0:0:0:
475,192,92001,1,0,0:0:0:0:
36,192,92251,1,0,0:0:0:0:
182,192,92251,1,0,0:0:0:0:
256,192,92251,1,0,0:0:0:0:
475,192,92417,1,0,0:0:0:0:
329,192,92417,1,0,0:0:0:0:
256,192,92417,1,0,0:0:0:0:
109,192,92584,1,0,0:0:0:0:
182,192,92584,1,0,0:0:0:0:
402,192,92584,1,0,0:0:0:0:
109,192,92751,1,0,0:0:0:0:
329,192,92751,1,0,0:0:0:0:
402,192,92751,1,0,0:0:0:0:
182,192,92834,1,0,0:0:0:0:
256,192,92834,1,0,0:0:0:0:
402,192,92917,1,0,0:0:0:0:
475,192,92917,1,0,0:0:0:0:
329,192,93001,1,0,0:0:0:0:
256,192,93001,1,0,0:0:0:0:
36,192,93084,1,0,0:0:0:0:
109,192,93084,1,0,0:0:0:0:
182,192,93084,1,0,0:0:0:0:
475,192,93084,1,0,0:0:0:0:
329,192,93251,1,0,0:0:0:0:
475,192,93417,1,0,0:0:0:0:
182,192,93417,1,0,0:0:0:0:
36,192,93417,1,0,0:0:0:0:
256,192,93584,1,0,0:0:0:0:
329,192,93667,1,0,0:0:0:0:
475,192,93751,1,0,0:0:0:0:
402,192,93751,1,0,0:0:0:0:
36,192,93917,1,0,0:0:0:0:
182,192,93917,1,0,0:0:0:0:
475,192,94084,1,0,0:0:0:0:
329,192,94084,1,0,0:0:0:0:
256,192,94167,1,0,0:0:0:0:
182,192,94251,1,0,0:0:0:0:
402,192,94251,1,0,0:0:0:0:
109,192,94334,1,0,0:0:0:0:
36,192,94417,1,0,0:0:0:0:
475,192,94417,1,0,0:0:0:0:
329,192,94584,1,0,0:0:0:0:
36,192,94751,1,0,0:0:0:0:
182,192,94751,1,0,0:0:0:0:
475,192,94751,1,0,0:0:0:0:
256,192,94917,1,0,0:0:0:0:
182,192,95001,1,0,0:0:0:0:
36,192,95084,1,0,0:0:0:0:
109,192,95084,1,0,0:0:0:0:
329,192,95251,1,0,0:0:0:0:
475,192,95251,1,0,0:0:0:0:
182,192,95334,1,0,0:0:0:0:
256,192,95334,1,0,0:0:0:0:
36,192,95417,1,0,0:0:0:0:
402,192,95417,1,0,0:0:0:0:
109,192,95417,1,0,0:0:0:0:
329,192,95501,1,0,0:0:0:0:
256,192,95501,1,0,0:0:0:0:
182,192,95584,1,0,0:0:0:0:
109,192,95584,1,0,0:0:0:0:
402,192,95667,1,0,0:0:0:0:
475,192,95667,1,0,0:0:0:0:
329,192,95751,1,0,0:0:0:0:
36,192,95751,1,0,0:0:0:0:
109,192,95917,1,0,0:0:0:0:
329,192,96084,1,0,0:0:0:0:
182,192,96084,1,0,0:0:0:0:
475,192,96084,1,0,0:0:0:0:
36,192,96251,1,0,0:0:0:0:
109,192,96334,1,0,0:0:0:0:
329,192,96417,1,0,0:0:0:0:
182,192,96417,1,0,0:0:0:0:
475,192,96584,1,0,0:0:0:0:
36,192,96584,1,0,0:0:0:0:
329,192,96751,1,0,0:0:0:0:
182,192,96751,1,0,0:0:0:0:
109,192,96834,1,0,0:0:0:0:
36,192,96917,1,0,0:0:0:0:
475,192,96917,1,0,0:0:0:0:
402,192,97001,1,0,0:0:0:0:
182,192,97084,1,0,0:0:0:0:
329,192,97084,1,0,0:0:0:0:
109,192,97084,1,0,0:0:0:0:
36,192,97334,1,0,0:0:0:0:
109,192,97334,1,0,0:0:0:0:
256,192,97417,1,0,0:0:0:0:
475,192,97417,1,0,0:0:0:0:
329,192,97584,1,0,0:0:0:0:
402,192,97584,1,0,0:0:0:0:
256,192,97751,1,0,0:0:0:0:
36,192,97751,1,0,0:0:0:0:
402,192,97834,1,0,0:0:0:0:
475,192,97834,1,0,0:0:0:0:
36,192,97917,1,0,0:0:0:0:
182,192,97917,1,0,0:0:0:0:
36,192,98084,128,0,98417:0:0:0:0:
182,192,98084,128,0,98417:0:0:0:0:
256,192,98084,1,0,0:0:0:0:
329,192,98167,1,0,0:0:0:0:
475,192,98251,1,0,0:0:0:0:
402,192,98251,1,0,0:0:0:0:
329,192,98334,1,0,0:0:0:0:
256,192,98417,1,0,0:0:0:0:
475,192,98417,1,0,0:0:0:0:
182,192,98501,1,0,0:0:0:0:
402,192,98501,1,0,0:0:0:0:
109,192,98584,1,0,0:0:0:0:
329,192,98584,1,0,0:0:0:0:
36,192,98667,1,0,0:0:0:0:
256,192,98667,1,0,0:0:0:0:
182,192,98751,1,0,0:0:0:0:
475,192,98751,1,0,0:0:0:0:
109,192,98834,1,0,0:0:0:0:
402,192,98834,1,0,0:0:0:0:
329,192,98917,1,0,0:0:0:0:
36,192,98917,1,0,0:0:0:0:
256,192,99001,1,0,0:0:0:0:
475,192,99001,1,0,0:0:0:0:
182,192,99084,1,0,0:0:0:0:
402,192,99084,1,0,0:0:0:0:
109,192,99167,1,0,0:0:0:0:
329,192,99167,1,0,0:0:0:0:
36,192,99251,1,0,0:0:0:0:
256,192,99251,1,0,0:0:0:0:
182,192,99334,1,0,0:0:0:0:
475,192,99334,1,0,0:0:0:0:
109,192,99417,1,0,0:0:0:0:
402,192,99417,1,0,0:0:0:0:
329,192,99417,1,0,0:0:0:0:
36,192,99751,1,0,0:0:0:0:
256,192,99751,1,0,0:0:0:0:
329,192,99834,1,0,0:0:0:0:
109,192,99834,1,0,0:0:0:0:
402,192,99917,1,0,0:0:0:0:
182,192,99917,1,0,0:0:0:0:
256,192,100001,1,0,0:0:0:0:
475,192,100001,1,0,0:0:0:0:
36,192,100084,1,0,0:0:0:0:
329,192,100084,1,0,0:0:0:0:
109,192,100167,1,0,0:0:0:0:
402,192,100167,1,0,0:0:0:0:
475,192,100251,1,0,0:0:0:0:
182,192,100251,1,0,0:0:0:0:
36,192,100334,1,0,0:0:0:0:
256,192,100334,1,0,0:0:0:0:
329,192,100417,1,0,0:0:0:0:
109,192,100417,1,0,0:0:0:0:
402,192,100501,1,0,0:0:0:0:
182,192,100501,1,0,0:0:0:0:
475,192,100584,1,0,0:0:0:0:
256,192,100584,1,0,0:0:0:0:
36,192,100667,1,0,0:0:0:0:
329,192,100667,1,0,0:0:0:0:
402,192,100751,1,0,0:0:0:0:
109,192,100751,1,0,0:0:0:0:
182,192,100751,1,0,0:0:0:0:
36,192,101084,1,0,0:0:0:0:
475,192,101084,1,0,0:0:0:0:
109,192,101167,1,0,0:0:0:0:
402,192,101167,1,0,0:0:0:0:
182,192,101251,1,0,0:0:0:0:
329,192,101251,1,0,0:0:0:0:
109,192,101334,1,0,0:0:0:0:
402,192,101334,1,0,0:0:0:0:
36,192,101417,1,0,0:0:0:0:
475,192,101417,1,0,0:0:0:0:
256,192,101417,1,0,0:0:0:0:
182,192,101751,1,0,0:0:0:0:
329,192,101751,1,0,0:0:0:0:
109,192,101834,1,0,0:0:0:0:
402,192,101834,1,0,0:0:0:0:
36,192,101917,1,0,0:0:0:0:
475,192,101917,1,0,0:0:0:0:
109,192,102001,1,0,0:0:0:0:
402,192,102001,1,0,0:0:0:0:
182,192,102084,1,0,0:0:0:0:
329,192,102084,1,0,0:0:0:0:
256,192,102084,1,0,0:0:0:0:
36,192,102417,1,0,0:0:0:0:
475,192,102417,1,0,0:0:0:0:
402,192,102417,1,0,0:0:0:0:
109,192,102501,1,0,0:0:0:0:
182,192,102584,1,0,0:0:0:0:
256,192,102667,1,0,0:0:0:0:
329,192,102667,1,0,0:0:0:0:
109,192,102751,1,0,0:0:0:0:
36,192,102751,1,0,0:0:0:0:
475,192,102834,1,0,0:0:0:0:
402,192,102917,1,0,0:0:0:0:
329,192,102917,1,0,0:0:0:0:
256,192,103001,1,0,0:0:0:0:
182,192,103084,1,0,0:0:0:0:
109,192,103084,1,0,0:0:0:0:
475,192,103167,1,0,0:0:0:0:
36,192,103251,1,0,0:0:0:0:
109,192,103251,1,0,0:0:0:0:
402,192,103334,1,0,0:0:0:0:
109,192,103417,1,0,0:0:0:0:
182,192,103417,1,0,0:0:0:0:
182,192,103501,1,0,0:0:0:0:
109,192,103501,1,0,0:0:0:0:
402,192,103584,1,0,0:0:0:0:
329,192,103584,1,0,0:0:0:0:
402,192,103667,1,0,0:0:0:0:
329,192,103667,1,0,0:0:0:0:
36,192,103751,1,0,0:0:0:0:
182,192,103751,1,0,0:0:0:0:
475,192,103751,1,0,0:0:0:0:
36,192,103917,1,0,0:0:0:0:
256,192,103917,1,0,0:0:0:0:
329,192,104084,1,0,0:0:0:0:
36,192,104084,1,0,0:0:0:0:
475,192,104084,1,0,0:0:0:0:
36,192,104251,1,0,0:0:0:0:
256,192,104251,1,0,0:0:0:0:
475,192,104417,1,0,0:0:0:0:
182,192,104417,1,0,0:0:0:0:
329,192,104417,1,0,0:0:0:0:
475,192,104584,1,0,0:0:0:0:
109,192,104584,1,0,0:0:0:0:
475,192,104751,1,0,0:0:0:0:
36,192,104751,1,0,0:0:0:0:
256,192,104751,1,0,0:0:0:0:
475,192,104917,1,0,0:0:0:0:
109,192,104917,1,0,0:0:0:0:
182,192,105084,1,0,0:0:0:0:
256,192,105084,1,0,0:0:0:0:
402,192,105084,1,0,0:0:0:0:
109,192,105167,1,0,0:0:0:0:
36,192,105167,1,0,0:0:0:0:
475,192,105251,1,0,0:0:0:0:
329,192,105251,1,0,0:0:0:0:
256,192,105251,1,0,0:0:0:0:
182,192,105334,1,0,0:0:0:0:
109,192,105334,1,0,0:0:0:0:
402,192,105417,1,0,0:0:0:0:
329,192,105417,1,0,0:0:0:0:
36,192,105417,1,0,0:0:0:0:
182,192,105501,1,0,0:0:0:0:
256,192,105501,1,0,0:0:0:0:
109,192,105584,1,0,0:0:0:0:
475,192,105584,1,0,0:0:0:0:
402,192,105584,1,0,0:0:0:0:
256,192,105667,1,0,0:0:0:0:
329,192,105667,1,0,0:0:0:0:
36,192,105751,1,0,0:0:0:0:
182,192,105751,1,0,0:0:0:0:
475,192,105751,1,0,0:0:0:0:
329,192,105834,1,0,0:0:0:0:
402,192,105834,1,0,0:0:0:0:
36,192,105917,1,0,0:0:0:0:
109,192,105917,1,0,0:0:0:0:
256,192,105917,1,0,0:0:0:0:
402,192,106001,1,0,0:0:0:0:
475,192,106001,1,0,0:0:0:0:
329,192,106084,1,0,0:0:0:0:
182,192,106084,1,0,0:0:0:0:
109,192,106084,1,0,0:0:0:0:
36,192,106167,1,0,0:0:0:0:
475,192,106167,1,0,0:0:0:0:
182,192,106251,1,0,0:0:0:0:
256,192,106251,1,0,0:0:0:0:
109,192,106334,1,0,0:0:0:0:
402,192,106334,1,0,0:0:0:0:
36,192,106751,1,0,0:0:0:0:
109,192,106751,1,0,0:0:0:0:
402,192,106751,1,0,0:0:0:0:
475,192,106751,1,0,0:0:0:0:
109,192,107251,1,0,0:0:0:0:
182,192,107251,1,0,0:0:0:0:
329,192,107251,1,0,0:0:0:0:
402,192,107251,1,0,0:0:0:0:
36,192,107584,128,0,110417:0:0:0:0:
475,192,107584,128,0,110417:0:0:0:0:
256,192,107584,128,0,110417:0:0:0:0:
109,192,107584,128,0,110417:0:0:0:0:
402,192,107584,128,0,110417:0:0:0:0:
