osu file format v14

[General]
AudioFilename: audio.mp3
AudioLeadIn: 0
PreviewTime: 12667
Countdown: 0
SampleSet: Normal
StackLeniency: 0.7
Mode: 3
LetterboxInBreaks: 0
SpecialStyle: 0
WidescreenStoryboard: 0

[Editor]
DistanceSpacing: 0.8
BeatDivisor: 4
GridSize: 8
TimelineZoom: 2

[Metadata]
Title:ULTRA HAPPY MEGAMIX
TitleUnicode:ULTRA HAPPY MEGAMIX
Artist:DJ Genki
ArtistUnicode:DJ Genki
Creator:Shinzo-
Version:4K MEDIUM
Source:jubeat Qubell
Tags:
BeatmapID:1160330
BeatmapSetID:547872

[Difficulty]
HPDrainRate:7
CircleSize:4
OverallDifficulty:7
ApproachRate:5
SliderMultiplier:1.4
SliderTickRate:1

[Events]
//Background and Video events
0,0,"Background Map.jpg",0,0
//Break Periods
//Storyboard Layer 0 (Background)
//Storyboard Layer 1 (Fail)
//Storyboard Layer 2 (Pass)
//Storyboard Layer 3 (Foreground)
//Storyboard Sound Samples

[TimingPoints]
2418,333.333333333333,4,1,0,30,1,0
13084,-100,4,1,0,30,0,1
37084,-100,4,1,0,30,0,0
82417,-100,4,1,0,30,0,1
110417,-100,4,1,0,30,0,0

[HitObjects]
64,192,2417,5,0,0:0:0:0:
448,192,2417,1,0,0:0:0:0:
192,192,2584,1,0,0:0:0:0:
320,192,2751,1,0,0:0:0:0:
448,192,2917,1,0,0:0:0:0:
320,192,3751,1,0,0:0:0:0:
192,192,3917,1,0,0:0:0:0:
320,192,4084,1,0,0:0:0:0:
448,192,4251,1,0,0:0:0:0:
64,192,4584,1,0,0:0:0:0:
320,192,4917,1,0,0:0:0:0:
448,192,5084,1,0,0:0:0:0:
64,192,5251,1,0,0:0:0:0:
192,192,5417,1,0,0:0:0:0:
320,192,5584,1,0,0:0:0:0:
448,192,5917,1,0,0:0:0:0:
192,192,6084,1,0,0:0:0:0:
320,192,6251,1,0,0:0:0:0:
64,192,6417,1,0,0:0:0:0:
192,192,6751,1,0,0:0:0:0:
320,192,6917,1,0,0:0:0:0:
448,192,7251,1,0,0:0:0:0:
64,192,7751,1,0,0:0:0:0:
448,192,8251,1,0,0:0:0:0:
320,192,8751,1,0,0:0:0:0:
192,192,9084,1,0,0:0:0:0:
64,192,9417,1,0,0:0:0:0:
448,192,9584,1,0,0:0:0:0:
192,192,9917,1,0,0:0:0:0:
320,192,10251,128,0,11751:0:0:0:0:
64,192,11751,1,0,0:0:0:0:
448,192,11751,1,0,0:0:0:0:
192,192,12084,1,0,0:0:0:0:
320,192,12417,1,0,0:0:0:0:
448,192,12417,1,0,0:0:0:0:
192,192,12751,1,0,0:0:0:0:
64,192,12751,1,0,0:0:0:0:
320,192,13084,1,0,0:0:0:0:
448,192,13084,1,0,0:0:0:0:
64,192,13417,1,0,0:0:0:0:
192,192,13417,1,0,0:0:0:0:
192,192,13751,1,0,0:0:0:0:
320,192,13751,1,0,0:0:0:0:
448,192,13917,1,0,0:0:0:0:
64,192,14084,1,0,0:0:0:0:
320,192,14251,1,0,0:0:0:0:
192,192,14417,1,0,0:0:0:0:
448,192,14584,1,0,0:0:0:0:
320,192,14751,1,0,0:0:0:0:
64,192,14751,1,0,0:0:0:0:
192,192,14917,1,0,0:0:0:0:
448,192,15084,1,0,0:0:0:0:
64,192,15251,1,0,0:0:0:0:
64,192,15417,128,0,15751:0:0:0:0:
320,192,15417,1,0,0:0:0:0:
448,192,15751,1,0,0:0:0:0:
192,192,15751,1,0,0:0:0:0:
64,192,16084,1,0,0:0:0:0:
320,192,16084,1,0,0:0:0:0:
192,192,16417,1,0,0:0:0:0:
320,192,16417,1,0,0:0:0:0:
64,192,16751,1,0,0:0:0:0:
448,192,16751,1,0,0:0:0:0:
192,192,16917,1,0,0:0:0:0:
320,192,17084,1,0,0:0:0:0:
64,192,17251,1,0,0:0:0:0:
320,192,17417,1,0,0:0:0:0:
448,192,17417,1,0,0:0:0:0:
192,192,17584,1,0,0:0:0:0:
64,192,17751,1,0,0:0:0:0:
448,192,17917,1,0,0:0:0:0:
448,192,18084,128,0,18417:0:0:0:0:
192,192,18084,1,0,0:0:0:0:
64,192,18417,1,0,0:0:0:0:
320,192,18417,1,0,0:0:0:0:
192,192,18751,1,0,0:0:0:0:
448,192,18751,1,0,0:0:0:0:
64,192,19084,1,0,0:0:0:0:
192,192,19084,1,0,0:0:0:0:
320,192,19251,1,0,0:0:0:0:
192,192,19417,1,0,0:0:0:0:
448,192,19584,1,0,0:0:0:0:
320,192,19751,1,0,0:0:0:0:
64,192,19917,1,0,0:0:0:0:
192,192,20084,1,0,0:0:0:0:
448,192,20084,1,0,0:0:0:0:
320,192,20251,1,0,0:0:0:0:
64,192,20417,1,0,0:0:0:0:
192,192,20584,1,0,0:0:0:0:
448,192,20751,1,0,0:0:0:0:
192,192,20751,128,0,21084:0:0:0:0:
320,192,21084,1,0,0:0:0:0:
448,192,21084,1,0,0:0:0:0:
64,192,21417,1,0,0:0:0:0:
192,192,21417,1,0,0:0:0:0:
320,192,21751,1,0,0:0:0:0:
448,192,21751,1,0,0:0:0:0:
64,192,22084,1,0,0:0:0:0:
192,192,22084,1,0,0:0:0:0:
320,192,22251,1,0,0:0:0:0:
64,192,22417,1,0,0:0:0:0:
448,192,22417,1,0,0:0:0:0:
192,192,22584,1,0,0:0:0:0:
320,192,22751,1,0,0:0:0:0:
448,192,22917,1,0,0:0:0:0:
320,192,23084,1,0,0:0:0:0:
192,192,23251,1,0,0:0:0:0:
64,192,23417,1,0,0:0:0:0:
448,192,23584,1,0,0:0:0:0:
192,192,23751,1,0,0:0:0:0:
64,192,23751,1,0,0:0:0:0:
448,192,24084,1,0,0:0:0:0:
320,192,24084,1,0,0:0:0:0:
320,192,24417,1,0,0:0:0:0:
192,192,24417,1,0,0:0:0:0:
64,192,24584,1,0,0:0:0:0:
448,192,24751,1,0,0:0:0:0:
192,192,24917,1,0,0:0:0:0:
320,192,25084,1,0,0:0:0:0:
64,192,25251,1,0,0:0:0:0:
192,192,25417,1,0,0:0:0:0:
448,192,25417,1,0,0:0:0:0:
320,192,25584,1,0,0:0:0:0:
64,192,25751,1,0,0:0:0:0:
448,192,25917,1,0,0:0:0:0:
448,192,26084,128,0,26417:0:0:0:0:
192,192,26084,1,0,0:0:0:0:
64,192,26417,1,0,0:0:0:0:
320,192,26417,1,0,0:0:0:0:
448,192,26751,1,0,0:0:0:0:
192,192,26751,1,0,0:0:0:0:
320,192,27084,1,0,0:0:0:0:
192,192,27084,1,0,0:0:0:0:
448,192,27417,1,0,0:0:0:0:
64,192,27417,1,0,0:0:0:0:
320,192,27584,1,0,0:0:0:0:
192,192,27751,1,0,0:0:0:0:
64,192,27751,1,0,0:0:0:0:
320,192,28251,1,0,0:0:0:0:
448,192,28251,1,0,0:0:0:0:
192,192,28584,1,0,0:0:0:0:
64,192,28584,1,0,0:0:0:0:
64,192,28751,128,0,29084:0:0:0:0:
320,192,28751,1,0,0:0:0:0:
192,192,29084,1,0,0:0:0:0:
448,192,29084,1,0,0:0:0:0:
320,192,29251,1,0,0:0:0:0:
64,192,29417,1,0,0:0:0:0:
192,192,29584,1,0,0:0:0:0:
448,192,29751,1,0,0:0:0:0:
64,192,29751,1,0,0:0:0:0:
320,192,29917,1,0,0:0:0:0:
64,192,30084,1,0,0:0:0:0:
448,192,30084,1,0,0:0:0:0:
192,192,30251,1,0,0:0:0:0:
64,192,30417,1,0,0:0:0:0:
320,192,30417,1,0,0:0:0:0:
192,192,30584,1,0,0:0:0:0:
448,192,30751,1,0,0:0:0:0:
320,192,30917,1,0,0:0:0:0:
64,192,31084,1,0,0:0:0:0:
448,192,31084,1,0,0:0:0:0:
192,192,31251,1,0,0:0:0:0:
64,192,31417,1,0,0:0:0:0:
448,192,31417,1,0,0:0:0:0:
320,192,31584,1,0,0:0:0:0:
64,192,31751,1,0,0:0:0:0:
192,192,31751,1,0,0:0:0:0:
320,192,32084,1,0,0:0:0:0:
448,192,32084,1,0,0:0:0:0:
448,192,32251,1,0,0:0:0:0:
64,192,32417,1,0,0:0:0:0:
192,192,32417,1,0,0:0:0:0:
64,192,32584,1,0,0:0:0:0:
192,192,32751,1,0,0:0:0:0:
320,192,32751,1,0,0:0:0:0:
320,192,32917,1,0,0:0:0:0:
192,192,33084,1,0,0:0:0:0:
64,192,33084,1,0,0:0:0:0:
320,192,33251,1,0,0:0:0:0:
448,192,33417,1,0,0:0:0:0:
64,192,33584,1,0,0:0:0:0:
192,192,33751,1,0,0:0:0:0:
320,192,33917,1,0,0:0:0:0:
448,192,34084,1,0,0:0:0:0:
320,192,34251,1,0,0:0:0:0:
192,192,34417,1,0,0:0:0:0:
64,192,34751,1,0,0:0:0:0:
448,192,34751,1,0,0:0:0:0:
320,192,35084,1,0,0:0:0:0:
64,192,35417,1,0,0:0:0:0:
448,192,35417,1,0,0:0:0:0:
192,192,35751,1,0,0:0:0:0:
320,192,35751,1,0,0:0:0:0:
64,192,36084,1,0,0:0:0:0:
320,192,36417,1,0,0:0:0:0:
448,192,36417,1,0,0:0:0:0:
192,192,36584,1,0,0:0:0:0:
64,192,36751,1,0,0:0:0:0:
448,192,36751,1,0,0:0:0:0:
192,192,37084,1,0,0:0:0:0:
64,192,37084,1,0,0:0:0:0:
448,192,37251,1,0,0:0:0:0:
192,192,37417,1,0,0:0:0:0:
320,192,37417,1,0,0:0:0:0:
64,192,37584,1,0,0:0:0:0:
320,192,37751,1,0,0:0:0:0:
448,192,37751,1,0,0:0:0:0:
192,192,37917,1,0,0:0:0:0:
64,192,38084,1,0,0:0:0:0:
320,192,38084,1,0,0:0:0:0:
448,192,38251,1,0,0:0:0:0:
192,192,38417,1,0,0:0:0:0:
64,192,38417,128,0,38751:0:0:0:0:
320,192,38751,1,0,0:0:0:0:
448,192,38751,128,0,39084:0:0:0:0:
64,192,39084,1,0,0:0:0:0:
320,192,39084,128,0,39417:0:0:0:0:
192,192,39417,1,0,0:0:0:0:
64,192,39417,128,0,39751:0:0:0:0:
320,192,39751,1,0,0:0:0:0:
448,192,39751,1,0,0:0:0:0:
64,192,39917,1,0,0:0:0:0:
320,192,40084,1,0,0:0:0:0:
192,192,40084,1,0,0:0:0:0:
448,192,40251,1,0,0:0:0:0:
192,192,40417,1,0,0:0:0:0:
64,192,40417,1,0,0:0:0:0:
320,192,40584,1,0,0:0:0:0:
448,192,40751,1,0,0:0:0:0:
192,192,40751,1,0,0:0:0:0:
64,192,40917,1,0,0:0:0:0:
448,192,41084,1,0,0:0:0:0:
320,192,41084,128,0,41417:0:0:0:0:
64,192,41417,1,0,0:0:0:0:
192,192,41417,128,0,41751:0:0:0:0:
320,192,41751,1,0,0:0:0:0:
64,192,41751,128,0,42084:0:0:0:0:
192,192,42084,1,0,0:0:0:0:
448,192,42084,128,0,42417:0:0:0:0:
64,192,42417,1,0,0:0:0:0:
192,192,42417,1,0,0:0:0:0:
64,192,42751,1,0,0:0:0:0:
192,192,42751,1,0,0:0:0:0:
64,192,43084,1,0,0:0:0:0:
64,192,43251,1,0,0:0:0:0:
320,192,43417,1,0,0:0:0:0:
448,192,43417,1,0,0:0:0:0:
448,192,43584,1,0,0:0:0:0:
192,192,43917,1,0,0:0:0:0:
192,192,44084,1,0,0:0:0:0:
320,192,44084,1,0,0:0:0:0:
320,192,44417,1,0,0:0:0:0:
192,192,44751,1,0,0:0:0:0:
320,192,44751,1,0,0:0:0:0:
64,192,45084,1,0,0:0:0:0:
448,192,45084,1,0,0:0:0:0:
448,192,45251,1,0,0:0:0:0:
64,192,45417,1,0,0:0:0:0:
192,192,45417,1,0,0:0:0:0:
320,192,45751,1,0,0:0:0:0:
320,192,45917,1,0,0:0:0:0:
64,192,46084,1,0,0:0:0:0:
448,192,46084,1,0,0:0:0:0:
192,192,46251,1,0,0:0:0:0:
320,192,46417,128,0,46751:0:0:0:0:
64,192,46584,1,0,0:0:0:0:
448,192,46751,128,0,47084:0:0:0:0:
192,192,46917,1,0,0:0:0:0:
64,192,47084,128,0,47417:0:0:0:0:
320,192,47251,1,0,0:0:0:0:
192,192,47417,128,0,47751:0:0:0:0:
448,192,47584,1,0,0:0:0:0:
64,192,47751,1,0,0:0:0:0:
320,192,47751,1,0,0:0:0:0:
448,192,48251,128,0,48417:0:0:0:0:
192,192,48417,1,0,0:0:0:0:
64,192,48417,1,0,0:0:0:0:
320,192,48584,1,0,0:0:0:0:
448,192,48751,128,0,49084:0:0:0:0:
64,192,48917,1,0,0:0:0:0:
192,192,49084,128,0,49417:0:0:0:0:
448,192,49251,1,0,0:0:0:0:
64,192,49417,128,0,49751:0:0:0:0:
320,192,49584,1,0,0:0:0:0:
448,192,49751,128,0,50084:0:0:0:0:
192,192,49917,1,0,0:0:0:0:
320,192,50084,128,0,50417:0:0:0:0:
64,192,50251,1,0,0:0:0:0:
192,192,50417,1,0,0:0:0:0:
448,192,50417,1,0,0:0:0:0:
320,192,50751,1,0,0:0:0:0:
64,192,50917,128,0,51084:0:0:0:0:
320,192,51084,1,0,0:0:0:0:
448,192,51084,1,0,0:0:0:0:
192,192,51251,1,0,0:0:0:0:
64,192,51417,128,0,51751:0:0:0:0:
448,192,51584,1,0,0:0:0:0:
320,192,51751,128,0,52084:0:0:0:0:
64,192,51917,1,0,0:0:0:0:
448,192,52084,128,0,52417:0:0:0:0:
192,192,52251,1,0,0:0:0:0:
64,192,52417,128,0,52751:0:0:0:0:
320,192,52584,1,0,0:0:0:0:
192,192,52751,128,0,53084:0:0:0:0:
448,192,52917,1,0,0:0:0:0:
320,192,53084,1,0,0:0:0:0:
64,192,53084,1,0,0:0:0:0:
192,192,53417,1,0,0:0:0:0:
64,192,53417,1,0,0:0:0:0:
192,192,53751,1,0,0:0:0:0:
448,192,53751,1,0,0:0:0:0:
320,192,54001,1,0,0:0:0:0:
320,192,54251,1,0,0:0:0:0:
448,192,54251,1,0,0:0:0:0:
64,192,54584,1,0,0:0:0:0:
448,192,54751,1,0,0:0:0:0:
320,192,54751,1,0,0:0:0:0:
64,192,55084,1,0,0:0:0:0:
192,192,55084,1,0,0:0:0:0:
320,192,55417,128,0,55751:0:0:0:0:
64,192,55751,1,0,0:0:0:0:
448,192,55751,128,0,56001:0:0:0:0:
192,192,56001,128,0,56251:0:0:0:0:
320,192,56251,128,0,56501:0:0:0:0:
64,192,56501,128,0,56751:0:0:0:0:
448,192,56751,128,0,56917:0:0:0:0:
320,192,56917,128,0,57084:0:0:0:0:
64,192,57084,1,0,0:0:0:0:
192,192,57084,1,0,0:0:0:0:
448,192,57334,1,0,0:0:0:0:
320,192,57334,1,0,0:0:0:0:
192,192,57584,1,0,0:0:0:0:
320,192,57584,1,0,0:0:0:0:
64,192,57834,1,0,0:0:0:0:
192,192,57834,1,0,0:0:0:0:
448,192,58084,1,0,0:0:0:0:
320,192,58084,128,0,58251:0:0:0:0:
192,192,58251,128,0,58417:0:0:0:0:
64,192,58417,1,0,0:0:0:0:
448,192,58417,1,0,0:0:0:0:
64,192,59584,1,0,0:0:0:0:
320,192,59751,1,0,0:0:0:0:
448,192,59751,1,0,0:0:0:0:
448,192,60084,1,0,0:0:0:0:
64,192,60417,1,0,0:0:0:0:
320,192,60417,1,0,0:0:0:0:
192,192,60584,1,0,0:0:0:0:
64,192,60751,1,0,0:0:0:0:
448,192,60751,1,0,0:0:0:0:
192,192,61084,1,0,0:0:0:0:
320,192,61084,1,0,0:0:0:0:
448,192,61417,1,0,0:0:0:0:
320,192,61667,1,0,0:0:0:0:
192,192,61917,1,0,0:0:0:0:
64,192,62084,1,0,0:0:0:0:
320,192,62417,1,0,0:0:0:0:
64,192,62751,1,0,0:0:0:0:
192,192,63001,1,0,0:0:0:0:
320,192,63251,1,0,0:0:0:0:
448,192,63417,1,0,0:0:0:0:
64,192,63751,1,0,0:0:0:0:
192,192,64084,1,0,0:0:0:0:
448,192,64334,1,0,0:0:0:0:
320,192,64584,1,0,0:0:0:0:
192,192,64751,1,0,0:0:0:0:
448,192,65084,1,0,0:0:0:0:
320,192,65417,1,0,0:0:0:0:
64,192,65667,1,0,0:0:0:0:
192,192,65917,1,0,0:0:0:0:
320,192,66084,1,0,0:0:0:0:
448,192,66417,128,0,66751:0:0:0:0:
64,192,66751,1,0,0:0:0:0:
448,192,67001,128,0,67251:0:0:0:0:
64,192,67251,1,0,0:0:0:0:
448,192,67417,128,0,67584:0:0:0:0:
64,192,67584,1,0,0:0:0:0:
192,192,67751,128,0,68084:0:0:0:0:
320,192,68084,1,0,0:0:0:0:
192,192,68334,128,0,68584:0:0:0:0:
320,192,68584,1,0,0:0:0:0:
192,192,68751,128,0,68917:0:0:0:0:
320,192,68917,1,0,0:0:0:0:
64,192,69084,128,0,69417:0:0:0:0:
448,192,69417,1,0,0:0:0:0:
320,192,69667,128,0,69917:0:0:0:0:
192,192,69917,1,0,0:0:0:0:
64,192,70251,1,0,0:0:0:0:
448,192,70417,1,0,0:0:0:0:
448,192,70751,1,0,0:0:0:0:
320,192,71001,1,0,0:0:0:0:
192,192,71251,1,0,0:0:0:0:
64,192,71417,128,0,71751:0:0:0:0:
320,192,71751,1,0,0:0:0:0:
448,192,71751,1,0,0:0:0:0:
448,192,72084,1,0,0:0:0:0:
448,192,72417,1,0,0:0:0:0:
448,192,72751,1,0,0:0:0:0:
64,192,72751,1,0,0:0:0:0:
192,192,72917,1,0,0:0:0:0:
64,192,73084,1,0,0:0:0:0:
320,192,73084,1,0,0:0:0:0:
64,192,73417,1,0,0:0:0:0:
64,192,73751,1,0,0:0:0:0:
64,192,74084,1,0,0:0:0:0:
448,192,74084,1,0,0:0:0:0:
192,192,74251,1,0,0:0:0:0:
320,192,74417,1,0,0:0:0:0:
448,192,74417,1,0,0:0:0:0:
320,192,74751,1,0,0:0:0:0:
320,192,75084,1,0,0:0:0:0:
320,192,75417,1,0,0:0:0:0:
64,192,75417,1,0,0:0:0:0:
448,192,75584,1,0,0:0:0:0:
192,192,75751,1,0,0:0:0:0:
320,192,75751,1,0,0:0:0:0:
192,192,76084,1,0,0:0:0:0:
192,192,76417,1,0,0:0:0:0:
320,192,76584,1,0,0:0:0:0:
192,192,76751,1,0,0:0:0:0:
64,192,76751,1,0,0:0:0:0:
320,192,76917,1,0,0:0:0:0:
448,192,77084,1,0,0:0:0:0:
64,192,77084,1,0,0:0:0:0:
64,192,77417,1,0,0:0:0:0:
192,192,77667,1,0,0:0:0:0:
448,192,77917,1,0,0:0:0:0:
320,192,78084,128,0,78251:0:0:0:0:
192,192,78251,128,0,78417:0:0:0:0:
64,192,78417,1,0,0:0:0:0:
448,192,78417,1,0,0:0:0:0:
448,192,78751,1,0,0:0:0:0:
64,192,79084,1,0,0:0:0:0:
192,192,79251,1,0,0:0:0:0:
448,192,79417,1,0,0:0:0:0:
320,192,79584,1,0,0:0:0:0:
64,192,79751,128,0,80084:0:0:0:0:
192,192,79751,1,0,0:0:0:0:
320,192,79917,1,0,0:0:0:0:
448,192,80084,128,0,80417:0:0:0:0:
320,192,80251,1,0,0:0:0:0:
192,192,80417,128,0,80751:0:0:0:0:
64,192,80584,1,0,0:0:0:0:
320,192,80751,128,0,81084:0:0:0:0:
448,192,80917,1,0,0:0:0:0:
64,192,81084,1,0,0:0:0:0:
192,192,81084,1,0,0:0:0:0:
64,192,81334,1,0,0:0:0:0:
448,192,81584,1,0,0:0:0:0:
320,192,81751,1,0,0:0:0:0:
192,192,81917,1,0,0:0:0:0:
64,192,82084,1,0,0:0:0:0:
448,192,82084,1,0,0:0:0:0:
320,192,82417,1,0,0:0:0:0:
448,192,82417,1,0,0:0:0:0:
64,192,82751,1,0,0:0:0:0:
192,192,82751,1,0,0:0:0:0:
320,192,83001,128,0,83251:0:0:0:0:
64,192,83251,1,0,0:0:0:0:
192,192,83417,1,0,0:0:0:0:
448,192,83417,1,0,0:0:0:0:
320,192,83584,1,0,0:0:0:0:
64,192,83751,1,0,0:0:0:0:
192,192,83751,1,0,0:0:0:0:
320,192,84084,1,0,0:0:0:0:
448,192,84084,1,0,0:0:0:0:
192,192,84334,128,0,84584:0:0:0:0:
448,192,84584,1,0,0:0:0:0:
64,192,84751,1,0,0:0:0:0:
320,192,84751,1,0,0:0:0:0:
192,192,84917,1,0,0:0:0:0:
320,192,85084,1,0,0:0:0:0:
448,192,85084,1,0,0:0:0:0:
192,192,85417,1,0,0:0:0:0:
320,192,85417,1,0,0:0:0:0:
64,192,85667,128,0,85917:0:0:0:0:
320,192,85917,1,0,0:0:0:0:
448,192,86084,1,0,0:0:0:0:
192,192,86084,1,0,0:0:0:0:
64,192,86251,1,0,0:0:0:0:
320,192,86417,1,0,0:0:0:0:
448,192,86417,1,0,0:0:0:0:
192,192,86751,1,0,0:0:0:0:
64,192,86751,1,0,0:0:0:0:
448,192,87001,128,0,87251:0:0:0:0:
192,192,87251,1,0,0:0:0:0:
64,192,87417,1,0,0:0:0:0:
320,192,87417,1,0,0:0:0:0:
448,192,87584,1,0,0:0:0:0:
64,192,87751,1,0,0:0:0:0:
192,192,87751,1,0,0:0:0:0:
320,192,88084,1,0,0:0:0:0:
448,192,88084,1,0,0:0:0:0:
192,192,88334,128,0,88584:0:0:0:0:
448,192,88584,1,0,0:0:0:0:
64,192,88751,1,0,0:0:0:0:
320,192,88751,1,0,0:0:0:0:
192,192,88917,1,0,0:0:0:0:
320,192,89084,1,0,0:0:0:0:
448,192,89084,1,0,0:0:0:0:
64,192,89417,1,0,0:0:0:0:
192,192,89417,1,0,0:0:0:0:
320,192,89667,128,0,89917:0:0:0:0:
64,192,89917,1,0,0:0:0:0:
192,192,90084,1,0,0:0:0:0:
448,192,90084,1,0,0:0:0:0:
320,192,90251,1,0,0:0:0:0:
64,192,90417,1,0,0:0:0:0:
192,192,90417,1,0,0:0:0:0:
192,192,90751,1,0,0:0:0:0:
320,192,90751,1,0,0:0:0:0:
64,192,90917,1,0,0:0:0:0:
448,192,91084,1,0,0:0:0:0:
320,192,91084,1,0,0:0:0:0:
192,192,91334,1,0,0:0:0:0:
320,192,91584,1,0,0:0:0:0:
64,192,91751,1,0,0:0:0:0:
192,192,91751,1,0,0:0:0:0:
448,192,92001,1,0,0:0:0:0:
64,192,92251,1,0,0:0:0:0:
320,192,92417,1,0,0:0:0:0:
192,192,92584,1,0,0:0:0:0:
64,192,92751,1,0,0:0:0:0:
448,192,92751,1,0,0:0:0:0:
320,192,92917,1,0,0:0:0:0:
192,192,93084,1,0,0:0:0:0:
64,192,93084,1,0,0:0:0:0:
192,192,93417,1,0,0:0:0:0:
320,192,93417,1,0,0:0:0:0:
448,192,93751,1,0,0:0:0:0:
320,192,93751,1,0,0:0:0:0:
64,192,94084,1,0,0:0:0:0:
448,192,94084,1,0,0:0:0:0:
192,192,94251,1,0,0:0:0:0:
320,192,94417,1,0,0:0:0:0:
448,192,94417,1,0,0:0:0:0:
192,192,94751,1,0,0:0:0:0:
320,192,94751,1,0,0:0:0:0:
64,192,95084,1,0,0:0:0:0:
192,192,95084,1,0,0:0:0:0:
320,192,95251,1,0,0:0:0:0:
64,192,95417,1,0,0:0:0:0:
448,192,95417,1,0,0:0:0:0:
192,192,95584,1,0,0:0:0:0:
320,192,95751,1,0,0:0:0:0:
448,192,95751,1,0,0:0:0:0:
64,192,96084,1,0,0:0:0:0:
192,192,96084,1,0,0:0:0:0:
320,192,96417,1,0,0:0:0:0:
448,192,96417,1,0,0:0:0:0:
192,192,96751,1,0,0:0:0:0:
64,192,96751,1,0,0:0:0:0:
320,192,96917,1,0,0:0:0:0:
64,192,97084,1,0,0:0:0:0:
448,192,97084,1,0,0:0:0:0:
320,192,97334,1,0,0:0:0:0:
192,192,97584,1,0,0:0:0:0:
64,192,97834,1,0,0:0:0:0:
320,192,98084,128,0,98417:0:0:0:0:
64,192,98417,1,0,0:0:0:0:
448,192,98417,1,0,0:0:0:0:
192,192,98584,1,0,0:0:0:0:
320,192,98751,1,0,0:0:0:0:
192,192,98917,1,0,0:0:0:0:
64,192,99084,1,0,0:0:0:0:
192,192,99251,1,0,0:0:0:0:
320,192,99417,1,0,0:0:0:0:
448,192,99751,1,0,0:0:0:0:
320,192,99917,1,0,0:0:0:0:
192,192,100084,1,0,0:0:0:0:
320,192,100251,1,0,0:0:0:0:
448,192,100417,1,0,0:0:0:0:
320,192,100584,1,0,0:0:0:0:
192,192,100751,1,0,0:0:0:0:
64,192,101084,1,0,0:0:0:0:
448,192,101084,1,0,0:0:0:0:
320,192,101251,1,0,0:0:0:0:
192,192,101417,1,0,0:0:0:0:
64,192,101417,1,0,0:0:0:0:
64,192,101751,1,0,0:0:0:0:
448,192,101751,1,0,0:0:0:0:
192,192,101917,1,0,0:0:0:0:
320,192,102084,1,0,0:0:0:0:
448,192,102084,1,0,0:0:0:0:
64,192,102417,1,0,0:0:0:0:
192,192,102417,1,0,0:0:0:0:
448,192,102584,1,0,0:0:0:0:
320,192,102751,1,0,0:0:0:0:
64,192,102917,1,0,0:0:0:0:
192,192,103084,1,0,0:0:0:0:
448,192,103251,1,0,0:0:0:0:
320,192,103417,128,0,103751:0:0:0:0:
192,192,103584,128,0,103751:0:0:0:0:
64,192,103751,1,0,0:0:0:0:
448,192,103751,1,0,0:0:0:0:
192,192,104084,1,0,0:0:0:0:
320,192,104084,1,0,0:0:0:0:
448,192,104417,1,0,0:0:0:0:
64,192,104417,1,0,0:0:0:0:
64,192,104751,1,0,0:0:0:0:
448,192,104751,1,0,0:0:0:0:
320,192,105084,128,0,105417:0:0:0:0:
448,192,105084,1,0,0:0:0:0:
64,192,105251,1,0,0:0:0:0:
448,192,105417,128,0,105751:0:0:0:0:
192,192,105584,1,0,0:0:0:0:
64,192,105751,128,0,106084:0:0:0:0:
320,192,105917,1,0,0:0:0:0:
192,192,106084,128,0,106251:0:0:0:0:
448,192,106251,1,0,0:0:0:0:
64,192,106751,1,0,0:0:0:0:
192,192,106751,1,0,0:0:0:0:
64,192,107251,1,0,0:0:0:0:
192,192,107251,1,0,0:0:0:0:
320,192,107584,128,0,110417:0:0:0:0:
448,192,107584,128,0,110417:0:0:0:0:
