osu file format v14

[General]
AudioFilename: audio.mp3
AudioLeadIn: 0
PreviewTime: 12667
Countdown: 0
SampleSet: Normal
StackLeniency: 0.7
Mode: 3
LetterboxInBreaks: 0
SpecialStyle: 0
WidescreenStoryboard: 0

[Editor]
DistanceSpacing: 0.8
BeatDivisor: 4
GridSize: 8
TimelineZoom: 2

[Metadata]
Title:ULTRA HAPPY MEGAMIX
TitleUnicode:ULTRA HAPPY MEGAMIX
Artist:DJ Genki
ArtistUnicode:DJ Genki
Creator:Shinzo-
Version:4K ADVANCED
Source:jubeat Qubell
Tags:
BeatmapID:1160327
BeatmapSetID:547872

[Difficulty]
HPDrainRate:7.5
CircleSize:4
OverallDifficulty:7.5
ApproachRate:5
SliderMultiplier:1.4
SliderTickRate:1

[Events]
//Background and Video events
0,0,"Background Map.jpg",0,0
//Break Periods
//Storyboard Layer 0 (Background)
//Storyboard Layer 1 (Fail)
//Storyboard Layer 2 (Pass)
//Storyboard Layer 3 (Foreground)
//Storyboard Sound Samples

[TimingPoints]
2418,333.333333333333,4,1,0,30,1,0
11751,-76.9230769230769,4,1,0,30,0,0
11834,-142.857142857143,4,1,0,30,0,0
12084,-76.9230769230769,4,1,0,30,0,0
12168,-142.857142857143,4,1,0,30,0,0
12418,-76.9230769230769,4,1,0,30,0,0
12501,-142.857142857143,4,1,0,30,0,0
12751,-76.9230769230769,4,1,0,30,0,0
12834,-142.857142857143,4,1,0,30,0,0
13084,-100,4,1,0,30,0,1
22417,-80,4,1,0,30,0,1
22501,-133.333333333333,4,1,0,30,0,1
22667,-80,4,1,0,30,0,1
22751,-133.333333333333,4,1,0,30,0,1
22917,-80,4,1,0,30,0,1
23001,-133.333333333333,4,1,0,30,0,1
23084,-80,4,1,0,30,0,1
23167,-133.333333333333,4,1,0,30,0,1
23251,-80,4,1,0,30,0,1
23334,-133.333333333333,4,1,0,30,0,1
23417,-100,4,1,0,30,0,1
37084,-100,4,1,0,30,0,0
53167,-153.846153846154,4,1,0,30,0,0
53334,-74.0740740740741,4,1,0,30,0,0
53417,-100,4,1,0,30,0,0
53501,-153.846153846154,4,1,0,30,0,0
53667,-74.0740740740741,4,1,0,30,0,0
53751,-100,4,1,0,30,0,0
53834,-153.846153846154,4,1,0,30,0,0
53917,-74.0740740740741,4,1,0,30,0,0
54001,-100,4,1,0,30,0,0
54084,-153.846153846154,4,1,0,30,0,0
54167,-74.0740740740741,4,1,0,30,0,0
54251,-100,4,1,0,30,0,0
54334,-153.846153846154,4,1,0,30,0,0
54501,-74.0740740740741,4,1,0,30,0,0
54584,-100,4,1,0,30,0,0
54834,-153.846153846154,4,1,0,30,0,0
55001,-74.0740740740741,4,1,0,30,0,0
55084,-100,4,1,0,30,0,0
55167,-153.846153846154,4,1,0,30,0,0
55334,-74.0740740740741,4,1,0,30,0,0
55417,-100,4,1,0,30,0,0
61084,-117.647058823529,4,1,0,30,0,0
66417,-105.263157894737,4,1,0,30,0,0
69084,-100,4,1,0,30,0,0
82417,-100,4,1,0,30,0,1
110417,-100,4,1,0,30,0,0

[HitObjects]
64,192,2417,5,0,0:0:0:0:
448,192,2417,1,0,0:0:0:0:
320,192,2417,1,0,0:0:0:0:
64,192,2584,1,0,0:0:0:0:
192,192,2751,1,0,0:0:0:0:
448,192,2751,1,0,0:0:0:0:
320,192,2917,1,0,0:0:0:0:
64,192,3751,1,0,0:0:0:0:
448,192,3751,1,0,0:0:0:0:
192,192,3917,1,0,0:0:0:0:
320,192,4084,1,0,0:0:0:0:
448,192,4251,1,0,0:0:0:0:
192,192,4251,1,0,0:0:0:0:
320,192,4584,1,0,0:0:0:0:
64,192,4917,1,0,0:0:0:0:
192,192,5084,1,0,0:0:0:0:
448,192,5084,1,0,0:0:0:0:
320,192,5251,1,0,0:0:0:0:
192,192,5417,1,0,0:0:0:0:
64,192,5584,1,0,0:0:0:0:
448,192,5584,1,0,0:0:0:0:
448,192,5917,1,0,0:0:0:0:
320,192,6084,1,0,0:0:0:0:
64,192,6251,1,0,0:0:0:0:
192,192,6417,1,0,0:0:0:0:
448,192,6417,1,0,0:0:0:0:
320,192,6584,1,0,0:0:0:0:
64,192,6751,1,0,0:0:0:0:
192,192,6917,1,0,0:0:0:0:
448,192,6917,1,0,0:0:0:0:
320,192,7251,1,0,0:0:0:0:
192,192,7584,1,0,0:0:0:0:
64,192,7751,128,0,8084:0:0:0:0:
448,192,8251,128,0,8751:0:0:0:0:
192,192,8751,128,0,9084:0:0:0:0:
320,192,9084,128,0,9417:0:0:0:0:
64,192,9417,128,0,9584:0:0:0:0:
192,192,9584,128,0,9751:0:0:0:0:
448,192,9917,128,0,10084:0:0:0:0:
320,192,10251,128,0,11751:0:0:0:0:
64,192,11751,1,0,0:0:0:0:
192,192,11751,1,0,0:0:0:0:
64,192,12084,1,0,0:0:0:0:
192,192,12084,1,0,0:0:0:0:
64,192,12417,1,0,0:0:0:0:
192,192,12417,1,0,0:0:0:0:
320,192,12751,1,0,0:0:0:0:
448,192,12751,1,0,0:0:0:0:
192,192,12751,1,0,0:0:0:0:
448,192,13084,128,0,13251:0:0:0:0:
64,192,13084,1,0,0:0:0:0:
192,192,13084,1,0,0:0:0:0:
64,192,13417,128,0,13584:0:0:0:0:
320,192,13417,1,0,0:0:0:0:
320,192,13751,128,0,13917:0:0:0:0:
192,192,13751,1,0,0:0:0:0:
448,192,13917,128,0,14084:0:0:0:0:
64,192,14084,1,0,0:0:0:0:
192,192,14251,128,0,14417:0:0:0:0:
448,192,14417,1,0,0:0:0:0:
320,192,14584,128,0,14751:0:0:0:0:
448,192,14751,128,0,14917:0:0:0:0:
192,192,14751,1,0,0:0:0:0:
64,192,14917,128,0,15084:0:0:0:0:
320,192,15084,1,0,0:0:0:0:
64,192,15251,1,0,0:0:0:0:
448,192,15251,1,0,0:0:0:0:
192,192,15334,1,0,0:0:0:0:
320,192,15417,1,0,0:0:0:0:
448,192,15417,128,0,15751:0:0:0:0:
64,192,15584,128,0,15751:0:0:0:0:
192,192,15751,1,0,0:0:0:0:
320,192,15751,128,0,15917:0:0:0:0:
64,192,16084,128,0,16251:0:0:0:0:
192,192,16084,1,0,0:0:0:0:
448,192,16417,128,0,16584:0:0:0:0:
320,192,16417,1,0,0:0:0:0:
192,192,16751,128,0,16917:0:0:0:0:
64,192,16751,1,0,0:0:0:0:
320,192,16917,128,0,17084:0:0:0:0:
448,192,17084,1,0,0:0:0:0:
64,192,17251,128,0,17417:0:0:0:0:
448,192,17417,128,0,17584:0:0:0:0:
320,192,17417,1,0,0:0:0:0:
192,192,17584,128,0,17751:0:0:0:0:
64,192,17751,1,0,0:0:0:0:
448,192,17751,1,0,0:0:0:0:
192,192,17917,1,0,0:0:0:0:
320,192,17917,1,0,0:0:0:0:
192,192,18084,1,0,0:0:0:0:
320,192,18084,1,0,0:0:0:0:
448,192,18167,1,0,0:0:0:0:
320,192,18251,1,0,0:0:0:0:
192,192,18334,1,0,0:0:0:0:
448,192,18417,1,0,0:0:0:0:
64,192,18417,128,0,18584:0:0:0:0:
448,192,18751,128,0,18917:0:0:0:0:
192,192,18751,1,0,0:0:0:0:
192,192,19084,128,0,19251:0:0:0:0:
320,192,19084,1,0,0:0:0:0:
64,192,19251,128,0,19417:0:0:0:0:
448,192,19417,1,0,0:0:0:0:
320,192,19584,128,0,19751:0:0:0:0:
64,192,19751,1,0,0:0:0:0:
192,192,19917,128,0,20084:0:0:0:0:
64,192,20084,128,0,20251:0:0:0:0:
320,192,20084,1,0,0:0:0:0:
448,192,20251,128,0,20417:0:0:0:0:
192,192,20417,1,0,0:0:0:0:
448,192,20584,1,0,0:0:0:0:
64,192,20584,1,0,0:0:0:0:
320,192,20667,1,0,0:0:0:0:
192,192,20751,1,0,0:0:0:0:
64,192,20751,128,0,21084:0:0:0:0:
448,192,20917,128,0,21084:0:0:0:0:
320,192,21084,1,0,0:0:0:0:
192,192,21084,128,0,21251:0:0:0:0:
448,192,21417,128,0,21584:0:0:0:0:
320,192,21417,1,0,0:0:0:0:
64,192,21751,128,0,21917:0:0:0:0:
192,192,21751,1,0,0:0:0:0:
320,192,22084,128,0,22251:0:0:0:0:
448,192,22084,1,0,0:0:0:0:
192,192,22251,128,0,22417:0:0:0:0:
64,192,22417,1,0,0:0:0:0:
448,192,22417,1,0,0:0:0:0:
192,192,22667,1,0,0:0:0:0:
320,192,22667,1,0,0:0:0:0:
64,192,22917,1,0,0:0:0:0:
448,192,22917,1,0,0:0:0:0:
320,192,23084,1,0,0:0:0:0:
64,192,23084,1,0,0:0:0:0:
192,192,23251,1,0,0:0:0:0:
64,192,23251,1,0,0:0:0:0:
320,192,23417,1,0,0:0:0:0:
448,192,23417,1,0,0:0:0:0:
192,192,23501,1,0,0:0:0:0:
64,192,23584,1,0,0:0:0:0:
448,192,23667,1,0,0:0:0:0:
64,192,23751,128,0,23917:0:0:0:0:
192,192,23751,1,0,0:0:0:0:
320,192,23751,1,0,0:0:0:0:
448,192,24084,128,0,24251:0:0:0:0:
192,192,24084,1,0,0:0:0:0:
192,192,24417,128,0,24584:0:0:0:0:
320,192,24417,1,0,0:0:0:0:
64,192,24584,128,0,24751:0:0:0:0:
448,192,24751,1,0,0:0:0:0:
320,192,24917,128,0,25084:0:0:0:0:
64,192,25084,1,0,0:0:0:0:
192,192,25251,128,0,25417:0:0:0:0:
64,192,25417,128,0,25584:0:0:0:0:
320,192,25417,1,0,0:0:0:0:
448,192,25584,128,0,25751:0:0:0:0:
320,192,25751,1,0,0:0:0:0:
192,192,25917,1,0,0:0:0:0:
64,192,25917,1,0,0:0:0:0:
192,192,26084,1,0,0:0:0:0:
64,192,26084,128,0,26417:0:0:0:0:
448,192,26251,128,0,26417:0:0:0:0:
320,192,26417,1,0,0:0:0:0:
192,192,26417,128,0,26584:0:0:0:0:
448,192,26751,128,0,26917:0:0:0:0:
320,192,26751,1,0,0:0:0:0:
64,192,27084,128,0,27251:0:0:0:0:
192,192,27084,1,0,0:0:0:0:
320,192,27417,128,0,27584:0:0:0:0:
448,192,27417,1,0,0:0:0:0:
192,192,27584,128,0,27751:0:0:0:0:
64,192,27751,1,0,0:0:0:0:
448,192,27917,128,0,28084:0:0:0:0:
64,192,28084,128,0,28251:0:0:0:0:
192,192,28251,1,0,0:0:0:0:
320,192,28251,1,0,0:0:0:0:
448,192,28584,1,0,0:0:0:0:
64,192,28584,1,0,0:0:0:0:
320,192,28751,1,0,0:0:0:0:
192,192,28751,1,0,0:0:0:0:
64,192,28834,1,0,0:0:0:0:
192,192,28917,1,0,0:0:0:0:
320,192,29001,1,0,0:0:0:0:
64,192,29084,1,0,0:0:0:0:
448,192,29084,1,0,0:0:0:0:
64,192,29251,1,0,0:0:0:0:
192,192,29417,1,0,0:0:0:0:
448,192,29417,1,0,0:0:0:0:
192,192,29584,1,0,0:0:0:0:
64,192,29751,1,0,0:0:0:0:
448,192,29751,1,0,0:0:0:0:
320,192,29834,1,0,0:0:0:0:
64,192,29917,1,0,0:0:0:0:
192,192,30001,1,0,0:0:0:0:
320,192,30084,1,0,0:0:0:0:
448,192,30084,1,0,0:0:0:0:
192,192,30167,1,0,0:0:0:0:
64,192,30251,1,0,0:0:0:0:
320,192,30334,1,0,0:0:0:0:
64,192,30417,1,0,0:0:0:0:
448,192,30417,1,0,0:0:0:0:
448,192,30584,1,0,0:0:0:0:
320,192,30751,1,0,0:0:0:0:
64,192,30751,1,0,0:0:0:0:
320,192,30917,1,0,0:0:0:0:
64,192,31084,1,0,0:0:0:0:
448,192,31084,1,0,0:0:0:0:
192,192,31167,1,0,0:0:0:0:
64,192,31251,1,0,0:0:0:0:
448,192,31251,1,0,0:0:0:0:
320,192,31334,1,0,0:0:0:0:
192,192,31417,1,0,0:0:0:0:
448,192,31417,1,0,0:0:0:0:
64,192,31751,1,0,0:0:0:0:
320,192,31751,1,0,0:0:0:0:
192,192,31917,1,0,0:0:0:0:
320,192,31917,1,0,0:0:0:0:
192,192,32084,1,0,0:0:0:0:
448,192,32084,1,0,0:0:0:0:
64,192,32251,1,0,0:0:0:0:
320,192,32251,1,0,0:0:0:0:
64,192,32417,1,0,0:0:0:0:
192,192,32417,1,0,0:0:0:0:
64,192,32584,1,0,0:0:0:0:
320,192,32584,1,0,0:0:0:0:
192,192,32751,1,0,0:0:0:0:
448,192,32751,1,0,0:0:0:0:
320,192,32917,1,0,0:0:0:0:
448,192,32917,1,0,0:0:0:0:
64,192,33084,1,0,0:0:0:0:
192,192,33084,1,0,0:0:0:0:
320,192,33167,1,0,0:0:0:0:
448,192,33251,1,0,0:0:0:0:
64,192,33334,1,0,0:0:0:0:
192,192,33334,1,0,0:0:0:0:
320,192,33417,1,0,0:0:0:0:
448,192,33501,1,0,0:0:0:0:
192,192,33584,1,0,0:0:0:0:
320,192,33584,1,0,0:0:0:0:
64,192,33667,1,0,0:0:0:0:
320,192,33751,1,0,0:0:0:0:
448,192,33751,1,0,0:0:0:0:
192,192,33834,1,0,0:0:0:0:
64,192,33917,1,0,0:0:0:0:
448,192,33917,1,0,0:0:0:0:
320,192,34001,1,0,0:0:0:0:
192,192,34084,1,0,0:0:0:0:
64,192,34084,1,0,0:0:0:0:
448,192,34167,1,0,0:0:0:0:
320,192,34251,1,0,0:0:0:0:
192,192,34334,1,0,0:0:0:0:
64,192,34417,1,0,0:0:0:0:
64,192,34584,1,0,0:0:0:0:
320,192,34751,1,0,0:0:0:0:
448,192,34751,1,0,0:0:0:0:
192,192,34917,1,0,0:0:0:0:
64,192,35001,1,0,0:0:0:0:
448,192,35084,1,0,0:0:0:0:
320,192,35167,1,0,0:0:0:0:
192,192,35251,1,0,0:0:0:0:
64,192,35334,1,0,0:0:0:0:
320,192,35417,1,0,0:0:0:0:
448,192,35417,128,0,35584:0:0:0:0:
64,192,35584,1,0,0:0:0:0:
192,192,35667,1,0,0:0:0:0:
320,192,35751,1,0,0:0:0:0:
448,192,35751,1,0,0:0:0:0:
320,192,36084,1,0,0:0:0:0:
448,192,36084,1,0,0:0:0:0:
320,192,36417,1,0,0:0:0:0:
448,192,36417,1,0,0:0:0:0:
64,192,36584,1,0,0:0:0:0:
192,192,36667,1,0,0:0:0:0:
320,192,36751,1,0,0:0:0:0:
448,192,36751,1,0,0:0:0:0:
64,192,37084,1,0,0:0:0:0:
448,192,37084,1,0,0:0:0:0:
448,192,37251,1,0,0:0:0:0:
320,192,37334,1,0,0:0:0:0:
192,192,37417,1,0,0:0:0:0:
64,192,37417,1,0,0:0:0:0:
64,192,37584,1,0,0:0:0:0:
192,192,37667,1,0,0:0:0:0:
320,192,37751,1,0,0:0:0:0:
448,192,37751,1,0,0:0:0:0:
64,192,37834,1,0,0:0:0:0:
192,192,37917,1,0,0:0:0:0:
320,192,38001,1,0,0:0:0:0:
448,192,38084,1,0,0:0:0:0:
64,192,38084,1,0,0:0:0:0:
320,192,38251,1,0,0:0:0:0:
192,192,38334,1,0,0:0:0:0:
64,192,38417,1,0,0:0:0:0:
448,192,38417,1,0,0:0:0:0:
448,192,38584,1,0,0:0:0:0:
320,192,38667,1,0,0:0:0:0:
192,192,38751,1,0,0:0:0:0:
64,192,38751,1,0,0:0:0:0:
192,192,38917,1,0,0:0:0:0:
320,192,39001,1,0,0:0:0:0:
448,192,39084,1,0,0:0:0:0:
64,192,39084,1,0,0:0:0:0:
64,192,39251,1,0,0:0:0:0:
192,192,39334,1,0,0:0:0:0:
320,192,39417,1,0,0:0:0:0:
448,192,39417,1,0,0:0:0:0:
320,192,39584,1,0,0:0:0:0:
192,192,39667,1,0,0:0:0:0:
64,192,39751,1,0,0:0:0:0:
448,192,39751,1,0,0:0:0:0:
64,192,39917,1,0,0:0:0:0:
192,192,40001,1,0,0:0:0:0:
320,192,40084,1,0,0:0:0:0:
448,192,40084,1,0,0:0:0:0:
448,192,40251,1,0,0:0:0:0:
320,192,40334,1,0,0:0:0:0:
64,192,40417,1,0,0:0:0:0:
192,192,40417,1,0,0:0:0:0:
448,192,40501,1,0,0:0:0:0:
320,192,40584,1,0,0:0:0:0:
192,192,40667,1,0,0:0:0:0:
64,192,40751,1,0,0:0:0:0:
448,192,40751,1,0,0:0:0:0:
192,192,40917,1,0,0:0:0:0:
320,192,41001,1,0,0:0:0:0:
448,192,41084,1,0,0:0:0:0:
64,192,41084,1,0,0:0:0:0:
64,192,41251,1,0,0:0:0:0:
192,192,41334,1,0,0:0:0:0:
320,192,41417,1,0,0:0:0:0:
448,192,41417,1,0,0:0:0:0:
448,192,41584,128,0,41751:0:0:0:0:
192,192,41751,1,0,0:0:0:0:
64,192,41751,1,0,0:0:0:0:
64,192,41917,128,0,42084:0:0:0:0:
320,192,42084,1,0,0:0:0:0:
448,192,42084,1,0,0:0:0:0:
320,192,42251,128,0,42417:0:0:0:0:
64,192,42417,1,0,0:0:0:0:
192,192,42417,1,0,0:0:0:0:
448,192,42584,1,0,0:0:0:0:
320,192,42667,1,0,0:0:0:0:
64,192,42751,1,0,0:0:0:0:
192,192,42751,1,0,0:0:0:0:
448,192,42917,1,0,0:0:0:0:
64,192,43084,1,0,0:0:0:0:
64,192,43251,1,0,0:0:0:0:
448,192,43251,1,0,0:0:0:0:
320,192,43334,1,0,0:0:0:0:
192,192,43417,1,0,0:0:0:0:
64,192,43417,1,0,0:0:0:0:
448,192,43501,1,0,0:0:0:0:
320,192,43584,1,0,0:0:0:0:
64,192,43584,1,0,0:0:0:0:
192,192,43667,1,0,0:0:0:0:
320,192,43751,1,0,0:0:0:0:
64,192,43917,1,0,0:0:0:0:
192,192,44001,1,0,0:0:0:0:
320,192,44084,1,0,0:0:0:0:
448,192,44084,1,0,0:0:0:0:
64,192,44251,1,0,0:0:0:0:
448,192,44417,1,0,0:0:0:0:
64,192,44584,1,0,0:0:0:0:
192,192,44667,1,0,0:0:0:0:
320,192,44751,1,0,0:0:0:0:
448,192,44751,1,0,0:0:0:0:
64,192,44834,1,0,0:0:0:0:
192,192,44917,1,0,0:0:0:0:
448,192,44917,1,0,0:0:0:0:
320,192,45001,1,0,0:0:0:0:
64,192,45084,1,0,0:0:0:0:
192,192,45084,1,0,0:0:0:0:
448,192,45251,1,0,0:0:0:0:
320,192,45334,1,0,0:0:0:0:
192,192,45417,1,0,0:0:0:0:
64,192,45417,1,0,0:0:0:0:
448,192,45584,1,0,0:0:0:0:
64,192,45751,1,0,0:0:0:0:
64,192,45917,1,0,0:0:0:0:
448,192,45917,1,0,0:0:0:0:
320,192,46001,1,0,0:0:0:0:
64,192,46084,1,0,0:0:0:0:
192,192,46084,1,0,0:0:0:0:
448,192,46167,1,0,0:0:0:0:
64,192,46251,1,0,0:0:0:0:
448,192,46334,1,0,0:0:0:0:
64,192,46417,128,0,47417:0:0:0:0:
192,192,46584,1,0,0:0:0:0:
320,192,46751,1,0,0:0:0:0:
192,192,46751,1,0,0:0:0:0:
320,192,46917,1,0,0:0:0:0:
448,192,47084,1,0,0:0:0:0:
448,192,47251,1,0,0:0:0:0:
320,192,47334,1,0,0:0:0:0:
192,192,47417,1,0,0:0:0:0:
448,192,47417,1,0,0:0:0:0:
64,192,47501,1,0,0:0:0:0:
320,192,47584,1,0,0:0:0:0:
192,192,47667,1,0,0:0:0:0:
448,192,47751,1,0,0:0:0:0:
64,192,47751,1,0,0:0:0:0:
192,192,48084,1,0,0:0:0:0:
448,192,48251,1,0,0:0:0:0:
64,192,48334,1,0,0:0:0:0:
448,192,48417,1,0,0:0:0:0:
320,192,48417,1,0,0:0:0:0:
192,192,48584,1,0,0:0:0:0:
320,192,48584,1,0,0:0:0:0:
64,192,48751,1,0,0:0:0:0:
448,192,48751,1,0,0:0:0:0:
320,192,48834,1,0,0:0:0:0:
192,192,48917,1,0,0:0:0:0:
64,192,49001,1,0,0:0:0:0:
448,192,49084,1,0,0:0:0:0:
320,192,49167,1,0,0:0:0:0:
192,192,49251,1,0,0:0:0:0:
320,192,49334,1,0,0:0:0:0:
448,192,49417,1,0,0:0:0:0:
64,192,49501,1,0,0:0:0:0:
192,192,49584,1,0,0:0:0:0:
320,192,49667,1,0,0:0:0:0:
192,192,49751,1,0,0:0:0:0:
64,192,49834,1,0,0:0:0:0:
448,192,49917,1,0,0:0:0:0:
320,192,50001,1,0,0:0:0:0:
192,192,50084,1,0,0:0:0:0:
64,192,50167,1,0,0:0:0:0:
192,192,50251,1,0,0:0:0:0:
320,192,50334,1,0,0:0:0:0:
448,192,50417,1,0,0:0:0:0:
64,192,50417,1,0,0:0:0:0:
320,192,50529,1,0,0:0:0:0:
192,192,50640,1,0,0:0:0:0:
448,192,50751,1,0,0:0:0:0:
64,192,50751,1,0,0:0:0:0:
192,192,50917,1,0,0:0:0:0:
320,192,51001,1,0,0:0:0:0:
192,192,51084,1,0,0:0:0:0:
64,192,51084,1,0,0:0:0:0:
192,192,51251,1,0,0:0:0:0:
320,192,51251,1,0,0:0:0:0:
320,192,51417,1,0,0:0:0:0:
448,192,51417,1,0,0:0:0:0:
64,192,51501,1,0,0:0:0:0:
192,192,51584,1,0,0:0:0:0:
320,192,51667,1,0,0:0:0:0:
448,192,51751,128,0,51917:0:0:0:0:
64,192,51751,1,0,0:0:0:0:
192,192,51834,1,0,0:0:0:0:
320,192,51917,1,0,0:0:0:0:
192,192,52001,1,0,0:0:0:0:
64,192,52084,128,0,52251:0:0:0:0:
448,192,52084,1,0,0:0:0:0:
320,192,52167,1,0,0:0:0:0:
192,192,52251,1,0,0:0:0:0:
320,192,52334,1,0,0:0:0:0:
64,192,52417,1,0,0:0:0:0:
448,192,52417,128,0,52584:0:0:0:0:
192,192,52501,1,0,0:0:0:0:
320,192,52584,1,0,0:0:0:0:
192,192,52667,1,0,0:0:0:0:
64,192,52751,128,0,52917:0:0:0:0:
448,192,52751,1,0,0:0:0:0:
320,192,52834,1,0,0:0:0:0:
192,192,52917,1,0,0:0:0:0:
320,192,53001,1,0,0:0:0:0:
448,192,53084,1,0,0:0:0:0:
64,192,53084,1,0,0:0:0:0:
64,192,53417,1,0,0:0:0:0:
448,192,53417,1,0,0:0:0:0:
64,192,53751,1,0,0:0:0:0:
448,192,53751,1,0,0:0:0:0:
192,192,54001,1,0,0:0:0:0:
320,192,54001,1,0,0:0:0:0:
64,192,54251,1,0,0:0:0:0:
448,192,54251,1,0,0:0:0:0:
192,192,54584,1,0,0:0:0:0:
64,192,54584,1,0,0:0:0:0:
64,192,54751,1,0,0:0:0:0:
192,192,54751,1,0,0:0:0:0:
320,192,55084,1,0,0:0:0:0:
448,192,55084,1,0,0:0:0:0:
320,192,55417,1,0,0:0:0:0:
448,192,55417,1,0,0:0:0:0:
64,192,55751,128,0,56001:0:0:0:0:
448,192,55751,128,0,56001:0:0:0:0:
192,192,56001,128,0,56251:0:0:0:0:
320,192,56001,128,0,56251:0:0:0:0:
64,192,56251,128,0,56501:0:0:0:0:
448,192,56251,128,0,56501:0:0:0:0:
192,192,56501,128,0,56751:0:0:0:0:
320,192,56501,128,0,56751:0:0:0:0:
64,192,56751,1,0,0:0:0:0:
448,192,56751,1,0,0:0:0:0:
320,192,56834,1,0,0:0:0:0:
192,192,56917,1,0,0:0:0:0:
64,192,57001,1,0,0:0:0:0:
320,192,57084,1,0,0:0:0:0:
448,192,57084,1,0,0:0:0:0:
192,192,57167,1,0,0:0:0:0:
64,192,57167,1,0,0:0:0:0:
64,192,57334,1,0,0:0:0:0:
192,192,57334,1,0,0:0:0:0:
320,192,57417,1,0,0:0:0:0:
448,192,57417,1,0,0:0:0:0:
192,192,57584,1,0,0:0:0:0:
320,192,57584,1,0,0:0:0:0:
64,192,57667,1,0,0:0:0:0:
448,192,57667,1,0,0:0:0:0:
64,192,57834,1,0,0:0:0:0:
448,192,57834,1,0,0:0:0:0:
192,192,57917,1,0,0:0:0:0:
320,192,57917,1,0,0:0:0:0:
64,192,58084,1,0,0:0:0:0:
192,192,58084,1,0,0:0:0:0:
192,192,58251,1,0,0:0:0:0:
320,192,58251,1,0,0:0:0:0:
320,192,58417,1,0,0:0:0:0:
448,192,58417,1,0,0:0:0:0:
64,192,58417,1,0,0:0:0:0:
64,192,59167,128,0,59251:0:0:0:0:
192,192,59251,128,0,59334:0:0:0:0:
320,192,59334,128,0,59417:0:0:0:0:
448,192,59417,128,0,59751:0:0:0:0:
64,192,59584,1,0,0:0:0:0:
192,192,59667,1,0,0:0:0:0:
320,192,59751,1,0,0:0:0:0:
64,192,59751,1,0,0:0:0:0:
192,192,60084,1,0,0:0:0:0:
448,192,60084,1,0,0:0:0:0:
64,192,60417,1,0,0:0:0:0:
192,192,60417,1,0,0:0:0:0:
320,192,60584,1,0,0:0:0:0:
448,192,60584,1,0,0:0:0:0:
192,192,60667,1,0,0:0:0:0:
64,192,60751,1,0,0:0:0:0:
448,192,60751,1,0,0:0:0:0:
320,192,61084,1,0,0:0:0:0:
448,192,61084,1,0,0:0:0:0:
192,192,61251,1,0,0:0:0:0:
320,192,61417,1,0,0:0:0:0:
64,192,61584,1,0,0:0:0:0:
448,192,61667,1,0,0:0:0:0:
64,192,61834,1,0,0:0:0:0:
448,192,61917,1,0,0:0:0:0:
192,192,62084,1,0,0:0:0:0:
320,192,62251,1,0,0:0:0:0:
320,192,62417,1,0,0:0:0:0:
64,192,62584,1,0,0:0:0:0:
320,192,62751,1,0,0:0:0:0:
192,192,62917,1,0,0:0:0:0:
448,192,63001,1,0,0:0:0:0:
192,192,63167,1,0,0:0:0:0:
448,192,63251,1,0,0:0:0:0:
64,192,63417,1,0,0:0:0:0:
192,192,63584,1,0,0:0:0:0:
192,192,63751,1,0,0:0:0:0:
64,192,63917,1,0,0:0:0:0:
320,192,64084,1,0,0:0:0:0:
192,192,64251,1,0,0:0:0:0:
448,192,64334,1,0,0:0:0:0:
192,192,64501,1,0,0:0:0:0:
448,192,64584,1,0,0:0:0:0:
64,192,64751,1,0,0:0:0:0:
320,192,64917,1,0,0:0:0:0:
448,192,65084,1,0,0:0:0:0:
64,192,65251,1,0,0:0:0:0:
448,192,65417,1,0,0:0:0:0:
64,192,65584,1,0,0:0:0:0:
448,192,65667,1,0,0:0:0:0:
64,192,65834,1,0,0:0:0:0:
448,192,65917,1,0,0:0:0:0:
192,192,66084,1,0,0:0:0:0:
320,192,66251,1,0,0:0:0:0:
64,192,66417,1,0,0:0:0:0:
448,192,66417,1,0,0:0:0:0:
192,192,66584,1,0,0:0:0:0:
320,192,66751,1,0,0:0:0:0:
64,192,66917,1,0,0:0:0:0:
448,192,67001,1,0,0:0:0:0:
64,192,67167,1,0,0:0:0:0:
448,192,67251,1,0,0:0:0:0:
192,192,67417,1,0,0:0:0:0:
64,192,67501,1,0,0:0:0:0:
320,192,67584,1,0,0:0:0:0:
448,192,67667,1,0,0:0:0:0:
192,192,67751,1,0,0:0:0:0:
64,192,67917,1,0,0:0:0:0:
320,192,68084,1,0,0:0:0:0:
192,192,68251,1,0,0:0:0:0:
448,192,68334,1,0,0:0:0:0:
64,192,68417,1,0,0:0:0:0:
192,192,68501,1,0,0:0:0:0:
448,192,68584,1,0,0:0:0:0:
320,192,68667,1,0,0:0:0:0:
64,192,68751,1,0,0:0:0:0:
448,192,68834,1,0,0:0:0:0:
192,192,68917,1,0,0:0:0:0:
320,192,69001,1,0,0:0:0:0:
192,192,69084,1,0,0:0:0:0:
64,192,69251,1,0,0:0:0:0:
320,192,69417,1,0,0:0:0:0:
64,192,69584,1,0,0:0:0:0:
448,192,69667,1,0,0:0:0:0:
192,192,69751,1,0,0:0:0:0:
320,192,69834,1,0,0:0:0:0:
64,192,69917,1,0,0:0:0:0:
448,192,70001,1,0,0:0:0:0:
192,192,70251,1,0,0:0:0:0:
320,192,70417,1,0,0:0:0:0:
320,192,70751,1,0,0:0:0:0:
192,192,71001,1,0,0:0:0:0:
192,192,71251,1,0,0:0:0:0:
64,192,71417,128,0,71751:0:0:0:0:
448,192,71584,1,0,0:0:0:0:
320,192,71667,1,0,0:0:0:0:
192,192,71751,1,0,0:0:0:0:
448,192,71751,1,0,0:0:0:0:
448,192,72084,1,0,0:0:0:0:
64,192,72084,1,0,0:0:0:0:
192,192,72334,1,0,0:0:0:0:
448,192,72417,1,0,0:0:0:0:
64,192,72584,1,0,0:0:0:0:
448,192,72751,1,0,0:0:0:0:
320,192,72751,1,0,0:0:0:0:
64,192,72834,1,0,0:0:0:0:
192,192,72917,1,0,0:0:0:0:
320,192,73001,1,0,0:0:0:0:
64,192,73084,1,0,0:0:0:0:
448,192,73084,1,0,0:0:0:0:
64,192,73417,1,0,0:0:0:0:
320,192,73417,1,0,0:0:0:0:
448,192,73667,1,0,0:0:0:0:
64,192,73751,1,0,0:0:0:0:
320,192,73917,1,0,0:0:0:0:
64,192,74084,1,0,0:0:0:0:
448,192,74084,1,0,0:0:0:0:
320,192,74167,1,0,0:0:0:0:
192,192,74251,1,0,0:0:0:0:
64,192,74334,1,0,0:0:0:0:
320,192,74417,1,0,0:0:0:0:
448,192,74417,1,0,0:0:0:0:
320,192,74751,1,0,0:0:0:0:
64,192,74751,1,0,0:0:0:0:
192,192,75001,1,0,0:0:0:0:
320,192,75084,1,0,0:0:0:0:
448,192,75251,1,0,0:0:0:0:
320,192,75417,1,0,0:0:0:0:
64,192,75417,1,0,0:0:0:0:
192,192,75501,1,0,0:0:0:0:
448,192,75584,1,0,0:0:0:0:
320,192,75667,1,0,0:0:0:0:
192,192,75751,1,0,0:0:0:0:
64,192,75751,1,0,0:0:0:0:
192,192,76084,1,0,0:0:0:0:
320,192,76084,1,0,0:0:0:0:
448,192,76334,1,0,0:0:0:0:
192,192,76417,1,0,0:0:0:0:
64,192,76584,1,0,0:0:0:0:
192,192,76751,1,0,0:0:0:0:
448,192,76751,1,0,0:0:0:0:
320,192,76834,1,0,0:0:0:0:
64,192,76917,1,0,0:0:0:0:
192,192,77001,1,0,0:0:0:0:
320,192,77084,1,0,0:0:0:0:
448,192,77084,1,0,0:0:0:0:
192,192,77167,1,0,0:0:0:0:
64,192,77251,1,0,0:0:0:0:
320,192,77334,1,0,0:0:0:0:
448,192,77417,1,0,0:0:0:0:
192,192,77501,1,0,0:0:0:0:
64,192,77584,1,0,0:0:0:0:
320,192,77667,1,0,0:0:0:0:
448,192,77751,1,0,0:0:0:0:
192,192,77834,1,0,0:0:0:0:
64,192,77917,1,0,0:0:0:0:
320,192,78001,1,0,0:0:0:0:
448,192,78084,1,0,0:0:0:0:
192,192,78167,1,0,0:0:0:0:
64,192,78251,1,0,0:0:0:0:
320,192,78334,1,0,0:0:0:0:
448,192,78417,1,0,0:0:0:0:
64,192,78417,1,0,0:0:0:0:
192,192,78501,1,0,0:0:0:0:
448,192,78584,1,0,0:0:0:0:
320,192,78667,1,0,0:0:0:0:
64,192,78751,1,0,0:0:0:0:
192,192,78834,1,0,0:0:0:0:
448,192,78917,1,0,0:0:0:0:
320,192,79001,1,0,0:0:0:0:
64,192,79084,1,0,0:0:0:0:
192,192,79167,1,0,0:0:0:0:
448,192,79251,1,0,0:0:0:0:
320,192,79334,1,0,0:0:0:0:
64,192,79417,1,0,0:0:0:0:
192,192,79501,1,0,0:0:0:0:
448,192,79584,1,0,0:0:0:0:
320,192,79667,1,0,0:0:0:0:
64,192,79751,1,0,0:0:0:0:
192,192,79751,1,0,0:0:0:0:
64,192,79917,1,0,0:0:0:0:
192,192,79917,1,0,0:0:0:0:
320,192,80084,1,0,0:0:0:0:
448,192,80084,1,0,0:0:0:0:
320,192,80251,1,0,0:0:0:0:
448,192,80251,1,0,0:0:0:0:
64,192,80417,1,0,0:0:0:0:
192,192,80417,1,0,0:0:0:0:
448,192,80501,1,0,0:0:0:0:
320,192,80584,1,0,0:0:0:0:
192,192,80667,1,0,0:0:0:0:
64,192,80667,1,0,0:0:0:0:
320,192,80751,1,0,0:0:0:0:
448,192,80834,1,0,0:0:0:0:
192,192,80917,1,0,0:0:0:0:
320,192,80917,1,0,0:0:0:0:
64,192,81001,1,0,0:0:0:0:
320,192,81084,1,0,0:0:0:0:
448,192,81084,1,0,0:0:0:0:
192,192,81334,1,0,0:0:0:0:
320,192,81334,1,0,0:0:0:0:
64,192,81584,1,0,0:0:0:0:
192,192,81584,1,0,0:0:0:0:
320,192,81751,1,0,0:0:0:0:
448,192,81751,1,0,0:0:0:0:
320,192,81917,1,0,0:0:0:0:
448,192,81917,1,0,0:0:0:0:
64,192,82084,1,0,0:0:0:0:
192,192,82084,1,0,0:0:0:0:
448,192,82084,1,0,0:0:0:0:
64,192,82417,1,0,0:0:0:0:
320,192,82417,1,0,0:0:0:0:
448,192,82417,128,0,82584:0:0:0:0:
64,192,82751,128,0,82917:0:0:0:0:
320,192,82751,1,0,0:0:0:0:
448,192,83001,1,0,0:0:0:0:
320,192,83084,1,0,0:0:0:0:
64,192,83167,1,0,0:0:0:0:
192,192,83251,1,0,0:0:0:0:
448,192,83417,1,0,0:0:0:0:
320,192,83501,1,0,0:0:0:0:
192,192,83584,1,0,0:0:0:0:
64,192,83667,1,0,0:0:0:0:
320,192,83751,128,0,83917:0:0:0:0:
448,192,83751,1,0,0:0:0:0:
192,192,84084,128,0,84251:0:0:0:0:
448,192,84084,1,0,0:0:0:0:
64,192,84334,1,0,0:0:0:0:
192,192,84417,1,0,0:0:0:0:
448,192,84501,1,0,0:0:0:0:
320,192,84584,1,0,0:0:0:0:
64,192,84751,1,0,0:0:0:0:
192,192,84834,1,0,0:0:0:0:
320,192,84917,1,0,0:0:0:0:
448,192,85001,1,0,0:0:0:0:
64,192,85084,128,0,85251:0:0:0:0:
192,192,85084,1,0,0:0:0:0:
192,192,85417,1,0,0:0:0:0:
320,192,85417,128,0,85584:0:0:0:0:
448,192,85667,1,0,0:0:0:0:
64,192,85751,1,0,0:0:0:0:
320,192,85834,1,0,0:0:0:0:
192,192,85917,1,0,0:0:0:0:
64,192,86084,1,0,0:0:0:0:
192,192,86167,1,0,0:0:0:0:
320,192,86251,1,0,0:0:0:0:
192,192,86334,1,0,0:0:0:0:
64,192,86417,1,0,0:0:0:0:
448,192,86417,128,0,86584:0:0:0:0:
448,192,86751,128,0,86917:0:0:0:0:
192,192,86751,1,0,0:0:0:0:
64,192,87001,1,0,0:0:0:0:
320,192,87084,1,0,0:0:0:0:
448,192,87084,1,0,0:0:0:0:
192,192,87251,1,0,0:0:0:0:
64,192,87251,1,0,0:0:0:0:
320,192,87417,1,0,0:0:0:0:
448,192,87417,1,0,0:0:0:0:
192,192,87501,1,0,0:0:0:0:
64,192,87584,1,0,0:0:0:0:
320,192,87667,1,0,0:0:0:0:
448,192,87751,1,0,0:0:0:0:
192,192,87751,1,0,0:0:0:0:
64,192,87751,128,0,87917:0:0:0:0:
448,192,88084,128,0,88251:0:0:0:0:
192,192,88084,1,0,0:0:0:0:
64,192,88334,1,0,0:0:0:0:
192,192,88417,1,0,0:0:0:0:
448,192,88501,1,0,0:0:0:0:
320,192,88584,1,0,0:0:0:0:
64,192,88751,1,0,0:0:0:0:
192,192,88834,1,0,0:0:0:0:
320,192,88917,1,0,0:0:0:0:
448,192,89001,1,0,0:0:0:0:
192,192,89084,128,0,89251:0:0:0:0:
64,192,89084,1,0,0:0:0:0:
320,192,89417,128,0,89584:0:0:0:0:
64,192,89417,1,0,0:0:0:0:
448,192,89667,1,0,0:0:0:0:
320,192,89751,1,0,0:0:0:0:
64,192,89834,1,0,0:0:0:0:
192,192,89917,1,0,0:0:0:0:
448,192,90084,1,0,0:0:0:0:
320,192,90167,1,0,0:0:0:0:
192,192,90251,1,0,0:0:0:0:
64,192,90334,1,0,0:0:0:0:
448,192,90417,128,0,90584:0:0:0:0:
320,192,90417,1,0,0:0:0:0:
320,192,90751,1,0,0:0:0:0:
192,192,90751,128,0,90917:0:0:0:0:
64,192,90917,1,0,0:0:0:0:
192,192,91001,1,0,0:0:0:0:
448,192,91084,1,0,0:0:0:0:
320,192,91084,1,0,0:0:0:0:
64,192,91334,1,0,0:0:0:0:
448,192,91417,1,0,0:0:0:0:
192,192,91584,1,0,0:0:0:0:
448,192,91751,1,0,0:0:0:0:
64,192,91751,128,0,91917:0:0:0:0:
64,192,92084,128,0,92251:0:0:0:0:
320,192,92084,1,0,0:0:0:0:
448,192,92334,1,0,0:0:0:0:
192,192,92417,1,0,0:0:0:0:
64,192,92417,1,0,0:0:0:0:
320,192,92584,1,0,0:0:0:0:
448,192,92584,1,0,0:0:0:0:
192,192,92751,1,0,0:0:0:0:
64,192,92751,1,0,0:0:0:0:
320,192,92834,1,0,0:0:0:0:
448,192,92917,1,0,0:0:0:0:
64,192,93001,1,0,0:0:0:0:
192,192,93084,1,0,0:0:0:0:
320,192,93084,1,0,0:0:0:0:
448,192,93084,1,0,0:0:0:0:
64,192,93417,1,0,0:0:0:0:
192,192,93417,1,0,0:0:0:0:
448,192,93584,1,0,0:0:0:0:
320,192,93667,1,0,0:0:0:0:
192,192,93751,1,0,0:0:0:0:
64,192,93751,1,0,0:0:0:0:
448,192,93917,1,0,0:0:0:0:
320,192,94084,1,0,0:0:0:0:
64,192,94084,1,0,0:0:0:0:
192,192,94167,1,0,0:0:0:0:
448,192,94251,1,0,0:0:0:0:
320,192,94334,1,0,0:0:0:0:
192,192,94417,1,0,0:0:0:0:
64,192,94417,1,0,0:0:0:0:
320,192,94751,1,0,0:0:0:0:
448,192,94751,1,0,0:0:0:0:
64,192,94917,1,0,0:0:0:0:
192,192,95001,1,0,0:0:0:0:
320,192,95084,1,0,0:0:0:0:
448,192,95084,1,0,0:0:0:0:
192,192,95251,1,0,0:0:0:0:
320,192,95334,1,0,0:0:0:0:
64,192,95417,1,0,0:0:0:0:
448,192,95417,1,0,0:0:0:0:
192,192,95501,1,0,0:0:0:0:
320,192,95584,1,0,0:0:0:0:
192,192,95667,1,0,0:0:0:0:
64,192,95751,1,0,0:0:0:0:
448,192,95751,1,0,0:0:0:0:
192,192,96084,1,0,0:0:0:0:
320,192,96084,1,0,0:0:0:0:
448,192,96251,1,0,0:0:0:0:
64,192,96334,1,0,0:0:0:0:
320,192,96417,1,0,0:0:0:0:
192,192,96417,1,0,0:0:0:0:
448,192,96584,1,0,0:0:0:0:
192,192,96751,1,0,0:0:0:0:
320,192,96751,1,0,0:0:0:0:
64,192,96917,1,0,0:0:0:0:
320,192,97084,1,0,0:0:0:0:
448,192,97084,1,0,0:0:0:0:
192,192,97334,1,0,0:0:0:0:
320,192,97334,1,0,0:0:0:0:
64,192,97584,1,0,0:0:0:0:
192,192,97584,1,0,0:0:0:0:
192,192,97834,1,0,0:0:0:0:
320,192,97834,1,0,0:0:0:0:
320,192,98084,1,0,0:0:0:0:
448,192,98084,1,0,0:0:0:0:
192,192,98167,1,0,0:0:0:0:
64,192,98251,1,0,0:0:0:0:
192,192,98334,1,0,0:0:0:0:
448,192,98417,1,0,0:0:0:0:
320,192,98417,1,0,0:0:0:0:
64,192,98501,1,0,0:0:0:0:
448,192,98584,1,0,0:0:0:0:
64,192,98667,1,0,0:0:0:0:
320,192,98751,1,0,0:0:0:0:
192,192,98834,1,0,0:0:0:0:
320,192,98917,1,0,0:0:0:0:
192,192,99001,1,0,0:0:0:0:
448,192,99084,1,0,0:0:0:0:
64,192,99167,1,0,0:0:0:0:
448,192,99251,1,0,0:0:0:0:
64,192,99334,1,0,0:0:0:0:
448,192,99417,1,0,0:0:0:0:
64,192,99751,1,0,0:0:0:0:
192,192,99751,1,0,0:0:0:0:
320,192,99834,1,0,0:0:0:0:
192,192,99917,1,0,0:0:0:0:
320,192,100001,1,0,0:0:0:0:
64,192,100084,1,0,0:0:0:0:
448,192,100167,1,0,0:0:0:0:
64,192,100251,1,0,0:0:0:0:
448,192,100334,1,0,0:0:0:0:
192,192,100417,1,0,0:0:0:0:
320,192,100501,1,0,0:0:0:0:
192,192,100584,1,0,0:0:0:0:
320,192,100667,1,0,0:0:0:0:
192,192,100751,1,0,0:0:0:0:
64,192,101084,1,0,0:0:0:0:
448,192,101084,1,0,0:0:0:0:
320,192,101167,1,0,0:0:0:0:
192,192,101251,1,0,0:0:0:0:
64,192,101251,1,0,0:0:0:0:
320,192,101334,1,0,0:0:0:0:
448,192,101417,1,0,0:0:0:0:
64,192,101417,1,0,0:0:0:0:
64,192,101751,1,0,0:0:0:0:
448,192,101751,1,0,0:0:0:0:
192,192,101834,1,0,0:0:0:0:
320,192,101917,1,0,0:0:0:0:
448,192,101917,1,0,0:0:0:0:
192,192,102001,1,0,0:0:0:0:
64,192,102084,1,0,0:0:0:0:
448,192,102084,1,0,0:0:0:0:
64,192,102417,1,0,0:0:0:0:
448,192,102417,1,0,0:0:0:0:
192,192,102667,1,0,0:0:0:0:
320,192,102667,1,0,0:0:0:0:
64,192,102917,1,0,0:0:0:0:
448,192,102917,1,0,0:0:0:0:
64,192,103084,1,0,0:0:0:0:
320,192,103084,1,0,0:0:0:0:
192,192,103251,1,0,0:0:0:0:
64,192,103251,1,0,0:0:0:0:
320,192,103417,1,0,0:0:0:0:
448,192,103417,1,0,0:0:0:0:
64,192,103501,1,0,0:0:0:0:
192,192,103584,1,0,0:0:0:0:
320,192,103584,1,0,0:0:0:0:
448,192,103667,1,0,0:0:0:0:
192,192,103751,1,0,0:0:0:0:
64,192,103751,1,0,0:0:0:0:
64,192,103917,1,0,0:0:0:0:
192,192,104084,1,0,0:0:0:0:
320,192,104084,1,0,0:0:0:0:
192,192,104251,1,0,0:0:0:0:
448,192,104417,1,0,0:0:0:0:
320,192,104417,1,0,0:0:0:0:
320,192,104584,1,0,0:0:0:0:
448,192,104751,1,0,0:0:0:0:
64,192,104751,1,0,0:0:0:0:
448,192,104917,1,0,0:0:0:0:
64,192,105084,1,0,0:0:0:0:
192,192,105084,1,0,0:0:0:0:
320,192,105167,1,0,0:0:0:0:
64,192,105251,1,0,0:0:0:0:
192,192,105251,1,0,0:0:0:0:
448,192,105334,1,0,0:0:0:0:
192,192,105417,1,0,0:0:0:0:
320,192,105417,1,0,0:0:0:0:
64,192,105501,1,0,0:0:0:0:
320,192,105584,1,0,0:0:0:0:
192,192,105584,1,0,0:0:0:0:
64,192,105667,1,0,0:0:0:0:
320,192,105751,1,0,0:0:0:0:
448,192,105751,1,0,0:0:0:0:
192,192,105834,1,0,0:0:0:0:
320,192,105917,1,0,0:0:0:0:
448,192,105917,1,0,0:0:0:0:
64,192,106001,1,0,0:0:0:0:
192,192,106084,1,0,0:0:0:0:
320,192,106084,1,0,0:0:0:0:
448,192,106167,1,0,0:0:0:0:
64,192,106251,1,0,0:0:0:0:
192,192,106251,1,0,0:0:0:0:
320,192,106334,1,0,0:0:0:0:
448,192,106417,1,0,0:0:0:0:
64,192,106417,1,0,0:0:0:0:
192,192,106751,1,0,0:0:0:0:
320,192,106751,1,0,0:0:0:0:
192,192,107251,1,0,0:0:0:0:
320,192,107251,1,0,0:0:0:0:
64,192,107584,128,0,110417:0:0:0:0:
448,192,107584,128,0,110417:0:0:0:0:
320,192,107584,128,0,110417:0:0:0:0:
