osu file format v14

[General]
AudioFilename: audio.mp3
AudioLeadIn: 0
PreviewTime: 1114
Countdown: 0
SampleSet: Soft
StackLeniency: 0.7
Mode: 3
LetterboxInBreaks: 0
SpecialStyle: 0
WidescreenStoryboard: 1

[Editor]
Bookmarks: 35394
DistanceSpacing: 0.8
BeatDivisor: 4
GridSize: 8
TimelineZoom: 2.700003

[Metadata]
Title:Opening
TitleUnicode:Opening
Artist:DJ Genki
ArtistUnicode:DJ Genki
Creator:riunosk
Version:Normal
Source:
Tags:
BeatmapID:1394699
BeatmapSetID:657615

[Difficulty]
HPDrainRate:7.5
CircleSize:4
OverallDifficulty:7.5
ApproachRate:5
SliderMultiplier:1.4
SliderTickRate:1

[Events]
//Background and Video events
0,0,"candy star.jpg",0,0
//Break Periods
//Storyboard Layer 0 (Background)
//Storyboard Layer 1 (Fail)
//Storyboard Layer 2 (Pass)
//Storyboard Layer 3 (Foreground)
//Storyboard Sound Samples

[TimingPoints]
100,352.941176470588,4,2,0,50,1,0
24099,-100,4,2,0,50,0,1
50923,-100,4,2,0,50,0,0

[HitObjects]
64,192,1158,5,0,0:0:0:0:
192,192,1335,1,0,0:0:0:0:
448,192,1511,1,0,0:0:0:0:
320,192,1864,1,0,0:0:0:0:
64,192,2217,1,0,0:0:0:0:
448,192,2394,1,0,0:0:0:0:
320,192,2747,1,0,0:0:0:0:
192,192,3099,1,0,0:0:0:0:
64,192,3452,1,0,0:0:0:0:
192,192,3629,1,0,0:0:0:0:
64,192,3982,1,0,0:0:0:0:
320,192,4158,1,0,0:0:0:0:
448,192,4335,1,0,0:0:0:0:
320,192,4688,1,0,0:0:0:0:
192,192,5041,1,0,0:0:0:0:
448,192,5217,1,0,0:0:0:0:
320,192,5570,1,0,0:0:0:0:
320,192,5923,1,0,0:0:0:0:
320,192,6276,1,0,0:0:0:0:
64,192,6629,1,0,0:0:0:0:
192,192,6717,1,0,0:0:0:0:
320,192,6805,1,0,0:0:0:0:
448,192,6894,1,0,0:0:0:0:
64,192,6982,1,0,0:0:0:0:
192,192,7070,1,0,0:0:0:0:
448,192,7158,1,0,0:0:0:0:
320,192,7511,1,0,0:0:0:0:
192,192,7864,1,0,0:0:0:0:
448,192,8041,1,0,0:0:0:0:
320,192,8394,1,0,0:0:0:0:
192,192,8747,1,0,0:0:0:0:
64,192,9099,1,0,0:0:0:0:
192,192,9276,1,0,0:0:0:0:
192,192,9629,1,0,0:0:0:0:
64,192,9805,1,0,0:0:0:0:
192,192,9982,1,0,0:0:0:0:
448,192,10335,1,0,0:0:0:0:
320,192,10688,1,0,0:0:0:0:
192,192,10864,1,0,0:0:0:0:
64,192,11217,1,0,0:0:0:0:
64,192,11570,1,0,0:0:0:0:
448,192,11747,128,0,12805:0:0:0:0:
64,192,11923,1,0,0:0:0:0:
64,192,12276,1,0,0:0:0:0:
192,192,12452,1,0,0:0:0:0:
64,192,12629,1,0,0:0:0:0:
320,192,12805,1,0,0:0:0:0:
192,192,12982,1,0,0:0:0:0:
64,192,13158,1,0,0:0:0:0:
320,192,13335,1,0,0:0:0:0:
448,192,13511,1,0,0:0:0:0:
192,192,13688,1,0,0:0:0:0:
448,192,13776,1,0,0:0:0:0:
192,192,13952,1,0,0:0:0:0:
448,192,14041,1,0,0:0:0:0:
64,192,14217,1,0,0:0:0:0:
192,192,14394,1,0,0:0:0:0:
192,192,14570,1,0,0:0:0:0:
448,192,14923,1,0,0:0:0:0:
320,192,15099,1,0,0:0:0:0:
192,192,15188,1,0,0:0:0:0:
320,192,15364,1,0,0:0:0:0:
192,192,15452,1,0,0:0:0:0:
64,192,15805,1,0,0:0:0:0:
64,192,15982,1,0,0:0:0:0:
448,192,16335,1,0,0:0:0:0:
192,192,16511,1,0,0:0:0:0:
320,192,16599,1,0,0:0:0:0:
192,192,16776,1,0,0:0:0:0:
320,192,16864,1,0,0:0:0:0:
192,192,17217,1,0,0:0:0:0:
192,192,17394,1,0,0:0:0:0:
64,192,17747,1,0,0:0:0:0:
448,192,17923,1,0,0:0:0:0:
192,192,18011,1,0,0:0:0:0:
448,192,18188,1,0,0:0:0:0:
192,192,18276,1,0,0:0:0:0:
320,192,18629,1,0,0:0:0:0:
320,192,18805,1,0,0:0:0:0:
64,192,19158,1,0,0:0:0:0:
192,192,19335,1,0,0:0:0:0:
448,192,19423,1,0,0:0:0:0:
192,192,19599,1,0,0:0:0:0:
448,192,19688,1,0,0:0:0:0:
320,192,20041,1,0,0:0:0:0:
320,192,20217,1,0,0:0:0:0:
448,192,20570,1,0,0:0:0:0:
192,192,20747,1,0,0:0:0:0:
64,192,20835,1,0,0:0:0:0:
192,192,21011,1,0,0:0:0:0:
64,192,21099,1,0,0:0:0:0:
320,192,21452,1,0,0:0:0:0:
320,192,21629,1,0,0:0:0:0:
64,192,21982,1,0,0:0:0:0:
192,192,22158,1,0,0:0:0:0:
320,192,22247,1,0,0:0:0:0:
192,192,22423,1,0,0:0:0:0:
320,192,22511,1,0,0:0:0:0:
448,192,22864,1,0,0:0:0:0:
448,192,23041,1,0,0:0:0:0:
320,192,23394,1,0,0:0:0:0:
192,192,23394,1,0,0:0:0:0:
64,192,23570,128,0,23747:0:0:0:0:
192,192,23747,128,0,23923:0:0:0:0:
320,192,23923,128,0,24099:0:0:0:0:
448,192,24099,1,0,0:0:0:0:
64,192,24099,1,0,0:0:0:0:
192,192,24452,1,0,0:0:0:0:
320,192,24452,1,0,0:0:0:0:
64,192,24805,1,0,0:0:0:0:
320,192,24982,1,0,0:0:0:0:
192,192,25158,1,0,0:0:0:0:
448,192,25158,1,0,0:0:0:0:
64,192,25335,1,0,0:0:0:0:
320,192,25688,1,0,0:0:0:0:
448,192,25864,1,0,0:0:0:0:
64,192,25864,1,0,0:0:0:0:
192,192,26041,1,0,0:0:0:0:
320,192,26217,1,0,0:0:0:0:
64,192,26570,1,0,0:0:0:0:
192,192,26570,1,0,0:0:0:0:
320,192,26747,1,0,0:0:0:0:
448,192,26923,1,0,0:0:0:0:
320,192,27276,1,0,0:0:0:0:
192,192,27276,1,0,0:0:0:0:
64,192,27629,1,0,0:0:0:0:
320,192,27805,1,0,0:0:0:0:
192,192,27982,1,0,0:0:0:0:
448,192,27982,1,0,0:0:0:0:
320,192,28158,1,0,0:0:0:0:
320,192,28511,1,0,0:0:0:0:
192,192,28688,1,0,0:0:0:0:
448,192,28688,1,0,0:0:0:0:
320,192,28864,1,0,0:0:0:0:
192,192,29217,1,0,0:0:0:0:
64,192,29305,1,0,0:0:0:0:
320,192,29394,1,0,0:0:0:0:
192,192,29482,1,0,0:0:0:0:
320,192,29570,1,0,0:0:0:0:
448,192,29658,1,0,0:0:0:0:
192,192,29747,1,0,0:0:0:0:
64,192,29747,1,0,0:0:0:0:
320,192,30099,1,0,0:0:0:0:
448,192,30099,1,0,0:0:0:0:
64,192,30452,1,0,0:0:0:0:
448,192,30629,1,0,0:0:0:0:
320,192,30805,1,0,0:0:0:0:
192,192,30805,1,0,0:0:0:0:
64,192,30982,1,0,0:0:0:0:
192,192,31335,1,0,0:0:0:0:
64,192,31511,1,0,0:0:0:0:
448,192,31511,1,0,0:0:0:0:
320,192,31688,1,0,0:0:0:0:
192,192,31864,1,0,0:0:0:0:
64,192,32217,1,0,0:0:0:0:
448,192,32217,1,0,0:0:0:0:
192,192,32394,1,0,0:0:0:0:
320,192,32570,1,0,0:0:0:0:
448,192,32923,1,0,0:0:0:0:
64,192,32923,1,0,0:0:0:0:
320,192,33276,1,0,0:0:0:0:
192,192,33452,1,0,0:0:0:0:
320,192,33629,1,0,0:0:0:0:
448,192,33629,1,0,0:0:0:0:
64,192,33805,1,0,0:0:0:0:
64,192,34158,1,0,0:0:0:0:
320,192,34335,1,0,0:0:0:0:
448,192,34335,1,0,0:0:0:0:
64,192,34511,1,0,0:0:0:0:
64,192,34864,1,0,0:0:0:0:
320,192,35041,1,0,0:0:0:0:
448,192,35041,1,0,0:0:0:0:
192,192,35217,1,0,0:0:0:0:
64,192,35394,1,0,0:0:0:0:
448,192,35394,1,0,0:0:0:0:
320,192,35747,1,0,0:0:0:0:
448,192,35747,1,0,0:0:0:0:
64,192,36099,1,0,0:0:0:0:
192,192,36099,1,0,0:0:0:0:
320,192,36276,1,0,0:0:0:0:
448,192,36452,1,0,0:0:0:0:
64,192,36452,1,0,0:0:0:0:
192,192,36629,1,0,0:0:0:0:
320,192,36805,1,0,0:0:0:0:
448,192,36805,1,0,0:0:0:0:
64,192,36982,1,0,0:0:0:0:
192,192,37158,1,0,0:0:0:0:
320,192,37158,1,0,0:0:0:0:
448,192,37335,1,0,0:0:0:0:
320,192,37511,1,0,0:0:0:0:
64,192,37511,1,0,0:0:0:0:
448,192,37864,1,0,0:0:0:0:
192,192,37864,1,0,0:0:0:0:
64,192,38041,1,0,0:0:0:0:
448,192,38217,1,0,0:0:0:0:
320,192,38217,1,0,0:0:0:0:
64,192,38570,1,0,0:0:0:0:
448,192,38570,1,0,0:0:0:0:
192,192,38923,1,0,0:0:0:0:
320,192,38923,1,0,0:0:0:0:
64,192,39099,1,0,0:0:0:0:
320,192,39276,1,0,0:0:0:0:
448,192,39276,1,0,0:0:0:0:
192,192,39452,1,0,0:0:0:0:
320,192,39629,1,0,0:0:0:0:
448,192,39629,1,0,0:0:0:0:
192,192,39805,1,0,0:0:0:0:
320,192,39982,1,0,0:0:0:0:
448,192,39982,1,0,0:0:0:0:
64,192,40158,1,0,0:0:0:0:
320,192,40335,1,0,0:0:0:0:
192,192,40335,1,0,0:0:0:0:
448,192,40688,1,0,0:0:0:0:
64,192,40688,1,0,0:0:0:0:
192,192,40864,1,0,0:0:0:0:
320,192,40864,1,0,0:0:0:0:
448,192,41041,1,0,0:0:0:0:
64,192,41041,1,0,0:0:0:0:
448,192,41217,1,0,0:0:0:0:
64,192,41394,1,0,0:0:0:0:
64,192,41570,1,0,0:0:0:0:
320,192,41747,1,0,0:0:0:0:
320,192,41923,1,0,0:0:0:0:
192,192,42099,1,0,0:0:0:0:
192,192,42276,1,0,0:0:0:0:
320,192,42452,1,0,0:0:0:0:
448,192,42452,1,0,0:0:0:0:
320,192,42629,1,0,0:0:0:0:
192,192,42805,1,0,0:0:0:0:
192,192,42982,1,0,0:0:0:0:
448,192,43158,1,0,0:0:0:0:
448,192,43335,1,0,0:0:0:0:
64,192,43511,1,0,0:0:0:0:
64,192,43688,1,0,0:0:0:0:
320,192,43864,1,0,0:0:0:0:
448,192,43864,1,0,0:0:0:0:
192,192,44041,1,0,0:0:0:0:
64,192,44041,1,0,0:0:0:0:
320,192,44217,1,0,0:0:0:0:
448,192,44217,1,0,0:0:0:0:
192,192,44394,1,0,0:0:0:0:
64,192,44394,1,0,0:0:0:0:
320,192,44570,1,0,0:0:0:0:
448,192,44570,1,0,0:0:0:0:
192,192,44747,1,0,0:0:0:0:
64,192,44747,1,0,0:0:0:0:
320,192,44923,1,0,0:0:0:0:
448,192,44923,1,0,0:0:0:0:
192,192,45099,1,0,0:0:0:0:
448,192,45276,1,0,0:0:0:0:
64,192,45276,1,0,0:0:0:0:
192,192,45452,1,0,0:0:0:0:
320,192,45452,1,0,0:0:0:0:
448,192,45629,1,0,0:0:0:0:
64,192,45629,1,0,0:0:0:0:
192,192,45805,1,0,0:0:0:0:
320,192,45805,1,0,0:0:0:0:
448,192,45982,1,0,0:0:0:0:
64,192,45982,1,0,0:0:0:0:
192,192,46158,1,0,0:0:0:0:
320,192,46158,1,0,0:0:0:0:
448,192,46335,1,0,0:0:0:0:
64,192,46335,1,0,0:0:0:0:
192,192,46511,1,0,0:0:0:0:
320,192,46688,1,0,0:0:0:0:
448,192,46688,1,0,0:0:0:0:
320,192,46864,1,0,0:0:0:0:
64,192,47041,1,0,0:0:0:0:
192,192,47041,1,0,0:0:0:0:
192,192,47217,1,0,0:0:0:0:
448,192,47394,1,0,0:0:0:0:
320,192,47570,1,0,0:0:0:0:
192,192,47747,1,0,0:0:0:0:
448,192,47923,1,0,0:0:0:0:
320,192,47923,1,0,0:0:0:0:
320,192,48276,1,0,0:0:0:0:
448,192,48276,1,0,0:0:0:0:
320,192,48629,1,0,0:0:0:0:
192,192,48629,1,0,0:0:0:0:
192,192,49158,128,0,50923:0:0:0:0:
64,192,49158,128,0,51629:0:0:0:0:
