osu file format v14

[General]
AudioFilename: audio.mp3
AudioLeadIn: 0
PreviewTime: 23950
Countdown: 0
SampleSet: Soft
StackLeniency: 0.4
Mode: 0
LetterboxInBreaks: 0
WidescreenStoryboard: 1

[Editor]
Bookmarks: 12678,23972,35266,40913,46560,57854,69148
DistanceSpacing: 1.4
BeatDivisor: 4
GridSize: 16
TimelineZoom: 1

[Metadata]
Title:Opening
TitleUnicode:Opening
Artist:DJ Genki
ArtistUnicode:DJ Genki
Creator:Chaoslitz
Version:kitty's Insane
Source:
Tags:gram Starry Orange electronic instrumental featured artist fa mappers' guild mg mpg AirinCat arronchu1207 Sanayui not your kitty not_your_kitty iRedi PAJWOJ Outright
BeatmapID:4510964
BeatmapSetID:2142885

[Difficulty]
HPDrainRate:5
CircleSize:4.5
OverallDifficulty:7.5
ApproachRate:8.5
SliderMultiplier:1.6
SliderTickRate:1

[Events]
//Background and Video events
0,0,"bg4.jpg",0,0
//Break Periods
//Storyboard Layer 0 (Background)
//Storyboard Layer 1 (Fail)
//Storyboard Layer 2 (Pass)
//Storyboard Layer 3 (Foreground)
//Storyboard Layer 4 (Overlay)
//Storyboard Sound Samples

[TimingPoints]
1384,352.941176470588,4,2,1,50,1,0
12678,-125,4,2,1,60,0,0
17795,-125,4,2,1,60,0,0
22560,-166.666666666667,4,2,5,75,0,0
22736,-166.666666666667,4,2,1,75,0,0
23619,-100,4,2,5,75,0,0
23972,-74.0740740740741,4,2,2,80,0,0
29354,-74.0740740740741,4,2,2,80,0,0
29442,-74.0740740740741,4,2,2,80,0,0
40648,-74.0740740740741,4,2,2,80,0,0
40736,-74.0740740740741,4,2,2,80,0,0
40913,-74.0740740740741,4,2,3,80,0,0
46560,-68.9655172413793,4,2,2,80,0,0
57854,-64.5161290322581,4,2,2,80,0,0
63501,-64.5161290322581,4,2,3,80,0,0
64119,-64.5161290322581,4,2,2,80,0,0
64207,-64.5161290322581,4,2,3,80,0,0
65531,-64.5161290322581,4,2,2,80,0,0
65619,-64.5161290322581,4,2,3,80,0,0
68266,-64.5161290322581,4,2,5,80,0,0
68883,-64.5161290322581,4,2,3,80,0,0
68972,-64.5161290322581,4,2,5,80,0,0
69060,-64.5161290322581,4,2,3,80,0,0
69148,-333.333333333333,4,2,5,80,0,0
69325,-333.333333333333,4,2,1,60,0,0
70560,-250,4,2,1,60,0,0
71619,-166.666666666667,4,2,10,60,0,0

[Colours]
Combo1 : 70,224,160
Combo2 : 241,70,123
Combo3 : 41,178,246
Combo4 : 253,120,45

[HitObjects]
512,336,12678,6,0,L|416:324,1,96,2|0,0:0|3:0,0:0:0:0:
384,310,13031,1,10,0:0:0:0:
338,363,13207,2,0,P|290:357|252:271,1,128,2|2,3:2|3:2,0:0:0:0:
292,237,13736,2,0,P|305:223|295:245,1,64,10|2,0:0|3:2,0:0:0:0:
180,300,14089,6,0,L|116:307,2,64,2|2|10,0:0|3:2|0:0,0:0:0:0:
210,235,14619,2,0,P|220:185|212:121,1,96,2|0,3:2|3:0,0:0:0:0:
194,113,14972,1,2,3:2:0:0:
227,51,15148,2,0,P|235:36|218:50,1,64,10|2,0:0|3:2,0:0:0:0:
332,120,15501,6,0,L|443:133,1,96,2|0,0:0|3:0,0:0:0:0:
462,128,15854,1,10,0:0:0:0:
487,193,16031,2,0,B|469:206|469:206|358:193,1,128,2|2,3:2|3:2,0:0:0:0:
304,231,16560,2,0,P|287:234|310:239,1,64,10|2,0:0|3:2,0:0:0:0:
397,348,16913,6,0,L|333:355,1,64,2|2,0:0|3:2,0:0:0:0:
269,326,17266,1,10,0:0:0:0:
212,367,17442,2,0,L|100:353,1,96,2|0,3:2|3:0,0:0:0:0:
83,367,17795,1,2,3:2:0:0:
18,324,17972,2,0,L|10:260,1,64,10|2,0:0|3:2,0:0:0:0:
88,143,18325,5,2,0:0:0:0:
88,143,18678,1,10,0:0:0:0:
153,169,18854,2,0,P|212:129|204:65,1,128,2|2,3:2|3:2,0:0:0:0:
257,24,19383,1,8,0:0:0:0:
370,96,19560,6,0,L|352:238,1,128,2|2,3:2|3:2,0:0:0:0:
393,281,20089,1,10,0:0:0:0:
463,275,20266,2,0,L|478:147,1,128,2|2,3:2|3:2,0:0:0:0:
486,77,20795,2,0,P|473:58|488:76,1,64,10|2,0:0|3:2,0:0:0:0:
366,23,21148,5,2,0:0:0:0:
366,23,21501,1,10,0:0:0:0:
310,66,21678,1,2,3:2:0:0:
310,66,22031,2,0,L|246:58,2,64,2|10|2,3:2|0:0|3:2,0:0:0:0:
191,148,22560,6,0,B|127:155|127:155|113:173|113:173|99:191|99:191|4:203,1,191.999994140625,12|2,0:1|0:1,0:0:0:0:
17,201,23619,2,0,P|30:180|24:210,1,80,10|2,0:0|0:0,0:0:0:0:
159,360,23972,6,0,L|47:346,1,108.000000411987,14|0,0:1|0:0,0:0:0:0:
201,258,24325,1,10,0:0:0:0:
338,342,24501,2,0,L|226:328,1,108.000000411987,2|8,0:0|0:1,0:0:0:0:
401,301,24854,2,0,L|508:314,2,108.000000411987,2|10|2,0:0|0:0|0:0,0:0:0:0:
292,139,25383,5,10,0:1:0:0:
409,11,25560,1,2,0:0:0:0:
492,136,25736,1,10,0:0:0:0:
336,59,25913,2,0,L|228:72,1,108.000000411987,2|8,0:0|0:1,0:0:0:0:
59,37,26266,2,0,L|166:23,2,108.000000411987,2|10|2,0:0|0:0|0:0,0:0:0:0:
18,227,26795,6,0,L|5:119,1,108.000000411987,10|0,0:1|0:0,0:0:0:0:
173,159,27148,1,10,0:0:0:0:
114,310,27325,2,0,L|101:202,1,108.000000411987,2|8,0:0|0:1,0:0:0:0:
260,269,27678,2,0,L|273:377,2,108.000000411987,2|10|2,0:0|0:0|0:0,0:0:0:0:
411,146,28207,5,10,0:1:0:0:
505,290,28383,1,2,0:0:0:0:
354,271,28560,1,10,0:0:0:0:
485,128,28736,2,0,L|498:20,1,108.000000411987,2|8,0:0|0:1,0:0:0:0:
411,146,29089,1,2,0:0:0:0:
243,101,29266,2,0,L|252:21,1,54.0000002059937,10|0,0:0|0:0,0:0:0:0:
316,12,29442,1,2,0:0:0:0:
157,125,29619,6,0,L|49:112,1,108.000000411987,10|0,0:1|0:0,0:0:0:0:
201,195,29972,1,10,0:0:0:0:
120,335,30148,2,0,L|12:322,1,108.000000411987,2|8,0:0|0:1,0:0:0:0:
165,267,30501,2,0,L|57:254,1,108.000000411987,2|8,0:0|0:0,0:0:0:0:
216,367,30854,6,0,L|324:354,1,108.000000411987,2|8,0:0|0:1,0:0:0:0:
441,227,31207,1,2,0:0:0:0:
507,362,31383,1,10,0:0:0:0:
358,273,31560,2,0,L|250:286,1,108.000000411987,2|8,0:0|0:1,0:0:0:0:
116,175,31913,2,0,L|8:188,2,108.000000411987,2|10|2,0:0|0:0|0:0,0:0:0:0:
227,14,32442,6,0,L|214:122,1,108.000000411987,10|0,0:1|0:0,0:0:0:0:
369,197,32795,1,10,0:0:0:0:
303,48,32972,2,0,L|290:156,1,108.000000411987,2|8,0:0|0:1,0:0:0:0:
451,138,33325,1,2,0:0:0:0:
308,235,33501,2,0,L|295:343,1,108.000000411987,10|2,0:0|0:0,0:0:0:0:
156,204,33854,5,8,0:1:0:0:
60,348,34031,1,2,0:0:0:0:
206,311,34207,1,10,0:0:0:0:
92,248,34383,1,2,0:0:0:0:
192,134,34560,1,10,0:1:0:0:
38,55,34736,2,0,L|43:102,2,36.0000001373291,2|2|2,0:0|0:0|0:0,0:0:0:0:
52,38,34913,2,0,P|60:22|54:47,1,108.000000411987,10|2,0:0|0:0,0:0:0:0:
252,88,35266,6,0,L|359:74,1,108.000000411987,14|0,0:1|0:0,0:0:0:0:
498,177,35619,1,10,0:0:0:0:
339,147,35795,2,0,L|446:133,1,108.000000411987,2|8,0:0|0:1,0:0:0:0:
337,268,36148,2,0,L|444:254,2,108.000000411987,2|10|2,0:0|0:0|0:0,0:0:0:0:
170,371,36678,5,10,0:1:0:0:
89,218,36854,1,2,0:0:0:0:
5,344,37031,1,10,0:0:0:0:
170,297,37207,2,0,L|278:310,1,108.000000411987,2|8,0:0|0:1,0:0:0:0:
438,373,37560,2,0,L|330:360,2,108.000000411987,2|10|2,0:0|0:0|0:0,0:0:0:0:
502,188,38089,6,0,L|489:296,1,108.000000411987,10|0,0:1|0:0,0:0:0:0:
448,126,38442,1,10,0:0:0:0:
330,238,38619,2,0,L|343:130,1,108.000000411987,2|8,0:0|0:1,0:0:0:0:
204,26,38972,2,0,L|191:134,2,108.000000411987,2|10|2,0:0|0:0|0:0,0:0:0:0:
32,119,39501,5,10,0:1:0:0:
179,210,39678,1,2,0:0:0:0:
63,307,39854,1,10,0:0:0:0:
101,137,40031,2,0,L|114:245,1,108.000000411987,2|8,0:0|0:1,0:0:0:0:
216,355,40383,1,2,0:0:0:0:
366,268,40560,2,0,L|372:321,1,54.0000002059937,10|0,0:0|0:0,0:0:0:0:
316,371,40736,1,2,0:0:0:0:
491,286,40913,5,10,0:1:0:0:
344,195,41089,1,0,3:0:0:0:
457,94,41266,1,10,0:0:0:0:
426,219,41442,1,2,3:2:0:0:
274,134,41619,2,0,L|210:141,3,54.0000002059937,8|8|10|8,0:1|0:3|0:3|0:3,0:0:0:0:
161,179,41972,2,0,L|97:186,3,54.0000002059937,8|8|10|8,0:0|0:3|0:3|0:3,0:0:0:0:
39,150,42325,5,8,0:1:0:0:
173,257,42501,1,2,3:2:0:0:
65,364,42678,1,10,0:0:0:0:
46,236,42854,1,2,3:2:0:0:
190,331,43031,2,0,L|253:338,3,54.0000002059937,8|8|10|8,0:1|0:3|0:3|0:3,0:0:0:0:
307,367,43383,2,0,L|370:374,3,54.0000002059937,10|8|2|8,0:0|0:3|3:0|0:3,0:0:0:0:
435,358,43736,6,0,L|442:294,3,54.0000002059937,10|0|0|0,0:1|0:0|3:0|0:0,0:0:0:0:
506,264,44089,1,10,0:0:0:0:
370,156,44266,2,0,L|363:209,1,54.0000002059937,2|0,3:0|0:0,0:0:0:0:
437,196,44442,1,8,0:1:0:0:
283,249,44619,2,0,L|289:195,1,54.0000002059937,2|8,3:0|0:3,0:0:0:0:
248,132,44795,1,10,0:0:0:0:
98,212,44972,1,2,3:0:0:0:
98,212,45060,1,8,0:3:0:0:
98,212,45148,6,0,L|84:100,2,108.000000411987,12|2|10,0:1|3:0|0:3,0:0:0:0:
10,336,45678,1,2,3:0:0:0:
125,277,45854,1,10,0:3:0:0:
266,331,46031,2,0,L|271:378,2,36.0000001373291,2|2|2,3:0|0:0|0:0,0:0:0:0:
290,315,46207,2,0,P|315:286|279:306,1,108.000000411987,10|2,0:0|3:0,0:0:0:0:
474,308,46560,6,0,P|412:284|422:204,1,116.000003540039,14|2,0:1|0:3,0:0:0:0:
485,90,46913,1,10,0:0:0:0:
485,90,47001,1,2,0:3:0:0:
485,90,47089,2,0,P|495:155|421:186,1,116.000003540039,2|8,0:0|0:1,0:0:0:0:
288,194,47442,2,0,P|339:152|403:200,2,116.000003540039,2|10|2,0:0|0:0|0:0,0:0:0:0:
186,365,47972,5,10,0:1:0:0:
17,323,48148,1,2,0:0:0:0:
148,248,48325,1,10,0:0:0:0:
43,193,48501,1,2,0:0:0:0:
43,193,48589,1,2,0:3:0:0:
43,193,48678,1,8,0:1:0:0:
116,118,48854,2,0,L|100:-9,2,116.000003540039,2|10|2,0:0|0:0|0:0,0:0:0:0:
297,39,49383,6,0,P|338:92|330:156,1,116.000003540039,10|2,0:1|0:3,0:0:0:0:
511,198,49736,1,10,0:0:0:0:
511,198,49825,1,2,0:3:0:0:
511,198,49913,2,0,P|443:207|392:168,1,116.000003540039,2|8,0:0|0:1,0:0:0:0:
273,299,50266,2,0,P|298:236|357:211,2,116.000003540039,2|10|2,0:0|0:0|0:0,0:0:0:0:
89,372,50795,5,10,0:1:0:0:
206,242,50972,1,2,0:0:0:0:
365,353,51148,1,10,0:0:0:0:
365,353,51236,1,2,0:3:0:0:
365,353,51325,2,0,L|480:367,1,116.000003540039,2|8,0:0|0:1,0:0:0:0:
415,215,51678,1,2,0:0:0:0:
415,215,51766,1,2,0:3:0:0:
415,215,51854,2,0,L|510:226,1,58.0000017700196,10|2,0:0|0:3,0:0:0:0:
500,292,52031,1,2,0:0:0:0:
314,225,52207,6,0,P|254:185|262:121,1,116.000003540039,10|2,0:1|0:3,0:0:0:0:
376,24,52560,1,10,0:0:0:0:
376,24,52648,1,2,0:3:0:0:
376,24,52736,2,0,P|371:95|312:120,1,116.000003540039,2|8,0:0|0:1,0:0:0:0:
168,80,53089,2,0,P|232:48|283:86,1,116.000003540039,2|8,0:0|0:0,0:0:0:0:
122,198,53442,6,0,L|7:212,1,116.000003540039,2|8,0:0|0:1,0:0:0:0:
175,256,53795,1,2,0:0:0:0:
53,363,53972,1,10,0:0:0:0:
53,363,54060,1,2,0:3:0:0:
53,363,54148,2,0,L|168:349,1,116.000003540039,2|8,0:0|0:1,0:0:0:0:
342,364,54501,2,0,L|457:350,2,116.000003540039,2|10|2,0:0|0:0|0:0,0:0:0:0:
362,166,55031,6,0,P|397:138|477:147,1,116.000003540039,10|2,0:1|0:3,0:0:0:0:
302,112,55383,1,10,0:0:0:0:
302,112,55472,1,2,0:3:0:0:
302,112,55560,2,0,P|260:95|228:21,1,116.000003540039,2|8,0:0|0:1,0:0:0:0:
287,198,55913,2,0,P|293:242|245:306,2,116.000003540039,2|10|2,0:0|0:0|0:0,0:0:0:0:
145,59,56442,5,8,0:1:0:0:
8,168,56619,1,2,0:0:0:0:
142,234,56795,1,10,0:0:0:0:
71,126,56972,1,2,0:0:0:0:
14,265,57148,1,10,0:1:0:0:
163,354,57325,2,0,L|115:359,2,38.6666678466797,2|2|2,0:0|0:0|0:0,0:0:0:0:
193,346,57501,2,0,P|218:314|209:357,1,116.000003540039,10|2,0:0|0:0,0:0:0:0:
409,360,57854,6,0,P|345:352|319:300,1,124.000000946045,14|2,1:0|0:3,0:0:0:0:
441,178,58207,1,10,1:2:0:0:
306,229,58383,1,2,0:0:0:0:
306,229,58472,1,2,0:3:0:0:
306,229,58560,1,8,1:0:0:0:
160,135,58736,2,0,L|32:150,2,124.000000946045,2|10|2,0:0|1:2|0:0,0:0:0:0:
324,21,59266,5,10,1:0:0:0:
472,110,59442,1,2,0:0:0:0:
328,151,59619,1,10,1:2:0:0:
415,251,59795,1,0,0:0:0:0:
415,251,59883,1,2,0:3:0:0:
415,251,59972,1,8,1:0:0:0:
362,334,60148,2,0,L|489:349,2,124.000000946045,2|10|2,0:0|1:2|0:0,0:0:0:0:
163,360,60678,6,0,P|226:352|252:300,1,124.000000946045,10|2,1:0|0:3,0:0:0:0:
144,166,61031,1,10,1:2:0:0:
37,269,61207,1,2,0:0:0:0:
37,269,61295,1,2,0:3:0:0:
37,269,61383,1,8,1:0:0:0:
204,222,61560,2,0,L|327:237,2,124.000000946045,2|10|2,0:0|1:2|0:0,0:0:0:0:
33,119,62089,5,10,1:0:0:0:
176,20,62266,1,2,0:0:0:0:
263,151,62442,1,10,1:2:0:0:
263,151,62531,1,2,0:3:0:0:
263,151,62619,2,0,L|386:135,1,124.000000946045,0|8,0:0|1:0,0:0:0:0:
358,313,62972,1,2,0:0:0:0:
358,313,63060,1,2,0:3:0:0:
358,313,63148,2,0,L|437:303,1,62.0000004730225,10|2,1:2|0:3,0:0:0:0:
474,253,63325,1,2,0:0:0:0:
297,366,63501,6,0,P|259:322|179:332,1,124.000000946045,10|0,1:0|3:0,0:0:0:0:
33,363,63854,1,10,1:2:0:0:
33,363,63942,1,0,0:0:0:0:
33,363,64031,2,0,P|89:352|120:278,1,124.000000946045,2|8,3:2|1:0,0:0:0:0:
46,152,64383,1,10,0:3:0:0:
46,152,64472,1,8,0:3:0:0:
46,152,64560,2,0,L|53:215,1,62.0000004730225,8|8,1:2|0:3,0:0:0:0:
134,227,64736,1,10,0:3:0:0:
134,227,64825,1,8,0:3:0:0:
134,227,64913,6,0,L|116:84,1,124.000000946045,8|2,1:0|3:2,0:0:0:0:
271,20,65266,1,10,1:2:0:0:
344,148,65442,1,2,3:2:0:0:
255,269,65619,1,8,1:0:0:0:
255,269,65707,1,8,0:3:0:0:
255,269,65795,2,0,L|267:173,1,62.0000004730225,10|8,0:3|0:3,0:0:0:0:
330,281,65972,2,0,L|342:185,1,62.0000004730225,10|8,1:2|0:3,0:0:0:0:
409,299,66148,1,10,0:3:0:0:
409,299,66236,1,8,0:3:0:0:
409,299,66325,6,0,L|426:156,1,124.000000946045,10|0,1:0|3:0,0:0:0:0:
475,122,66589,1,8,0:3:0:0:
475,122,66678,2,0,P|427:64|356:95,1,124.000000946045,10|2,1:2|3:0,0:0:0:0:
227,143,67031,1,8,1:0:0:0:
126,47,67207,1,2,3:0:0:0:
126,47,67295,1,8,0:3:0:0:
126,47,67383,1,10,1:2:0:0:
248,65,67560,1,2,3:0:0:0:
53,103,67736,6,0,L|72:261,1,124.000000946045,12|2,1:0|3:0,0:0:0:0:
149,351,68089,1,10,1:3:0:0:
307,265,68266,1,10,3:1:0:0:
307,265,68354,1,8,0:1:0:0:
307,265,68442,2,0,L|319:169,1,62.0000004730225,10|0,1:2|0:0,0:0:0:0:
388,278,68619,1,10,0:1:0:0:
388,278,68707,1,8,0:1:0:0:
388,278,68795,2,0,L|400:182,1,62.0000004730225,10|8,1:2|0:3,0:0:0:0:
463,291,68972,2,0,L|475:195,1,62.0000004730225,10|8,0:1|0:3,0:0:0:0:
511,354,69148,6,0,L|320:377,1,191.999994140625,12|0,0:1|0:0,0:0:0:0:
249,352,70736,2,0,P|213:369|244:332,1,128,2|2,0:0|0:0,0:0:0:0:
284,265,71619,2,0,L|276:201,1,47.9999985351563,10|2,1:2|0:0,0:0:0:0:
