osu file format v14

[General]
AudioFilename: audio.mp3
AudioLeadIn: 0
PreviewTime: 23950
Countdown: 0
SampleSet: Soft
StackLeniency: 0.4
Mode: 0
LetterboxInBreaks: 0
WidescreenStoryboard: 1

[Editor]
Bookmarks: 12678,22560,23972,29619,35266,40913,46560,52207,57854,63501,69148
DistanceSpacing: 3
BeatDivisor: 4
GridSize: 16
TimelineZoom: 1.8

[Metadata]
Title:Opening
TitleUnicode:Opening
Artist:DJ Genki
ArtistUnicode:DJ Genki
Creator:Chaoslitz
Version:iRedi's Expert
Source:
Tags:gram Starry Orange electronic instrumental featured artist fa mappers' guild mg mpg AirinCat arronchu1207 Sanayui not your kitty not_your_kitty iRedi PAJWOJ Outright
BeatmapID:4510963
BeatmapSetID:2142885

[Difficulty]
HPDrainRate:5.5
CircleSize:4.6
OverallDifficulty:8.4
ApproachRate:9.4
SliderMultiplier:1.7
SliderTickRate:1

[Events]
//Background and Video events
0,0,"bg4.jpg",0,0
//Break Periods
//Storyboard Layer 0 (Background)
//Storyboard Layer 1 (Fail)
//Storyboard Layer 2 (Pass)
//Storyboard Layer 3 (Foreground)
//Storyboard Layer 4 (Overlay)
//Storyboard Sound Samples

[TimingPoints]
1384,352.941176470588,4,2,1,50,1,0
1384,-133.333333333333,4,2,1,50,0,0
12678,-117.647058823529,4,2,1,60,0,0
17795,-117.647058823529,4,2,1,60,0,0
18325,-111.111111111111,4,2,1,60,0,0
22560,-111.111111111111,4,2,5,75,0,0
22604,-111.111111111111,4,2,5,75,0,0
22736,-111.111111111111,4,2,1,75,0,0
23619,-111.111111111111,4,2,5,75,0,0
23972,-50,4,2,2,80,0,0
25383,-58.8235294117647,4,2,2,80,0,0
25913,-50,4,2,2,80,0,0
28207,-58.8235294117647,4,2,2,80,0,0
28736,-50,4,2,2,80,0,0
31736,-58.8235294117647,4,2,2,80,0,0
32442,-50,4,2,2,80,0,0
36148,-58.8235294117647,4,2,2,80,0,0
36678,-50,4,2,2,80,0,0
37560,-58.8235294117647,4,2,2,80,0,0
38089,-50,4,2,2,80,0,0
38972,-58.8235294117647,4,2,2,80,0,0
39501,-50,4,2,2,80,0,0
40383,-58.8235294117647,4,2,2,80,0,0
40913,-50,4,2,3,80,0,0
43736,-58.8235294117647,4,2,3,80,0,0
46031,-50,4,2,3,80,0,0
46560,-50,4,2,2,80,0,0
46913,-58.8235294117647,4,2,2,80,0,0
47442,-50,4,2,2,80,0,0
47972,-58.8235294117647,4,2,2,80,0,0
48678,-50,4,2,2,80,0,0
49031,-58.8235294117647,4,2,2,80,0,0
49383,-50,4,2,2,80,0,0
49648,-58.8235294117647,4,2,2,80,0,0
50266,-50,4,2,2,80,0,0
50795,-58.8235294117647,4,2,2,80,0,0
51501,-50,4,2,2,80,0,0
54148,-58.8235294117647,4,2,2,80,0,0
54325,-50,4,2,2,80,0,0
55031,-50,4,2,2,80,0,0
57854,-50,4,2,2,80,0,1
58207,-58.8235294117647,4,2,2,80,0,1
58913,-50,4,2,2,80,0,1
59266,-45.4545454545455,4,2,2,80,0,1
59442,-55.5555555555556,4,2,2,80,0,1
59619,-71.4285714285714,4,2,2,80,0,1
59795,-100,4,2,2,80,0,1
59972,-166.666666666667,4,2,2,80,0,1
60148,-100,4,2,2,80,0,1
60325,-71.4285714285714,4,2,2,80,0,1
60501,-55.5555555555556,4,2,2,80,0,1
60678,-50,4,2,2,80,0,1
62089,-45.4545454545455,4,2,2,80,0,1
62265,-55.5555555555556,4,2,2,80,0,1
62442,-71.4285714285714,4,2,2,80,0,1
62618,-100,4,2,2,80,0,1
62795,-166.666666666667,4,2,2,80,0,1
62971,-100,4,2,2,80,0,1
63148,-71.4285714285714,4,2,2,80,0,1
63324,-55.5555555555556,4,2,2,80,0,1
63501,-250,4,2,3,80,0,1
64119,-250,4,2,2,80,0,1
64207,-250,4,2,3,80,0,1
64913,-250,4,2,3,80,0,1
65531,-250,4,2,2,80,0,1
65619,-50,4,2,3,80,0,1
67736,-71.4285714285714,4,2,3,80,0,1
68266,-58.8235294117647,4,2,5,80,0,1
68883,-58.8235294117647,4,2,3,80,0,1
68972,-58.8235294117647,4,2,5,80,0,1
69060,-58.8235294117647,4,2,3,80,0,1
69148,-58.8235294117647,4,2,5,80,0,0
69325,-58.8235294117647,4,2,1,60,0,0
71619,-58.8235294117647,4,2,10,60,0,0

[Colours]
Combo1 : 70,224,160
Combo2 : 241,70,123
Combo3 : 41,178,246
Combo4 : 253,120,45

[HitObjects]
0,0,1384,5,2,0:0:0:0:
32,32,1736,5,10,0:0:0:0:
64,0,1913,1,2,0:0:0:0:
96,32,2266,5,2,0:0:0:0:
128,0,2442,1,10,0:0:0:0:
160,32,2619,1,2,0:0:0:0:
192,0,2795,1,2,0:0:0:0:
224,31,2972,1,2,0:0:0:0:
256,0,3148,1,10,0:0:0:0:
288,32,3325,2,0,L|351:32,1,63.7500024318696,2|0,0:0|0:0,0:0:0:0:
384,0,3678,1,2,0:0:0:0:
416,32,3854,1,10,0:0:0:0:
448,0,4031,1,2,0:0:0:0:
512,96,4207,5,2,0:0:0:0:
480,128,4560,5,10,0:0:0:0:
448,96,4736,1,2,0:0:0:0:
416,128,5089,5,2,0:0:0:0:
384,96,5266,1,10,0:0:0:0:
352,128,5442,1,2,0:0:0:0:
320,96,5619,1,2,0:0:0:0:
288,128,5795,1,2,0:0:0:0:
256,96,5972,1,10,0:0:0:0:
224,128,6148,2,0,L|160:128,1,63.7500024318696,2|0,0:0|0:0,0:0:0:0:
128,96,6501,1,2,0:0:0:0:
96,128,6678,1,10,0:0:0:0:
64,96,6854,1,2,0:0:0:0:
0,192,7031,5,2,0:0:0:0:
32,224,7383,5,10,0:0:0:0:
64,192,7560,1,2,0:0:0:0:
128,192,7913,5,2,0:0:0:0:
192,192,8266,5,2,0:0:0:0:
224,224,8619,5,2,0:0:0:0:
256,192,8795,1,10,0:0:0:0:
288,224,8972,2,0,L|351:224,1,63.7500024318696,2|0,0:0|0:0,0:0:0:0:
384,192,9325,1,2,0:0:0:0:
416,224,9501,1,10,0:0:0:0:
448,192,9678,1,2,0:0:0:0:
512,288,9854,5,2,0:0:0:0:
480,320,10207,5,10,0:0:0:0:
448,288,10383,1,2,0:0:0:0:
416,320,10736,5,2,0:0:0:0:
384,288,10913,1,10,0:0:0:0:
352,320,11089,1,2,0:0:0:0:
320,288,11442,5,2,0:0:0:0:
288,320,11619,1,10,0:0:0:0:
256,288,11795,1,2,0:0:0:0:
224,320,11972,1,2,0:0:0:0:
192,288,12148,2,0,L|192:266,2,21.2500008106232,2|2|2,0:0|0:0|0:0,0:0:0:0:
160,320,12325,1,10,0:0:0:0:
128,288,12501,1,2,0:0:0:0:
50,364,12678,6,0,L|50:291,1,72.2500013780594,2|0,0:0|3:0,0:0:0:0:
50,291,12942,1,0,3:0:0:0:
50,291,13031,1,10,0:0:0:0:
72,214,13207,2,0,L|23:214,2,36.1250006890297,2|0|0,3:2|3:0|0:0,0:0:0:0:
125,156,13560,1,2,3:2:0:0:
125,156,13648,1,0,3:0:0:0:
125,156,13736,1,10,0:0:0:0:
69,90,13913,1,2,3:2:0:0:
120,29,14089,5,2,0:0:0:0:
179,94,14266,1,2,3:2:0:0:
179,94,14354,1,0,3:0:0:0:
179,94,14442,1,10,0:0:0:0:
256,113,14619,2,0,L|256:76,3,36.1250006890297,2|0|0|0,3:2|3:0|3:0|3:0,0:0:0:0:
261,43,14972,1,2,3:2:0:0:
261,43,15060,1,0,3:0:0:0:
261,43,15148,1,10,0:0:0:0:
333,94,15325,1,2,3:2:0:0:
392,29,15501,6,0,L|464:29,1,72.2500013780594,2|0,0:0|3:0,0:0:0:0:
465,29,15765,1,0,3:0:0:0:
465,29,15854,1,10,0:0:0:0:
432,101,16031,2,0,L|432:149,2,36.1250006890297,2|0|0,3:2|3:0|0:0,0:0:0:0:
512,123,16383,1,2,3:2:0:0:
512,123,16472,1,0,3:0:0:0:
512,123,16560,1,10,0:0:0:0:
483,197,16736,1,2,3:2:0:0:
381,197,16913,5,2,0:0:0:0:
439,263,17089,1,2,3:2:0:0:
439,263,17178,1,0,3:0:0:0:
439,263,17266,1,10,0:0:0:0:
380,316,17442,2,0,L|343:316,3,36.1250006890297,2|0|0|0,3:2|3:0|3:0|3:0,0:0:0:0:
310,322,17795,1,2,3:2:0:0:
310,322,17883,1,0,3:0:0:0:
310,322,17971,1,10,0:0:0:0:
256,381,18148,1,2,3:2:0:0:
192,314,18325,6,0,L|192:226,1,76.4999976654053,2|0,0:0|3:0,0:0:0:0:
192,237,18589,1,0,3:0:0:0:
192,237,18678,1,10,0:0:0:0:
109,276,18854,2,0,L|60:276,2,38.2499988327027,2|0|0,3:2|3:0|0:0,0:0:0:0:
96,192,19207,1,2,3:2:0:0:
96,192,19295,1,0,3:0:0:0:
96,192,19383,1,8,0:0:0:0:
148,116,19560,1,2,3:2:0:0:
96,40,19736,5,2,0:0:0:0:
49,121,19913,1,2,3:2:0:0:
49,121,20001,1,0,3:0:0:0:
49,121,20089,1,10,0:0:0:0:
96,192,20266,2,0,L|144:192,3,38.2499988327027,2|0|0|0,3:2|3:0|3:0|3:0,0:0:0:0:
187,195,20619,1,2,3:2:0:0:
187,195,20707,1,0,3:0:0:0:
187,195,20795,1,10,0:0:0:0:
255,133,20972,1,2,3:2:0:0:
325,195,21148,5,2,0:0:0:0:
258,288,21325,1,0,3:0:0:0:
258,288,21413,1,0,3:0:0:0:
258,288,21501,1,10,0:0:0:0:
141,332,21678,1,2,3:2:0:0:
141,332,21766,1,0,3:0:0:0:
141,332,21854,1,0,0:0:0:0:
371,332,22031,1,2,3:2:0:0:
371,332,22119,1,0,3:0:0:0:
371,332,22207,1,10,0:0:0:0:
256,384,22383,1,2,3:2:0:0:
255,133,22560,6,0,L|255:101,1,19.1249994163513,12|0,0:1|0:0,0:0:0:0:
273,75,23619,2,0,B|232:36|232:36|288:57,1,114.749996498108,10|0,0:0|0:0,0:0:0:0:
415,2,23972,6,0,P|335:36|352:125,1,170,14|0,0:1|0:0,0:0:0:0:
383,178,24236,1,0,0:0:0:0:
383,178,24325,2,0,B|420:194|420:194|400:141,1,85,10|0,0:0|0:0,0:0:0:0:
203,119,24501,6,0,B|133:137|133:137|111:124|111:124|41:143,1,170,2|8,0:0|0:1,0:0:0:0:
142,346,24854,6,0,B|108:314|108:314|109:275,1,85,2|0,0:0|0:0,0:0:0:0:
2,318,25031,2,0,B|45:304|45:304|79:325,1,85,10|0,0:0|0:0,0:0:0:0:
95,211,25207,2,0,B|85:255|85:255|50:274,1,85,2|0,0:0|0:0,0:0:0:0:
21,76,25383,6,0,L|133:106,1,72.2500013780594,10|0,0:1|0:0,0:0:0:0:
154,158,25560,1,2,0:0:0:0:
154,158,25648,1,0,0:0:0:0:
154,158,25736,2,0,L|236:179,1,72.2500013780594,10|0,0:0|0:0,0:0:0:0:
344,259,25913,6,0,P|409:216|370:125,1,170,2|8,0:0|0:1,0:0:0:0:
329,185,26178,1,0,0:0:0:0:
329,185,26266,2,0,B|300:148|300:148|305:104,1,85,2|0,0:0|0:0,0:0:0:0:
223,175,26442,2,0,B|240:131|240:131|281:113,1,85,10|0,0:0|0:0,0:0:0:0:
178,78,26619,2,0,B|224:71|224:71|260:97,1,85,2|0,0:0|0:0,0:0:0:0:
270,240,26795,6,0,B|236:363|236:363|215:293,1,170,10|0,0:1|0:0,0:0:0:0:
185,247,27060,1,0,0:0:0:0:
185,247,27148,2,0,B|131:230|131:230|175:277,1,85,10|0,0:0|0:0,0:0:0:0:
315,384,27325,6,0,B|383:328|383:328|479:340,1,170,2|8,0:0|0:1,0:0:0:0:
354,171,27678,6,0,B|329:206|329:206|340:163,1,85,2|0,0:0|0:0,0:0:0:0:
430,141,27854,2,0,B|472:145|472:145|430:157,1,85,10|0,0:0|0:0,0:0:0:0:
367,91,28031,2,0,B|349:51|349:51|380:82,1,85,2|0,0:0|0:0,0:0:0:0:
409,232,28207,6,0,L|390:301,1,72.2500013780594,10|0,0:1|0:0,0:0:0:0:
464,338,28383,1,2,0:0:0:0:
464,338,28472,1,0,0:0:0:0:
464,338,28560,2,0,L|482:268,1,72.2500013780594,10|0,0:0|0:0,0:0:0:0:
319,371,28736,6,0,P|291:295|210:287,1,170,2|8,0:0|0:1,0:0:0:0:
160,349,29001,1,0,0:0:0:0:
160,349,29089,6,0,B|112:343|112:343|95:293,1,85,2|0,0:0|0:0,0:0:0:0:
143,234,29266,2,0,B|137:282|137:282|87:299,1,85,10|0,0:0|0:0,0:0:0:0:
28,251,29442,2,0,B|76:257|76:257|93:307,1,85,2|0,0:0|0:0,0:0:0:0:
242,362,29619,6,0,P|264:272|285:197,1,170,10|0,0:1|0:0,0:0:0:0:
286,122,29883,1,0,0:0:0:0:
286,122,29972,2,0,P|247:117|220:153,1,85,10|0,0:0|0:0,0:0:0:0:
447,261,30148,6,0,B|490:152|490:152|432:110,1,170,2|8,0:0|0:1,0:0:0:0:
352,276,30413,5,0,0:0:0:0:
352,276,30501,2,0,B|424:367|424:367|490:338,1,170,2|8,0:0|0:0,0:0:0:0:
397,180,30766,5,0,0:0:0:0:
397,180,30854,2,0,B|297:206|297:206|273:248|273:248|173:275,1,255,2|0,0:0|0:0,0:0:0:0:
104,235,31207,6,0,B|114:191|114:191|157:202,1,85,2|0,0:0|0:0,0:0:0:0:
222,309,31383,2,0,B|211:265|211:265|168:276,1,85,10|0,0:0|0:0,0:0:0:0:
68,364,31560,2,0,B|78:320|78:320|121:331,1,85,2|0,0:0|0:0,0:0:0:0:
285,370,31736,6,0,L|369:347,1,72.2500013780594,8|0,0:1|0:0,0:0:0:0:
424,291,31913,1,2,0:0:0:0:
424,291,32001,1,0,0:0:0:0:
424,291,32089,2,0,L|339:268,1,72.2500013780594,10|0,0:0|0:0,0:0:0:0:
285,212,32266,2,0,L|369:189,1,72.2500013780594,2|0,0:0|0:0,0:0:0:0:
509,138,32442,6,0,P|491:60|412:50,1,170,10|0,0:1|0:0,0:0:0:0:
397,125,32707,1,0,0:0:0:0:
397,125,32795,2,0,B|354:114|354:114|335:78,1,85,10|0,0:0|0:0,0:0:0:0:
139,79,32972,6,0,P|258:57|272:-12,1,170,2|8,0:0|0:1,0:0:0:0:
34,222,33325,6,0,B|22:249|22:249|69:222,1,85,2|0,0:0|0:0,0:0:0:0:
145,191,33501,2,0,B|174:187|174:187|128:160,1,85,10|0,0:0|0:0,0:0:0:0:
64,109,33678,2,0,B|45:85|45:85|45:139,1,85,2|0,0:0|0:0,0:0:0:0:
84,177,33854,1,8,0:1:0:0:
84,177,34031,6,0,L|106:261,1,85,2|0,0:0|0:0,0:0:0:0:
336,154,34207,2,0,L|315:72,1,85,10|0,0:0|0:0,0:0:0:0:
175,154,34383,6,0,L|197:72,1,85,2|0,0:0|0:0,0:0:0:0:
428,177,34560,2,0,L|405:261,1,85,10|0,0:1|0:0,0:0:0:0:
256,384,34736,5,2,0:0:0:0:
256,384,34795,5,2,0:0:0:0:
256,384,34854,5,2,0:0:0:0:
256,384,34913,6,0,P|246:339|234:301,1,85,10|0,0:0|0:0,0:0:0:0:
278,219,35089,2,0,P|263:264|256:301,1,85,2|0,0:0|0:0,0:0:0:0:
53,384,35266,6,0,P|60:276|170:285,1,170,14|0,0:1|0:0,0:0:0:0:
163,205,35531,1,0,0:0:0:0:
163,205,35619,2,0,P|134:169|93:183,1,85,10|0,0:0|0:0,0:0:0:0:
119,339,35795,6,0,B|204:357|204:357|324:283,1,170,2|8,0:0|0:1,0:0:0:0:
456,206,36148,6,0,L|425:318,1,72.2500013780594,2|0,0:0|0:0,0:0:0:0:
365,327,36325,1,10,0:0:0:0:
365,327,36413,1,0,0:0:0:0:
365,327,36501,2,0,L|346:257,1,72.2500013780594,2|0,0:0|0:0,0:0:0:0:
277,69,36678,6,0,P|286:114|328:127,1,85,10|0,0:1|0:0,0:0:0:0:
421,45,36854,2,0,P|383:29|348:51,1,85,2|0,0:0|0:0,0:0:0:0:
370,185,37030,2,0,P|402:160|400:119,1,85,10|0,0:0|0:0,0:0:0:0:
216,18,37207,6,0,B|144:37|144:37|131:59|131:59|60:78,1,170,2|8,0:0|0:1,0:0:0:0:
13,141,37472,1,0,0:0:0:0:
13,141,37560,2,0,L|105:165,1,72.2500013780594,2|0,0:0|0:0,0:0:0:0:
210,210,37736,1,10,0:0:0:0:
210,210,37825,1,0,0:0:0:0:
210,210,37913,2,0,L|141:229,1,72.2500013780594,2|0,0:0|0:0,0:0:0:0:
61,384,38089,6,0,P|-3:315|37:241,1,170,10|0,0:1|0:0,0:0:0:0:
80,312,38354,1,0,0:0:0:0:
80,312,38442,2,0,B|124:325|124:325|95:291,1,85,10|0,0:0|0:0,0:0:0:0:
13,140,38619,6,0,P|57:72|139:69,1,170,2|8,0:0|0:1,0:0:0:0:
294,191,38972,6,0,L|276:121,1,72.2500013780594,2|0,0:0|0:0,0:0:0:0:
221,51,39148,1,10,0:0:0:0:
221,51,39236,1,0,0:0:0:0:
221,51,39325,2,0,L|303:30,1,72.2500013780594,2|0,0:0|0:0,0:0:0:0:
450,178,39501,6,0,B|451:134|451:134|400:168,1,85,10|0,0:1|0:0,0:0:0:0:
357,93,39678,2,0,B|394:116|394:116|389:54,1,85,2|0,0:0|0:0,0:0:0:0:
476,55,39854,2,0,B|437:75|437:75|492:102,1,85,10|0,0:0|0:0,0:0:0:0:
487,243,40031,6,0,P|452:304|346:303,1,170,2|8,0:0|0:1,0:0:0:0:
294,251,40295,1,0,0:0:0:0:
294,251,40383,2,0,L|269:343,1,72.2500013780594,2|0,0:0|0:0,0:0:0:0:
191,342,40560,1,10,0:0:0:0:
191,342,40648,1,0,0:0:0:0:
191,342,40736,2,0,L|215:249,1,72.2500013780594,2|0,0:0|0:0,0:0:0:0:
256,184,40913,5,10,0:1:0:0:
118,277,41089,1,0,3:0:0:0:
15,93,41266,1,10,0:0:0:0:
79,143,41442,1,2,3:2:0:0:
207,3,41619,5,8,0:1:0:0:
209,35,41707,1,8,0:3:0:0:
221,64,41795,1,10,0:3:0:0:
243,86,41883,1,8,0:3:0:0:
271,101,41971,1,8,0:0:0:0:
300,115,42060,1,8,0:3:0:0:
323,138,42148,1,10,0:3:0:0:
333,167,42236,1,8,0:3:0:0:
336,200,42324,5,8,0:1:0:0:
209,272,42501,1,2,3:2:0:0:
413,384,42678,1,10,0:0:0:0:
371,315,42854,1,2,3:2:0:0:
464,132,43031,5,8,0:1:0:0:
463,100,43119,1,8,0:3:0:0:
454,69,43207,1,10,0:3:0:0:
437,43,43295,1,8,0:3:0:0:
413,22,43383,1,10,0:0:0:0:
384,9,43472,1,8,0:3:0:0:
352,5,43560,1,2,3:0:0:0:
321,10,43648,1,8,0:3:0:0:
292,23,43736,6,0,L|271:100,3,72.2500013780594,10|0|0|0,0:1|0:0|3:0|0:0,0:0:0:0:
147,187,44089,2,0,L|128:117,1,72.2500013780594,10|0,0:0|0:0,0:0:0:0:
212,0,44266,2,0,L|193:69,1,72.2500013780594,2|0,3:0|0:0,0:0:0:0:
52,109,44442,5,8,0:1:0:0:
22,148,44530,1,8,0:3:0:0:
17,197,44618,1,2,3:0:0:0:
34,242,44706,1,8,0:3:0:0:
72,274,44794,1,10,0:0:0:0:
120,283,44883,1,8,0:3:0:0:
166,268,44972,2,0,L|243:288,1,72.2500013780594,2|8,3:0|0:3,0:0:0:0:
375,383,45148,5,12,0:1:0:0:
350,328,45236,1,8,0:3:0:0:
363,269,45325,1,2,3:0:0:0:
410,233,45413,1,8,0:3:0:0:
463,206,45501,1,10,0:3:0:0:
493,155,45589,1,8,0:3:0:0:
492,94,45678,1,2,3:0:0:0:
457,45,45766,1,8,0:3:0:0:
400,25,45854,2,0,L|375:117,1,72.2500013780594,10|8,0:3|0:3,0:0:0:0:
173,186,46031,5,2,3:0:0:0:
173,186,46090,5,2,0:0:0:0:
173,186,46149,5,2,0:0:0:0:
173,186,46208,6,0,P|213:194|256:208,1,85,10|8,0:0|0:3,0:0:0:0:
338,164,46384,2,0,P|294:174|256:186,1,85,2|8,3:0|0:3,0:0:0:0:
108,341,46560,6,0,B|128:371|128:371|67:383|43:325|43:325|100:288|112:198,1,255,14|0,0:1|0:0,0:0:0:0:
132,120,46913,5,10,0:0:0:0:
123,85,47001,1,2,0:3:0:0:
99,58,47089,1,2,0:0:0:0:
65,45,47177,1,2,0:3:0:0:
30,49,47266,1,8,0:1:0:0:
190,179,47442,6,0,B|221:144|221:144|261:146,1,85,2|2,0:0|0:3,0:0:0:0:
218,38,47619,2,0,B|232:81|232:81|210:115,1,85,10|2,0:0|0:3,0:0:0:0:
325,131,47795,2,0,B|281:121|281:121|262:85,1,85,2|0,0:0|0:0,0:0:0:0:
115,172,47972,6,0,L|90:264,1,72.2500013780594,10|0,0:1|0:0,0:0:0:0:
256,228,48148,2,0,L|275:298,1,72.2500013780594,2|0,0:0|0:0,0:0:0:0:
164,373,48325,5,10,0:0:0:0:
164,373,48413,1,2,0:3:0:0:
164,373,48501,2,0,L|145:303,1,72.2500013780594,2|2,0:0|0:3,0:0:0:0:
329,207,48678,6,0,B|373:212|373:212|404:260,1,85,8|0,0:1|0:0,0:0:0:0:
512,278,48854,2,0,B|468:282|468:282|437:330,1,85,2|2,0:0|0:3,0:0:0:0:
398,139,49031,5,10,0:0:0:0:
406,104,49119,1,2,0:3:0:0:
429,77,49207,1,2,0:0:0:0:
462,64,49295,1,0,0:0:0:0:
497,69,49383,2,0,B|475:136|507:195|507:195|462:137|390:135,1,255,10|0,0:1|0:0,0:0:0:0:
339,48,49736,5,10,0:0:0:0:
304,58,49824,1,2,0:3:0:0:
278,82,49912,1,2,0:0:0:0:
265,116,50000,1,0,0:0:0:0:
268,151,50088,1,8,0:1:0:0:
46,49,50266,6,0,B|6:31|6:31|37:62,1,85,2|2,0:0|0:3,0:0:0:0:
126,36,50442,2,0,B|160:11|160:11|118:22,1,85,10|2,0:0|0:3,0:0:0:0:
96,110,50619,2,0,B|100:153|100:153|111:111,1,85,2|0,0:0|0:0,0:0:0:0:
227,46,50795,6,0,L|319:70,1,72.2500013780594,10|0,0:1|0:0,0:0:0:0:
139,224,50972,2,0,L|209:206,1,72.2500013780594,2|0,0:0|0:0,0:0:0:0:
305,145,51148,5,10,0:0:0:0:
305,145,51236,1,2,0:3:0:0:
305,145,51324,2,0,L|274:260,1,72.2500013780594,2|2,0:0|0:3,0:0:0:0:
261,346,51501,6,0,B|226:315|226:315|239:267,1,85,8|0,0:1|0:0,0:0:0:0:
357,233,51678,2,0,B|356:272|356:272|315:291,1,85,2|2,0:0|0:3,0:0:0:0:
160,364,51854,5,10,0:0:0:0:
118,355,51942,1,2,0:3:0:0:
85,328,52030,1,2,0:0:0:0:
66,290,52118,1,0,0:0:0:0:
66,246,52207,2,0,B|98:196|40:123|39:173|-15:129|3:60|3:60|38:91,1,255,10|0,0:1|0:0,0:0:0:0:
132,135,52560,2,0,B|164:104|164:104|111:130,1,85,10|2,0:0|0:3,0:0:0:0:
0,288,52736,6,0,P|62:223|154:221,1,170,2|8,0:0|0:1,0:0:0:0:
304,287,53001,5,0,0:0:0:0:
304,287,53089,2,0,P|216:265|168:187,1,170,2|8,0:0|0:0,0:0:0:0:
263,66,53354,5,2,0:3:0:0:
263,66,53442,2,0,P|220:182|197:312,1,255,2|0,0:0|0:0,0:0:0:0:
144,370,53795,2,0,B|105:359|105:359|118:316,1,85,2|0,0:0|0:0,0:0:0:0:
298,210,53971,5,10,0:0:0:0:
298,210,54059,1,2,0:3:0:0:
298,210,54148,2,0,L|406:181,1,72.2500013780594,2|2,0:0|0:3,0:0:0:0:
281,285,54325,6,0,B|278:332|278:332|309:353,1,85,8|0,0:1|0:0,0:0:0:0:
415,258,54501,2,0,B|418:305|418:305|386:326,1,85,2|2,0:0|0:3,0:0:0:0:
220,229,54678,5,10,0:0:0:0:
178,223,54766,1,2,0:3:0:0:
141,202,54854,1,2,0:0:0:0:
115,168,54942,1,0,0:0:0:0:
105,127,55031,2,0,B|25:134|26:214|26:214|108:245|90:341,1,255,10|0,0:1|0:0,0:0:0:0:
23,352,55383,2,0,B|-1:382|-1:382|55:357,1,85,10|2,0:0|0:3,0:0:0:0:
162,243,55560,6,0,B|228:299|228:299|335:284,1,170,2|8,0:0|0:1,0:0:0:0:
395,282,55825,1,0,0:0:0:0:
395,282,55913,6,0,B|405:309|405:309|419:257,1,85,2|2,0:0|0:3,0:0:0:0:
336,180,56089,2,0,B|305:176|305:176|343:214,1,85,10|2,0:0|0:3,0:0:0:0:
451,181,56266,2,0,B|468:157|468:157|414:171,1,85,2|0,0:0|0:0,0:0:0:0:
398,214,56442,1,8,0:1:0:0:
398,214,56619,6,0,L|376:130,1,85,2|0,0:0|0:0,0:0:0:0:
170,274,56795,2,0,L|191:356,1,85,10|2,0:0|0:3,0:0:0:0:
114,214,56972,6,0,L|136:130,1,85,2|2,0:0|0:3,0:0:0:0:
342,274,57148,2,0,L|320:356,1,85,10|0,0:1|0:0,0:0:0:0:
256,229,57324,5,2,0:0:0:0:
256,229,57383,5,2,0:0:0:0:
256,229,57442,5,2,0:0:0:0:
256,229,57501,6,0,P|246:184|234:146,1,85,10|2,0:0|0:3,0:0:0:0:
278,64,57677,2,0,P|263:109|256:146,1,85,2|0,0:0|0:0,0:0:0:0:
40,210,57854,6,0,B|95:231|164:199|164:199|123:261|168:357,1,255,14|0,1:0|0:0,0:0:0:0:
222,366,58207,6,0,L|299:386,1,72.2500013780594,10|2,1:2|0:3,0:0:0:0:
72,296,58383,2,0,L|-5:316,1,72.2500013780594,2|2,0:0|0:3,0:0:0:0:
153,321,58560,1,8,1:0:0:0:
153,321,58736,6,0,L|173:243,1,72.2500013780594,2|2,0:0|0:3,0:0:0:0:
263,72,58913,5,10,1:2:0:0:
275,74,59001,1,2,0:3:0:0:
286,83,59089,1,2,0:0:0:0:
294,95,59177,1,0,0:0:0:0:
235,140,59266,6,0,P|192:124|144:115,1,93.5000028533936,10|0,1:0|0:0,0:0:0:0:
358,173,59442,6,0,P|392:160|431:153,1,76.4999976654053,2|0,0:0|0:0,0:0:0:0:
304,260,59619,6,0,P|277:250|247:244,1,59.4999981842042,10|2,1:2|0:3,0:0:0:0:
388,303,59795,6,0,P|406:296|428:292,1,42.5,0|2,0:0|0:3,0:0:0:0:
342,372,59972,6,0,P|329:367|315:364,1,25.4999992218018,8|0,1:0|0:0,0:0:0:0:
388,303,60148,6,0,P|406:296|428:292,1,42.5,2|2,0:0|0:3,0:0:0:0:
304,260,60325,6,0,P|277:250|247:244,1,59.4999981842042,10|2,1:2|0:3,0:0:0:0:
358,173,60501,6,0,P|392:160|431:153,1,76.4999976654053,2|0,0:0|0:0,0:0:0:0:
225,79,60678,6,0,P|188:198|60:226,1,255,10|0,1:0|0:0,0:0:0:0:
13,178,61031,6,0,P|45:145|95:162,1,85,10|0,1:2|0:3,0:0:0:0:
124,279,61207,2,0,P|91:311|41:294,1,85,2|2,0:0|0:3,0:0:0:0:
73,229,61384,1,8,1:0:0:0:
73,229,61560,6,0,L|165:253,1,85,2|2,0:0|0:3,0:0:0:0:
303,196,61736,5,10,1:2:0:0:
314,201,61824,1,2,0:3:0:0:
322,212,61912,1,2,0:0:0:0:
326,226,62000,1,0,0:0:0:0:
280,287,62089,6,0,P|264:329|255:377,1,93.5000028533936,10|0,1:0|0:0,0:0:0:0:
322,118,62265,6,0,P|309:83|302:44,1,76.4999976654053,2|0,0:0|0:0,0:0:0:0:
383,231,62442,6,0,P|373:257|367:287,1,59.4999981842042,10|2,1:2|0:3,0:0:0:0:
421,125,62618,6,0,P|414:106|411:85,1,42.5,0|2,0:0|0:3,0:0:0:0:
487,209,62795,6,0,P|490:196|495:185,1,25.4999992218018,8|0,1:0|0:0,0:0:0:0:
411,85,62972,6,0,P|414:106|422:126,1,42.5,2|2,0:0|0:3,0:0:0:0:
366,287,63148,6,0,P|372:258|383:231,1,59.4999981842042,10|2,1:2|0:3,0:0:0:0:
302,44,63325,6,0,P|308:82|322:118,1,76.4999976654053,2|0,0:0|0:0,0:0:0:0:
131,256,63501,6,0,L|100:247,1,17,10|0,1:0|0:0,0:0:0:0:
218,174,63678,2,0,L|187:165,1,17,0|0,3:0|0:0,0:0:0:0:
76,185,63854,6,0,L|45:176,1,17,10|0,1:2|0:0,0:0:0:0:
250,339,64031,2,0,L|219:330,1,17,2|2,3:2|0:3,0:0:0:0:
129,129,64207,5,8,1:0:0:0:
124,87,64295,1,8,0:3:0:0:
101,52,64383,1,10,0:3:0:0:
64,32,64471,1,8,0:3:0:0:
22,32,64561,1,8,1:2:0:0:
30,82,64649,1,8,0:3:0:0:
64,124,64737,1,10,0:3:0:0:
112,145,64825,1,8,0:3:0:0:
167,139,64913,6,0,L|175:108,1,17,8|0,1:0|0:0,0:0:0:0:
240,242,65089,2,0,L|248:211,1,17,2|0,3:2|0:0,0:0:0:0:
310,111,65266,6,0,L|315:95,1,17,10|0,1:2|0:0,0:0:0:0:
98,276,65442,2,0,L|102:259,1,17,2|2,3:2|0:3,0:0:0:0:
305,339,65619,5,8,1:0:0:0:
341,318,65707,1,8,0:3:0:0:
385,320,65795,1,10,0:3:0:0:
420,342,65883,1,8,0:3:0:0:
441,379,65972,1,10,1:2:0:0:
413,325,66060,1,8,0:3:0:0:
420,266,66148,1,10,0:3:0:0:
447,216,66236,1,8,0:3:0:0:
499,187,66326,5,10,1:0:0:0:
496,161,66413,1,8,0:3:0:0:
482,134,66501,1,0,3:0:0:0:
452,116,66589,1,8,0:3:0:0:
411,117,66678,1,10,1:2:0:0:
372,141,66766,1,8,0:3:0:0:
348,188,66854,1,2,3:0:0:0:
324,237,66942,1,8,0:3:0:0:
276,279,67031,1,8,1:0:0:0:
211,293,67119,1,8,0:3:0:0:
145,264,67207,1,2,3:0:0:0:
99,206,67295,1,8,0:3:0:0:
91,131,67383,1,10,1:2:0:0:
124,61,67472,1,8,0:3:0:0:
188,13,67560,1,2,3:0:0:0:
270,6,67648,1,8,0:3:0:0:
348,42,67736,6,0,L|329:111,1,59.4999981842042,12|8,1:0|0:3,0:0:0:0:
212,201,67913,2,0,L|193:132,1,59.4999981842042,2|8,3:0|0:3,0:0:0:0:
369,176,68089,2,0,L|438:157,1,59.4999981842042,10|8,1:3|0:3,0:0:0:0:
145,255,68266,1,10,3:1:0:0:
145,255,68354,1,8,0:1:0:0:
145,255,68442,6,0,L|76:274,1,72.2500013780594,10|0,1:2|0:0,0:0:0:0:
378,322,68619,2,0,L|447:341,1,72.2500013780594,10|8,0:1|0:1,0:0:0:0:
79,184,68795,2,0,L|10:203,1,72.2500013780594,10|8,1:2|0:3,0:0:0:0:
438,249,68972,2,0,L|507:268,1,72.2500013780594,10|8,0:1|0:3,0:0:0:0:
256,192,69148,5,12,0:1:0:0:
256,192,69236,12,10,71619,1:2:0:0:
