osu file format v14

[General]
AudioFilename: audio.mp3
AudioLeadIn: 0
PreviewTime: 23950
Countdown: 0
SampleSet: Soft
StackLeniency: 0.4
Mode: 0
LetterboxInBreaks: 0
WidescreenStoryboard: 1

[Editor]
DistanceSpacing: 3
BeatDivisor: 4
GridSize: 32
TimelineZoom: 2.999999

[Metadata]
Title:Opening
TitleUnicode:Opening
Artist:DJ Genki
ArtistUnicode:DJ Genki
Creator:Chaoslitz
Version:PAJWOJ's Expert
Source:
Tags:gram Starry Orange electronic instrumental featured artist fa mappers' guild mg mpg AirinCat arronchu1207 Sanayui not your kitty not_your_kitty iRedi PAJWOJ Outright
BeatmapID:4510965
BeatmapSetID:2142885

[Difficulty]
HPDrainRate:4.7
CircleSize:4
OverallDifficulty:8.3
ApproachRate:9.4
SliderMultiplier:1.77
SliderTickRate:1

[Events]
//Background and Video events
0,0,"bg4.jpg",0,0
//Break Periods
//Storyboard Layer 0 (Background)
//Storyboard Layer 1 (Fail)
//Storyboard Layer 2 (Pass)
//Storyboard Layer 3 (Foreground)
//Storyboard Layer 4 (Overlay)
//Storyboard Sound Samples

[TimingPoints]
1384,352.941176470588,4,2,1,50,1,0
1384,-133.333333333333,4,2,1,50,0,0
12678,-117.647058823529,4,2,1,60,0,0
17795,-117.647058823529,4,2,1,60,0,0
22560,-117.647058823529,4,2,5,75,0,0
22736,-117.647058823529,4,2,1,75,0,0
23619,-117.647058823529,4,2,5,75,0,0
23972,-71.4285714285714,4,2,2,80,0,0
40913,-71.4285714285714,4,2,3,80,0,0
46560,-62.5,4,2,2,80,0,0
63501,-62.5,4,2,3,80,0,0
64119,-62.5,4,2,2,80,0,0
64207,-62.5,4,2,3,80,0,0
65531,-62.5,4,2,2,80,0,0
65619,-62.5,4,2,3,80,0,0
68266,-62.5,4,2,5,80,0,0
68442,-62.5,4,2,5,80,0,1
68486,-62.5,4,2,5,80,0,0
68795,-62.5,4,2,5,80,0,1
68839,-62.5,4,2,5,80,0,0
68883,-62.5,4,2,3,80,0,0
68972,-62.5,4,2,5,80,0,0
69060,-62.5,4,2,3,80,0,0
69148,-100,4,2,5,80,0,0
69325,-100,4,2,1,60,0,0
71619,-100,4,2,10,60,0,0

[Colours]
Combo1 : 70,224,160
Combo2 : 241,70,123
Combo3 : 41,178,246
Combo4 : 253,120,45

[HitObjects]
171,287,1384,6,0,B|144:189|144:189|173:148,1,132.750005064011,2|10,0:0|0:0,0:0:0:0:
265,87,1913,2,0,B|282:112|282:112|255:210,1,132.750005064011,2|2,0:0|0:0,0:0:0:0:
332,330,2442,5,10,0:0:0:0:
401,384,2619,1,2,0:0:0:0:
487,363,2795,1,2,0:0:0:0:
398,234,2972,1,2,0:0:0:0:
406,266,3148,1,10,0:0:0:0:
415,298,3325,6,0,B|436:267|436:267|404:151,1,132.750005064011,2|2,0:0|0:0,0:0:0:0:
338,107,3854,2,0,L|356:43,1,66.3750025320054,10|2,0:0|0:0,0:0:0:0:
505,119,4207,6,0,P|483:168|397:164,1,132.750005064011,2|10,0:0|0:0,0:0:0:0:
338,107,4736,2,0,P|284:101|245:178,1,132.750005064011,2|2,0:0|0:0,0:0:0:0:
191,243,5266,2,0,L|209:306,1,66.3750025320054,10|2,0:0|0:0,0:0:0:0:
358,361,5619,5,2,0:0:0:0:
265,384,5795,1,2,0:0:0:0:
369,266,5972,1,10,0:0:0:0:
209,306,6148,2,0,B|111:333|111:333|85:315,1,132.750005064011,2|2,0:0|0:0,0:0:0:0:
41,167,6678,2,0,L|22:230,1,66.3750025320054,10|2,0:0|0:0,0:0:0:0:
126,219,7031,6,0,P|180:137|156:98,1,132.750005064011,2|10,0:0|0:0,0:0:0:0:
106,43,7560,1,2,0:0:0:0:
228,166,7913,6,0,L|291:147,1,66.3750025320054,2|8,0:0|0:0,0:0:0:0:
171,115,8266,2,0,B|145:132|145:132|47:105,1,132.750005064011,2|2,0:0|0:0,0:0:0:0:
222,58,8795,1,10,0:0:0:0:
222,58,8972,2,0,P|280:87|291:153,1,132.750005064011,2|2,0:0|0:0,0:0:0:0:
342,231,9501,2,0,L|323:294,1,66.3750025320054,10|2,0:0|0:0,0:0:0:0:
259,359,9854,1,2,0:0:0:0:
415,200,10207,5,10,0:0:0:0:
415,200,10383,2,0,B|442:102|442:102|424:76,1,132.750005064011,2|2,0:0|0:0,0:0:0:0:
351,18,10913,1,10,0:0:0:0:
512,0,11089,1,2,0:0:0:0:
338,111,11442,6,0,L|274:92,2,66.3750025320054,2|10|2,0:0|0:0|0:0,0:0:0:0:
424,76,11972,1,2,0:0:0:0:
508,179,12148,5,2,0:0:0:0:
508,179,12207,5,2,0:0:0:0:
508,179,12266,5,2,0:0:0:0:
508,179,12325,6,0,L|489:242,1,66.3750025320054,10|2,0:0|0:0,0:0:0:0:
294,362,12678,6,0,P|331:332|367:335,1,75.225001434803,2|0,0:0|3:0,0:0:0:0:
417,278,12942,1,0,3:0:0:0:
417,278,13031,2,0,L|394:203,1,75.225001434803,10|2,0:0|3:2,0:0:0:0:
325,167,13295,1,0,3:0:0:0:
325,167,13383,2,0,L|303:239,1,75.225001434803,0|2,0:0|3:2,0:0:0:0:
231,272,13648,1,0,3:0:0:0:
231,272,13736,1,10,0:0:0:0:
18,197,13913,1,2,3:2:0:0:
128,367,14089,6,0,P|159:330|158:295,1,75.225001434803,2|2,0:0|3:2,0:0:0:0:
129,235,14354,1,0,3:0:0:0:
129,235,14442,2,0,P|97:198|98:163,1,75.225001434803,10|2,0:0|3:2,0:0:0:0:
98,168,14707,5,0,3:0:0:0:
101,162,14795,1,0,3:0:0:0:
104,157,14883,1,0,3:0:0:0:
108,152,14972,1,2,3:2:0:0:
111,147,15060,1,0,3:0:0:0:
114,142,15148,1,10,0:0:0:0:
208,47,15325,1,2,3:2:0:0:
341,51,15501,6,0,L|427:39,1,75.225001434803,2|0,0:0|3:0,0:0:0:0:
477,85,15766,1,0,3:0:0:0:
477,85,15854,2,0,P|497:132|482:176,1,75.225001434803,10|2,0:0|3:2,0:0:0:0:
432,203,16119,1,0,3:0:0:0:
432,203,16207,2,0,L|346:191,1,75.225001434803,0|2,0:0|3:2,0:0:0:0:
289,228,16472,1,0,3:0:0:0:
289,228,16560,1,10,0:0:0:0:
406,119,16736,1,2,3:2:0:0:
512,302,16913,6,0,P|461:295|430:260,1,75.225001434803,2|2,0:0|3:2,0:0:0:0:
377,323,17178,1,0,3:0:0:0:
377,323,17266,2,0,P|345:342|308:343,1,75.225001434803,10|2,0:0|3:2,0:0:0:0:
304,337,17531,5,0,3:0:0:0:
301,332,17619,1,0,3:0:0:0:
298,326,17707,1,0,3:0:0:0:
295,321,17795,1,2,3:2:0:0:
291,316,17883,1,0,3:0:0:0:
288,311,17972,1,10,0:0:0:0:
416,209,18148,1,2,3:2:0:0:
226,263,18325,1,2,0:0:0:0:
276,177,18501,5,0,3:0:0:0:
276,177,18589,1,0,3:0:0:0:
276,177,18678,2,0,P|295:141|285:90,1,75.225001434803,10|2,0:0|3:2,0:0:0:0:
242,53,18942,1,0,3:0:0:0:
242,53,19031,2,0,P|277:33|328:43,1,75.225001434803,0|2,0:0|3:2,0:0:0:0:
364,86,19295,1,0,3:0:0:0:
364,86,19383,1,8,0:0:0:0:
220,124,19560,6,0,B|130:143|167:71|70:87,1,150.450002869606,2|2,3:2|3:2,0:0:0:0:
82,85,20001,1,0,3:0:0:0:
82,85,20089,1,10,0:0:0:0:
1,224,20266,2,0,L|15:288,1,37.6125007174015,2|0,3:2|3:0,0:0:0:0:
76,299,20442,2,0,L|62:363,1,37.6125007174015,0|0,3:0|3:0,0:0:0:0:
1,376,20619,1,2,3:2:0:0:
1,376,20707,1,0,3:0:0:0:
1,376,20795,1,10,0:0:0:0:
178,326,20972,1,2,3:2:0:0:
99,160,21148,6,0,L|119:255,1,75.225001434803,2|0,0:0|3:0,0:0:0:0:
190,251,21413,1,0,3:0:0:0:
190,251,21501,1,10,0:0:0:0:
317,150,21678,1,2,3:2:0:0:
317,150,21766,1,0,3:0:0:0:
317,150,21854,2,0,L|333:76,1,75.225001434803,0|2,0:0|3:2,0:0:0:0:
191,0,22207,1,10,0:0:0:0:
235,88,22383,1,2,3:2:0:0:
512,0,22560,5,12,0:1:0:0:
434,54,22736,2,0,L|417:127,2,75.225001434803,2|2|2,0:1|0:1|0:1,0:0:0:0:
508,115,23266,1,2,0:1:0:0:
367,183,23442,5,2,0:1:0:0:
355,178,23501,5,2,0:1:0:0:
347,169,23560,5,2,0:1:0:0:
345,156,23619,5,10,0:0:0:0:
497,272,23795,1,2,0:0:0:0:
264,380,23972,6,0,B|194:392|224:339|147:355,1,123.899996218872,14|0,0:1|0:0,0:0:0:0:
63,311,24236,1,0,0:0:0:0:
63,311,24325,2,0,P|55:293|65:308,1,61.9499981094361,10|0,0:0|0:0,0:0:0:0:
247,172,24501,2,0,B|265:199|265:199|232:284,1,123.899996218872,2|8,0:0|0:1,0:0:0:0:
45,157,24854,6,0,L|167:137,2,123.899996218872,2|10|2,0:0|0:0|0:0,0:0:0:0:
245,32,25383,2,0,L|232:112,1,61.9499981094361,10|0,0:1|0:0,0:0:0:0:
171,213,25560,2,0,L|162:152,1,61.9499981094361,2|0,0:0|0:0,0:0:0:0:
0,0,25736,1,10,0:0:0:0:
147,59,25913,1,2,0:0:0:0:
100,253,26089,6,0,P|22:250|-10:207,1,123.899996218872,8|2,0:1|0:0,0:0:0:0:
29,293,26354,1,0,0:0:0:0:
29,293,26442,1,10,0:0:0:0:
171,213,26619,1,2,0:0:0:0:
295,349,26795,6,0,B|257:334|257:334|240:248,1,123.899996218872,10|0,0:1|0:0,0:0:0:0:
312,212,27060,1,0,0:0:0:0:
312,212,27148,2,0,B|340:199|340:199|304:231,1,61.9499981094361,10|0,0:0|0:0,0:0:0:0:
131,355,27325,2,0,P|42:328|33:278,1,123.899996218872,2|8,0:0|0:1,0:0:0:0:
120,148,27678,6,0,L|261:174,2,123.899996218872,2|10|2,0:0|0:0|0:0,0:0:0:0:
170,293,28207,2,0,L|158:232,1,61.9499981094361,10|0,0:1|0:0,0:0:0:0:
303,126,28383,2,0,L|314:65,1,61.9499981094361,2|0,0:0|0:0,0:0:0:0:
84,10,28560,1,10,0:0:0:0:
116,135,28736,1,2,0:0:0:0:
365,4,28913,5,8,0:1:0:0:
152,59,29089,1,2,0:0:0:0:
152,59,29178,1,0,0:0:0:0:
152,59,29266,1,10,0:0:0:0:
384,230,29442,1,2,0:0:0:0:
506,80,29619,6,0,P|432:85|406:131,1,123.899996218872,10|0,0:1|0:0,0:0:0:0:
478,187,29883,1,0,0:0:0:0:
478,187,29972,2,0,P|493:203|473:192,1,61.9499981094361,10|0,0:0|0:0,0:0:0:0:
392,365,30148,6,0,L|373:227,1,123.899996218872,2|8,0:0|0:1,0:0:0:0:
282,208,30413,1,0,0:0:0:0:
282,208,30501,2,0,L|301:70,1,123.899996218872,2|8,0:0|0:0,0:0:0:0:
41,168,30854,6,0,B|179:133|124:251|278:217,1,247.799992437744,2|2,0:0|0:0,0:0:0:0:
172,343,31383,1,10,0:0:0:0:
110,130,31560,2,0,L|91:-8,2,123.899996218872,2|8|2,0:0|0:1|0:0,0:0:0:0:
185,340,32089,6,0,L|246:348,1,61.9499981094361,10|0,0:0|0:0,0:0:0:0:
99,292,32266,2,0,L|37:300,1,61.9499981094361,2|0,0:0|0:0,0:0:0:0:
242,146,32442,6,0,L|261:8,1,123.899996218872,10|0,0:1|0:0,0:0:0:0:
351,3,32707,1,0,0:0:0:0:
351,3,32795,2,0,L|342:64,1,61.9499981094361,10|0,0:0|0:0,0:0:0:0:
503,232,32972,6,0,P|421:231|391:192,1,123.899996218872,2|8,0:0|0:1,0:0:0:0:
168,217,33325,2,0,L|184:339,2,123.899996218872,2|10|2,0:0|0:0|0:0,0:0:0:0:
258,23,33854,1,8,0:1:0:0:
388,212,34031,6,0,L|379:273,1,61.9499981094361,2|0,0:0|0:0,0:0:0:0:
162,208,34207,2,0,L|100:199,1,61.9499981094361,10|0,0:0|0:0,0:0:0:0:
413,127,34383,2,0,L|474:118,1,61.9499981094361,2|0,0:0|0:0,0:0:0:0:
180,0,34560,1,10,0:1:0:0:
257,272,34736,5,2,0:0:0:0:
262,281,34795,5,2,0:0:0:0:
253,286,34854,5,2,0:0:0:0:
258,295,34913,6,0,P|279:309|326:308,1,61.9499981094361,10|0,0:0|0:0,0:0:0:0:
260,126,35089,2,0,P|234:124|194:148,1,61.9499981094361,2|0,0:0|0:0,0:0:0:0:
3,384,35266,6,0,B|98:370|98:370|132:323,1,123.899996218872,14|0,0:1|0:0,0:0:0:0:
33,241,35531,1,0,0:0:0:0:
33,241,35619,2,0,L|42:302,1,61.9499981094361,10|0,0:0|0:0,0:0:0:0:
195,148,35795,2,0,L|176:270,1,123.899996218872,2|8,0:0|0:1,0:0:0:0:
3,167,36148,6,0,B|19:144|19:144|114:131,2,123.899996218872,2|10|2,0:0|0:0|0:0,0:0:0:0:
169,69,36678,2,0,L|160:8,1,61.9499981094361,10|0,0:1|0:0,0:0:0:0:
45,233,36854,2,0,L|54:294,1,61.9499981094361,2|0,0:0|0:0,0:0:0:0:
195,148,37031,1,10,0:0:0:0:
86,52,37207,1,2,0:0:0:0:
311,0,37383,5,8,0:1:0:0:
192,157,37560,1,2,0:0:0:0:
192,157,37648,1,0,0:0:0:0:
192,157,37736,1,10,0:0:0:0:
428,258,37913,1,2,0:0:0:0:
272,109,38089,6,0,P|218:64|149:80,1,123.899996218872,10|0,0:1|0:0,0:0:0:0:
105,190,38354,1,0,0:0:0:0:
105,190,38442,2,0,P|85:200|107:198,1,61.9499981094361,10|0,0:0|0:0,0:0:0:0:
251,321,38619,2,0,L|269:182,1,123.899996218872,2|8,0:0|0:1,0:0:0:0:
409,25,38972,6,0,P|478:31|515:91,2,123.899996218872,2|10|2,0:0|0:0|0:0,0:0:0:0:
272,109,39501,2,0,L|282:191,1,61.9499981094361,10|0,0:1|0:0,0:0:0:0:
428,258,39678,2,0,L|438:175,1,61.9499981094361,2|0,0:0|0:0,0:0:0:0:
322,38,39854,1,10,0:0:0:0:
217,216,40031,1,2,0:0:0:0:
436,104,40207,5,8,0:1:0:0:
189,37,40383,1,2,0:0:0:0:
189,37,40472,1,0,0:0:0:0:
189,37,40560,1,10,0:0:0:0:
369,307,40736,1,2,0:0:0:0:
143,245,40913,6,0,L|60:255,1,61.9499981094361,10|0,0:1|0:0,0:0:0:0:
200,316,41089,2,0,L|117:326,1,61.9499981094361,0|0,3:0|0:0,0:0:0:0:
426,236,41266,6,0,L|508:246,1,61.9499981094361,10|0,0:0|0:0,0:0:0:0:
369,307,41442,2,0,L|451:317,1,61.9499981094361,2|0,3:2|0:0,0:0:0:0:
272,165,41619,5,8,0:1:0:0:
270,152,41707,1,8,0:3:0:0:
269,140,41795,1,10,0:3:0:0:
267,127,41883,1,8,0:3:0:0:
265,114,41972,1,8,0:0:0:0:
264,101,42060,1,8,0:3:0:0:
262,89,42148,1,10,0:3:0:0:
260,75,42236,1,8,0:3:0:0:
258,63,42325,6,0,P|241:41|199:26,1,61.9499981094361,8|0,0:1|0:0,0:0:0:0:
182,112,42501,2,0,P|154:108|114:127,1,61.9499981094361,2|0,3:2|0:0,0:0:0:0:
374,201,42678,6,0,P|391:223|433:238,1,61.9499981094361,10|0,0:0|0:0,0:0:0:0:
450,152,42854,2,0,P|477:155|517:136,1,61.9499981094361,2|0,3:2|0:0,0:0:0:0:
210,27,43031,5,8,0:1:0:0:
188,20,43119,1,8,0:3:0:0:
170,23,43207,1,10,0:3:0:0:
151,29,43295,1,8,0:3:0:0:
137,42,43383,1,10,0:0:0:0:
127,58,43472,1,8,0:3:0:0:
122,77,43560,1,2,3:0:0:0:
121,95,43648,1,8,0:3:0:0:
127,115,43736,6,0,P|99:118|59:99,2,61.9499981094361,10|0|0,0:1|0:0|3:0,0:0:0:0:
200,164,44001,1,0,0:0:0:0:
200,164,44089,2,0,P|183:186|141:201,1,61.9499981094361,10|0,0:0|0:0,0:0:0:0:
322,98,44266,1,2,3:0:0:0:
337,95,44354,1,0,0:0:0:0:
352,92,44442,1,8,0:1:0:0:
367,89,44531,1,8,0:3:0:0:
382,86,44619,6,0,L|369:14,1,61.9499981094361,2|8,3:0|0:3,0:0:0:0:
497,137,44795,2,0,L|510:65,1,61.9499981094361,10|8,0:0|0:3,0:0:0:0:
375,233,44972,2,0,L|362:161,1,61.9499981094361,2|8,3:0|0:3,0:0:0:0:
512,384,45148,5,12,0:1:0:0:
501,384,45236,1,8,0:3:0:0:
491,382,45325,1,2,3:0:0:0:
482,378,45413,1,8,0:3:0:0:
475,371,45501,1,10,0:3:0:0:
469,362,45589,1,8,0:3:0:0:
467,352,45678,2,0,L|480:280,1,61.9499981094361,2|8,3:0|0:3,0:0:0:0:
296,217,45854,6,0,B|226:230|243:174|166:191,1,123.899996218872,10|2,0:3|3:0,0:0:0:0:
171,186,46089,5,2,0:0:0:0:
182,198,46148,5,2,0:0:0:0:
187,183,46207,6,0,L|175:122,1,61.9499981094361,10|8,0:0|0:3,0:0:0:0:
118,243,46383,2,0,L|106:303,1,61.9499981094361,2|8,3:0|0:3,0:0:0:0:
363,172,46560,6,0,P|390:139|369:36,1,141.6,14|2,0:1|0:3,0:0:0:0:
113,0,46913,1,10,0:0:0:0:
117,6,47001,1,2,0:3:0:0:
121,13,47089,2,0,L|106:85,1,70.8,2|2,0:0|0:3,0:0:0:0:
193,278,47266,1,8,0:1:0:0:
437,199,47442,5,2,0:0:0:0:
437,199,47531,2,0,P|410:178|355:178,1,70.8,2|10,0:3|0:0,0:0:0:0:
159,189,47707,1,2,0:3:0:0:
159,189,47795,2,0,P|131:208|117:261,1,70.8,2|0,0:0|0:0,0:0:0:0:
286,384,47972,5,10,0:1:0:0:
363,172,48148,1,2,0:0:0:0:
108,346,48325,1,10,0:0:0:0:
114,343,48413,1,2,0:3:0:0:
120,340,48501,1,2,0:0:0:0:
126,337,48589,1,2,0:3:0:0:
132,334,48678,2,0,B|214:322|181:383|276:367,1,141.6,8|2,0:1|0:0,0:0:0:0:
316,313,48942,6,0,P|279:290|234:302,1,70.8,2|10,0:3|0:0,0:0:0:0:
435,215,49119,1,2,0:3:0:0:
435,215,49207,2,0,P|478:216|510:183,1,70.8,2|0,0:0|0:0,0:0:0:0:
380,384,49383,6,0,L|360:239,1,141.6,10|2,0:1|0:3,0:0:0:0:
430,29,49736,1,10,0:0:0:0:
436,26,49825,1,2,0:3:0:0:
442,23,49913,2,0,L|531:35,1,70.8,2|0,0:0|0:0,0:0:0:0:
295,200,50089,1,8,0:1:0:0:
142,70,50266,5,2,0:0:0:0:
142,70,50354,2,0,L|154:-19,1,70.8,2|10,0:3|0:0,0:0:0:0:
366,76,50531,1,2,0:3:0:0:
366,76,50619,2,0,L|353:165,1,70.8,2|0,0:0|0:0,0:0:0:0:
117,302,50795,5,10,0:1:0:0:
1,147,50972,1,2,0:0:0:0:
259,206,51148,1,10,0:0:0:0:
268,204,51236,1,2,0:3:0:0:
277,203,51324,1,2,0:0:0:0:
286,202,51412,1,2,0:3:0:0:
295,200,51500,1,8,0:1:0:0:
156,356,51678,5,2,0:0:0:0:
128,335,51766,1,2,0:3:0:0:
117,302,51854,2,0,L|127:231,1,70.8,10|2,0:0|0:3,0:0:0:0:
267,117,52031,2,0,L|256:46,1,70.8,2|0,0:0|0:0,0:0:0:0:
9,161,52207,6,0,B|91:179|69:124|155:142,1,141.6,10|2,0:1|0:3,0:0:0:0:
208,205,52472,1,0,0:0:0:0:
208,205,52560,2,0,L|198:276,1,70.8,10|2,0:0|0:3,0:0:0:0:
397,319,52736,2,0,B|315:301|337:356|251:338,1,141.6,2|8,0:0|0:1,0:0:0:0:
362,162,53089,5,2,0:0:0:0:
368,165,53178,1,2,0:3:0:0:
374,168,53266,2,0,L|445:158,1,70.8,8|2,0:0|0:3,0:0:0:0:
256,47,53442,2,0,B|158:32|158:32|123:-5,1,141.6,2|8,0:0|0:1,0:0:0:0:
70,76,53707,1,0,0:0:0:0:
70,76,53795,2,0,L|80:147,1,70.8,2|0,0:0|0:0,0:0:0:0:
223,211,53972,5,10,0:0:0:0:
240,214,54060,1,2,0:3:0:0:
257,210,54148,1,2,0:0:0:0:
271,200,54236,1,2,0:3:0:0:
279,184,54325,6,0,L|269:255,1,70.8,8|0,0:1|0:0,0:0:0:0:
82,310,54501,1,2,0:0:0:0:
82,306,54589,1,2,0:3:0:0:
82,302,54678,2,0,L|72:231,1,70.8,10|2,0:0|0:3,0:0:0:0:
234,120,54854,2,0,P|263:104|322:123,1,70.8,2|0,0:0|0:0,0:0:0:0:
340,318,55031,6,0,B|258:336|280:281|194:299,1,141.6,10|2,0:1|0:3,0:0:0:0:
133,369,55295,1,0,0:0:0:0:
133,369,55383,2,0,P|105:386|59:380,1,70.8,10|2,0:0|0:3,0:0:0:0:
176,172,55560,2,0,P|190:142|234:125,1,70.8,2|0,0:0|0:0,0:0:0:0:
340,318,55736,1,8,0:1:0:0:
64,232,55913,5,2,0:0:0:0:
55,233,56001,1,2,0:3:0:0:
46,234,56089,1,10,0:0:0:0:
37,236,56177,1,2,0:3:0:0:
28,237,56265,5,2,0:0:0:0:
173,29,56442,1,8,0:1:0:0:
279,184,56619,2,0,B|354:200|332:145|414:163,2,141.6,2|10|2,0:0|0:0|0:0,0:0:0:0:
245,0,57148,6,0,B|211:30|211:30|227:165,1,141.6,10|2,0:1|0:0,0:0:0:0:
219,135,57383,5,2,0:0:0:0:
231,124,57442,5,2,0:0:0:0:
216,119,57501,6,0,L|90:134,1,70.8,10|2,0:0|0:3,0:0:0:0:
288,263,57678,2,0,L|279:192,1,70.8,2|0,0:0|0:0,0:0:0:0:
71,57,57854,6,0,B|105:87|105:87|89:222,1,141.6,14|2,1:0|0:3,0:0:0:0:
14,370,58207,1,10,1:2:0:0:
11,364,58295,1,2,0:3:0:0:
8,358,58383,2,0,L|-1:287,1,70.8,2|2,0:0|0:3,0:0:0:0:
157,221,58560,1,8,1:0:0:0:
21,3,58736,5,2,0:0:0:0:
8,15,58824,1,2,0:3:0:0:
0,31,58912,1,10,1:2:0:0:
0,48,59000,1,2,0:3:0:0:
0,66,59088,1,2,0:0:0:0:
221,43,59266,6,0,L|150:52,1,70.8,10|0,1:0|0:0,0:0:0:0:
23,173,59442,2,0,L|94:182,1,70.8,2|0,0:0|0:0,0:0:0:0:
273,127,59619,1,10,1:2:0:0:
285,114,59707,1,2,0:3:0:0:
293,98,59795,1,0,0:0:0:0:
296,81,59883,1,2,0:3:0:0:
294,63,59972,6,0,P|301:38|269:-8,1,70.8,8|0,1:0|0:0,0:0:0:0:
380,158,60148,1,2,0:0:0:0:
385,163,60236,1,2,0:3:0:0:
390,168,60325,2,0,P|407:186|464:182,1,70.8,10|2,1:2|0:3,0:0:0:0:
273,127,60501,2,0,P|238:126|212:149,1,70.8,2|0,0:0|0:0,0:0:0:0:
308,342,60678,6,0,B|346:318|346:318|335:184,1,141.6,10|2,1:0|0:3,0:0:0:0:
442,32,61031,1,10,1:2:0:0:
445,38,61119,1,0,0:3:0:0:
448,44,61207,2,0,L|443:115,1,70.8,2|2,0:0|0:3,0:0:0:0:
512,293,61383,1,8,1:0:0:0:
264,277,61560,5,2,0:0:0:0:
258,274,61648,1,2,0:3:0:0:
252,271,61736,2,0,L|181:265,1,70.8,10|2,1:2|0:3,0:0:0:0:
440,309,61913,2,0,L|510:303,1,70.8,2|0,0:0|0:0,0:0:0:0:
314,147,62089,5,10,1:0:0:0:
383,363,62266,1,2,0:0:0:0:
500,144,62442,5,10,1:2:0:0:
488,130,62531,1,2,0:3:0:0:
474,120,62619,1,0,0:0:0:0:
457,114,62707,1,2,0:3:0:0:
440,113,62795,5,8,1:0:0:0:
258,274,62972,1,2,0:0:0:0:
512,384,63148,5,10,1:2:0:0:
366,87,63325,1,2,0:0:0:0:
197,324,63501,6,0,L|120:310,1,70.8,10|0,1:0|0:0,0:0:0:0:
334,283,63678,2,0,L|411:269,1,70.8,0|0,3:0|0:0,0:0:0:0:
120,302,63854,6,0,L|107:232,1,70.8,10|0,1:2|0:0,0:0:0:0:
406,259,64031,2,0,L|419:190,1,70.8,2|2,3:2|0:3,0:0:0:0:
154,68,64207,5,8,1:0:0:0:
128,63,64295,1,8,0:3:0:0:
101,65,64383,1,10,0:3:0:0:
77,75,64472,1,8,0:3:0:0:
56,92,64560,1,8,1:2:0:0:
41,114,64648,1,8,0:3:0:0:
33,139,64736,1,10,0:3:0:0:
33,166,64825,1,8,0:3:0:0:
40,191,64913,6,0,P|16:244|-16:256,1,70.8,8|0,1:0|0:0,0:0:0:0:
198,4,65089,2,0,P|232:50|226:85,1,70.8,2|0,3:2|0:0,0:0:0:0:
177,192,65266,6,0,P|130:226|95:220,1,70.8,10|0,1:2|0:0,0:0:0:0:
309,27,65442,2,0,P|315:84|293:111,1,70.8,2|2,3:2|0:3,0:0:0:0:
475,229,65619,5,8,1:0:0:0:
448,234,65707,1,8,0:3:0:0:
422,233,65795,1,10,0:3:0:0:
396,226,65883,1,8,0:3:0:0:
374,212,65972,1,10,1:2:0:0:
352,197,66060,1,8,0:3:0:0:
327,187,66148,1,10,0:3:0:0:
301,184,66236,1,8,0:3:0:0:
275,186,66325,6,0,L|288:255,2,70.8,10|8|0,1:0|0:3|3:0,0:0:0:0:
210,290,66589,1,8,0:3:0:0:
210,290,66678,2,0,L|197:359,1,70.8,10|8,1:2|0:3,0:0:0:0:
361,342,66854,1,2,3:0:0:0:
374,330,66942,1,8,0:3:0:0:
384,316,67031,1,8,1:0:0:0:
388,299,67119,1,8,0:3:0:0:
387,281,67207,6,0,L|374:212,1,70.8,2|8,3:0|0:3,0:0:0:0:
434,29,67383,2,0,P|490:37|510:66,1,70.8,10|8,1:2|0:3,0:0:0:0:
288,108,67560,2,0,P|231:116|211:145,1,70.8,2|8,3:0|0:3,0:0:0:0:
482,261,67736,1,12,1:0:0:0:
478,278,67825,1,8,0:3:0:0:
475,295,67913,1,2,3:0:0:0:
472,313,68001,1,8,0:3:0:0:
468,330,68089,1,10,1:3:0:0:
180,191,68266,5,10,3:1:0:0:
152,170,68354,1,8,0:1:0:0:
142,136,68442,2,0,P|143:95|168:66,1,70.8,10|0,1:2|0:0,0:0:0:0:
392,307,68619,5,10,0:1:0:0:
371,335,68707,1,8,0:1:0:0:
337,345,68795,2,0,P|296:343|267:319,1,70.8,10|8,1:2|0:3,0:0:0:0:
20,192,68972,1,10,0:1:0:0:
106,335,69148,1,12,0:1:0:0:
248,150,69325,6,0,B|321:133|304:187|377:178,4,132.75,2|2|2|2|2,0:0|0:0|0:0|0:0|0:0,0:0:0:0:
375,11,70560,2,0,L|364:103,1,88.5,0|2,0:0|0:0,0:0:0:0:
267,228,70913,2,0,L|278:320,1,88.5,2|2,0:0|0:0,0:0:0:0:
427,260,71266,1,2,0:0:0:0:
372,178,71442,6,0,L|366:224,3,29.5,2|2|2|10,0:0|0:0|0:0|1:2,0:0:0:0:
438,132,71795,1,2,0:0:0:0:
