osu file format v14

[General]
AudioFilename: audio.mp3
AudioLeadIn: 0
PreviewTime: 23950
Countdown: 0
SampleSet: Soft
StackLeniency: 0.4
Mode: 0
LetterboxInBreaks: 0
WidescreenStoryboard: 1

[Editor]
Bookmarks: 12678,22560,23972,29619,35266,40913,46560,52207,52560,57854,63501,69148
DistanceSpacing: 3
BeatDivisor: 2
GridSize: 32
TimelineZoom: 1

[Metadata]
Title:Opening
TitleUnicode:Opening
Artist:DJ Genki
ArtistUnicode:DJ Genki
Creator:Chaoslitz
Version:Hard
Source:
Tags:gram Starry Orange electronic instrumental featured artist fa mappers' guild mg mpg AirinCat arronchu1207 Sanayui not your kitty not_your_kitty iRedi PAJWOJ Outright
BeatmapID:4512299
BeatmapSetID:2142885

[Difficulty]
HPDrainRate:4
CircleSize:4
OverallDifficulty:6
ApproachRate:8
SliderMultiplier:1.5
SliderTickRate:1

[Events]
//Background and Video events
0,0,"bg4.jpg",0,0
//Break Periods
//Storyboard Layer 0 (Background)
//Storyboard Layer 1 (Fail)
//Storyboard Layer 2 (Pass)
//Storyboard Layer 3 (Foreground)
//Storyboard Layer 4 (Overlay)
//Storyboard Sound Samples

[TimingPoints]
1384,352.941176470588,4,2,1,50,1,0
1384,-125,4,2,1,50,0,0
12678,-125,4,2,1,60,0,0
17795,-125,4,2,1,60,0,0
18325,-125,4,2,1,60,0,0
22560,-125,4,2,5,75,0,0
22736,-125,4,2,1,75,0,0
23089,-125,4,2,1,75,0,0
23266,-125,4,2,1,75,0,0
23619,-125,4,2,5,75,0,0
23972,-100,4,2,2,80,0,1
24060,-100,4,2,2,80,0,0
24854,-100,4,2,2,80,0,0
25031,-100,4,2,2,80,0,0
27678,-100,4,2,2,80,0,0
27854,-100,4,2,2,80,0,0
28913,-100,4,2,2,80,0,0
29089,-100,4,2,2,80,0,0
29266,-100,4,2,2,80,0,0
29442,-100,4,2,2,80,0,0
29619,-100,4,2,2,80,0,0
32442,-100,4,2,2,80,0,0
35266,-100,4,2,2,80,0,0
36148,-100,4,2,2,80,0,0
36325,-100,4,2,2,80,0,0
38972,-100,4,2,2,80,0,0
39148,-100,4,2,2,80,0,0
40207,-100,4,2,2,80,0,0
40383,-100,4,2,2,80,0,0
40560,-100,4,2,2,80,0,0
40736,-100,4,2,2,80,0,0
40913,-100,4,2,3,80,0,0
45678,-100,4,2,3,80,0,0
45854,-100,4,2,3,80,0,0
46560,-100,4,2,2,80,0,1
46648,-100,4,2,2,80,0,0
51501,-100,4,2,2,80,0,0
51678,-100,4,2,2,80,0,0
51854,-100,4,2,2,80,0,0
52031,-100,4,2,2,80,0,0
52207,-100,4,2,2,80,0,0
56442,-100,4,2,2,80,0,0
56619,-100,4,2,2,80,0,0
62795,-100,4,2,2,80,0,0
62972,-100,4,2,2,80,0,0
63148,-100,4,2,2,80,0,0
63325,-100,4,2,2,80,0,0
63501,-100,4,2,3,80,0,0
64119,-100,4,2,2,80,0,0
64207,-100,4,2,3,80,0,0
65531,-100,4,2,2,80,0,0
65619,-100,4,2,3,80,0,0
67031,-100,4,2,3,80,0,0
68266,-100,4,2,5,80,0,0
68883,-100,4,2,3,80,0,0
68972,-100,4,2,5,80,0,0
69060,-100,4,2,3,80,0,0
69148,-100,4,2,5,80,0,0
69325,-100,4,2,1,60,0,0
71619,-100,4,2,10,60,0,0

[Colours]
Combo1 : 70,224,160
Combo2 : 241,70,123
Combo3 : 41,178,246
Combo4 : 253,120,45

[HitObjects]
69,306,1384,6,0,P|-4:306|-4:297,1,60,2|0,0:0|0:0,0:0:0:0:
2,257,1736,1,10,0:0:0:0:
26,338,1913,2,0,L|262:316,1,120,2|2,0:0|0:0,0:0:0:0:
218,370,2442,1,10,0:0:0:0:
366,291,2795,5,2,0:0:0:0:
287,261,2972,2,0,P|287:317|335:320,1,60,2|10,0:0|0:0,0:0:0:0:
345,374,3325,2,0,P|441:311|375:252,1,120,2|2,0:0|0:0,0:0:0:0:
438,248,3854,1,10,0:0:0:0:
512,292,4031,1,2,0:0:0:0:
512,292,4207,1,2,0:0:0:0:
427,131,4560,5,10,0:0:0:0:
492,184,4736,2,0,L|256:206,1,120,2|2,0:0|0:0,0:0:0:0:
295,230,5266,1,10,0:0:0:0:
232,175,5442,1,2,0:0:0:0:
256,94,5619,6,0,B|256:70|256:70|254:67|254:67|258:67|258:67|256:64|256:64|256:-10,2,60,2|2|10,0:0|0:0|0:0,0:0:0:0:
232,175,6148,2,0,P|209:79|253:99,1,120,2|2,0:0|0:0,0:0:0:0:
174,23,6678,1,10,0:0:0:0:
260,43,6854,1,2,0:0:0:0:
260,43,7031,1,2,0:0:0:0:
98,59,7383,5,10,0:0:0:0:
71,139,7560,2,0,L|-47:150,1,60,2|0,0:0|0:0,0:0:0:0:
1,228,7913,2,0,L|119:217,1,60,2|8,0:0|0:0,0:0:0:0:
139,191,8266,2,0,P|162:299|103:294,1,120,2|2,0:0|0:0,0:0:0:0:
158,359,8795,1,10,0:0:0:0:
102,296,8972,1,2,0:0:0:0:
245,346,9325,1,2,0:0:0:0:
245,346,9501,2,0,L|363:335,1,60,10|2,0:0|0:0,0:0:0:0:
385,366,9854,6,0,P|393:267|376:275,1,120,2|10,0:0|0:0,0:0:0:0:
393,248,10383,2,0,B|408:169|370:206|395:104,1,120,2|2,0:0|0:0,0:0:0:0:
469,100,10913,2,0,P|451:172|420:175,1,60,10|2,0:0|0:0,0:0:0:0:
315,218,11442,1,2,0:0:0:0:
284,297,11619,2,0,B|259:297|259:297|256:299|256:299|256:295|256:295|253:297|253:297|205:297,1,60,10|2,0:0|0:0,0:0:0:0:
198,376,11972,1,2,0:0:0:0:
146,310,12148,2,0,L|140:277,3,20,2|2|2|10,0:0|0:0|0:0|0:0,0:0:0:0:
74,354,12501,1,2,0:0:0:0:
22,288,12678,6,0,P|54:221|79:229,1,60,2|0,0:0|3:0,0:0:0:0:
95,186,13031,1,10,0:0:0:0:
20,149,13207,2,0,B|35:68|-3:105|22:3,1,120,2|2,3:2|3:2,0:0:0:0:
95,0,13736,2,0,P|143:58|139:62,1,60,10|2,0:0|3:2,0:0:0:0:
215,64,14089,5,2,0:0:0:0:
137,98,14266,2,0,L|87:106,2,30,2|0|10,3:2|3:0|0:0,0:0:0:0:
204,151,14619,2,0,P|222:252|186:236,1,120,2|2,3:2|3:2,0:0:0:0:
254,298,15148,1,10,0:0:0:0:
195,238,15325,1,2,3:2:0:0:
195,238,15501,1,2,0:0:0:0:
115,373,15854,5,10,0:0:0:0:
42,330,16031,2,0,B|16:276|16:276|72:178,1,120,2|2,3:2|3:2,0:0:0:0:
122,187,16560,1,10,0:0:0:0:
191,234,16736,1,2,3:2:0:0:
273,217,16913,1,2,0:0:0:0:
319,148,17089,2,0,L|308:95,2,30,2|0|10,3:2|3:0|0:0,0:0:0:0:
358,223,17442,6,0,L|344:428,1,120,2|2,3:2|3:2,0:0:0:0:
427,378,17972,1,10,0:0:0:0:
493,326,18148,1,2,3:2:0:0:
498,321,18325,2,0,P|406:278|414:329,1,120,2|10,0:0|0:0,0:0:0:0:
358,223,18854,5,2,3:2:0:0:
193,308,19207,2,0,L|143:316,2,30,2|0|8,3:2|3:0|0:0,0:0:0:0:
256,364,19560,1,2,3:2:0:0:
273,282,19736,2,0,P|205:247|194:262,1,60,2|2,0:0|3:2,0:0:0:0:
170,192,20089,1,10,0:0:0:0:
109,250,20266,2,0,P|36:195|112:193,1,120,2|2,3:2|3:2,0:0:0:0:
94,156,20795,2,0,L|102:38,1,60,10|2,0:0|3:2,0:0:0:0:
179,72,21148,6,0,L|163:295,1,120,2|10,0:0|0:0,0:0:0:0:
109,250,21678,1,2,3:2:0:0:
256,337,22031,2,0,L|256:393,2,30,2|0|10,3:2|3:0|0:0,0:0:0:0:
215,264,22383,1,2,3:2:0:0:
299,264,22560,5,12,0:1:0:0:
256,192,22736,1,2,0:1:0:0:
276,110,22913,1,2,0:1:0:0:
348,66,23089,1,2,0:1:0:0:
430,85,23266,2,0,L|446:308,1,120,2|10,0:1|0:0,0:0:0:0:
477,280,23795,1,2,0:0:0:0:
399,350,23972,6,0,L|388:203,1,75,14|0,0:1|0:0,0:0:0:0:
355,200,24325,1,10,0:0:0:0:
299,264,24501,2,0,B|273:269|273:269|247:364|247:364|143:382,1,150,2|2,0:0|0:0,0:0:0:0:
177,296,25031,1,10,0:0:0:0:
107,343,25207,1,2,0:0:0:0:
29,312,25383,5,10,0:1:0:0:
0,232,25560,2,0,P|31:150|71:159,1,75,2|10,0:0|0:0,0:0:0:0:
89,174,25913,2,0,P|204:110|120:41,1,150,2|2,0:0|0:0,0:0:0:0:
195,38,26442,1,10,0:0:0:0:
127,86,26619,1,2,0:0:0:0:
127,86,26707,1,0,0:0:0:0:
127,86,26795,6,0,L|-20:101,1,75,10|0,0:1|0:0,0:0:0:0:
5,164,27148,1,10,0:0:0:0:
31,246,27325,2,0,L|306:219,1,150,2|2,0:0|0:0,0:0:0:0:
256,192,27854,1,10,0:0:0:0:
337,165,28031,1,2,0:0:0:0:
413,203,28207,5,10,0:1:0:0:
439,283,28383,2,0,P|395:356|376:350,1,75,2|10,0:0|0:0,0:0:0:0:
340,364,28736,1,2,0:0:0:0:
336,360,28825,1,0,0:0:0:0:
332,356,28913,1,8,0:1:0:0:
256,318,29089,1,2,0:0:0:0:
256,192,29266,1,10,0:0:0:0:
200,255,29442,1,2,0:0:0:0:
200,255,29531,1,0,0:0:0:0:
200,255,29619,6,0,L|53:270,1,75,10|0,0:1|0:0,0:0:0:0:
64,203,29972,1,10,0:0:0:0:
117,136,30148,2,0,P|146:58|123:43,1,75,2|8,0:0|0:1,0:0:0:0:
111,4,30501,2,0,L|-36:19,1,75,2|8,0:0|0:0,0:0:0:0:
7,96,30854,6,0,L|282:69,1,150,2|2,0:0|0:0,0:0:0:0:
238,107,31383,1,10,0:0:0:0:
284,35,31560,2,0,P|343:138|257:126,1,150,2|2,0:0|0:0,0:0:0:0:
289,176,32089,1,10,0:0:0:0:
239,246,32266,1,2,0:0:0:0:
279,321,32442,6,0,L|426:306,1,75,10|0,0:1|0:0,0:0:0:0:
353,313,32707,1,0,0:0:0:0:
353,313,32795,1,10,0:0:0:0:
435,362,32972,2,0,P|470:250|406:285,1,150,2|2,0:0|0:0,0:0:0:0:
477,201,33501,1,10,0:0:0:0:
402,243,33678,1,2,0:0:0:0:
260,126,34031,5,2,0:0:0:0:
212,196,34207,1,10,0:0:0:0:
127,189,34383,1,2,0:0:0:0:
90,111,34560,1,10,0:1:0:0:
139,39,34736,2,0,L|119:-5,3,25,2|2|2|10,0:0|0:0|0:0|0:0,0:0:0:0:
224,49,35089,1,2,0:0:0:0:
345,134,35266,6,0,P|406:87|403:78,1,75,14|0,0:1|0:0,0:0:0:0:
388,24,35619,1,10,0:0:0:0:
309,56,35795,2,0,L|291:308,1,150,2|2,0:0|0:0,0:0:0:0:
247,274,36325,1,10,0:0:0:0:
269,356,36501,1,2,0:0:0:0:
351,377,36678,5,10,0:1:0:0:
410,316,36854,2,0,L|557:301,1,75,2|10,0:0|0:0,0:0:0:0:
512,227,37207,2,0,P|407:169|399:203,1,150,2|2,0:0|0:0,0:0:0:0:
378,212,37736,1,10,0:0:0:0:
345,134,37913,1,2,0:0:0:0:
344,129,38001,1,0,0:0:0:0:
343,124,38089,6,0,L|196:139,1,75,10|0,0:1|0:0,0:0:0:0:
212,196,38442,1,10,0:0:0:0:
134,161,38619,2,0,P|114:278|172:240,1,150,2|2,0:0|0:0,0:0:0:0:
45,336,39148,1,10,0:0:0:0:
119,379,39325,1,2,0:0:0:0:
182,322,39501,5,10,0:1:0:0:
143,246,39678,2,0,L|-4:261,1,75,2|10,0:0|0:0,0:0:0:0:
21,182,40031,1,2,0:0:0:0:
17,178,40120,1,0,0:0:0:0:
13,174,40208,1,8,0:1:0:0:
72,113,40383,1,2,0:0:0:0:
43,14,40560,1,10,0:0:0:0:
130,51,40736,1,2,0:0:0:0:
130,51,40824,1,0,0:0:0:0:
130,51,40913,6,0,L|277:36,1,75,10|0,0:1|3:0,0:0:0:0:
256,112,41266,2,0,L|403:97,1,75,10|2,0:0|3:2,0:0:0:0:
409,70,41619,2,0,P|443:112|441:116,3,37.5,8|8|10|8,0:1|0:3|0:3|0:3,0:0:0:0:
475,111,41972,2,0,P|445:154|436:152,3,37.5,8|8|10|8,0:0|0:3|0:3|0:3,0:0:0:0:
443,180,42325,6,0,L|432:327,1,75,8|2,0:1|3:2,0:0:0:0:
360,218,42678,2,0,L|349:365,1,75,10|2,0:0|3:2,0:0:0:0:
286,344,43031,2,0,P|239:339|239:329,3,37.5,8|8|10|8,0:1|0:3|0:3|0:3,0:0:0:0:
225,326,43383,2,0,L|152:334,3,37.5,10|8|2|8,0:0|0:3|3:0|0:3,0:0:0:0:
160,363,43736,6,0,P|126:259|186:287,1,150,10|10,0:1|0:0,0:0:0:0:
150,209,44266,1,2,3:0:0:0:
98,141,44442,2,0,L|25:149,3,37.5,8|8|2|8,0:1|0:3|3:0|0:3,0:0:0:0:
22,164,44795,2,0,P|25:214|30:216,3,37.5,10|8|2|8,0:0|0:3|3:0|0:3,0:0:0:0:
19,239,45148,5,12,0:1:0:0:
96,276,45325,1,2,3:0:0:0:
157,216,45501,1,10,0:3:0:0:
157,216,45589,1,8,0:3:0:0:
157,216,45678,1,2,3:0:0:0:
234,253,45854,1,10,0:3:0:0:
295,193,46031,2,0,L|287:145,3,25,2|2|2|10,3:0|0:0|0:0|0:0,0:0:0:0:
372,230,46383,1,2,3:0:0:0:
407,333,46560,6,0,P|317:323|318:313,1,75,14|2,0:1|0:3,0:0:0:0:
311,290,46913,1,10,0:0:0:0:
240,338,47089,2,0,L|-35:311,1,150,2|2,0:0|0:0,0:0:0:0:
22,271,47619,1,10,0:0:0:0:
21,264,47707,1,2,0:3:0:0:
25,258,47795,1,2,0:0:0:0:
76,189,47972,5,10,0:1:0:0:
157,216,48148,2,0,P|231:176|220:149,1,75,2|10,0:0|0:0,0:0:0:0:
229,199,48413,1,2,0:3:0:0:
233,192,48501,2,0,P|147:107|126:183,1,150,2|2,0:0|0:0,0:0:0:0:
101,41,49031,1,10,0:0:0:0:
94,40,49119,1,2,0:3:0:0:
88,44,49207,1,2,0:0:0:0:
8,75,49383,6,0,P|44:158|61:153,1,75,10|2,0:1|0:3,0:0:0:0:
76,189,49736,1,10,0:0:0:0:
25,258,49913,2,0,P|101:279|76:250,1,150,2|2,0:0|0:0,0:0:0:0:
147,260,50442,1,10,0:0:0:0:
147,260,50531,1,2,0:3:0:0:
147,260,50619,1,2,0:0:0:0:
225,294,50795,5,10,0:1:0:0:
282,230,50972,2,0,P|260:156|213:174,1,75,2|10,0:0|0:0,0:0:0:0:
269,164,51236,1,2,0:3:0:0:
263,167,51325,2,0,L|274:20,1,75,2|8,0:0|0:1,0:0:0:0:
359,35,51678,1,2,0:0:0:0:
367,35,51766,1,2,0:3:0:0:
374,38,51854,1,10,0:0:0:0:
433,100,52031,1,2,0:0:0:0:
350,120,52207,6,0,P|390:222|336:211,1,150,10|10,0:1|0:0,0:0:0:0:
458,280,52736,2,0,P|373:299|366:274,1,75,2|8,0:0|0:1,0:0:0:0:
331,365,53089,1,2,0:0:0:0:
324,367,53178,1,2,0:3:0:0:
319,362,53266,1,8,0:0:0:0:
256,304,53442,6,0,L|-19:331,1,150,2|2,0:0|0:0,0:0:0:0:
39,364,53972,1,10,0:0:0:0:
4,286,54148,2,0,B|30:281|30:281|56:186|56:186|160:168,1,150,2|2,0:0|0:0,0:0:0:0:
104,99,54678,1,10,0:0:0:0:
103,92,54766,1,2,0:3:0:0:
96,89,54854,1,2,0:0:0:0:
12,103,55031,6,0,P|104:147|60:85,1,150,10|10,0:1|0:0,0:0:0:0:
164,160,55560,2,0,P|226:234|220:241,1,75,2|8,0:0|0:1,0:0:0:0:
270,256,55913,1,2,0:0:0:0:
265,262,56001,1,2,0:3:0:0:
257,262,56089,1,10,0:0:0:0:
173,245,56266,1,2,0:0:0:0:
293,380,56619,5,2,0:0:0:0:
375,357,56795,1,10,0:0:0:0:
416,282,56972,1,2,0:0:0:0:
391,199,57148,1,10,0:1:0:0:
314,157,57325,2,0,L|320:109,3,25,2|2|2|10,0:0|0:0|0:0|0:0,0:0:0:0:
229,181,57678,1,2,0:0:0:0:
200,326,57854,6,0,L|-75:353,2,150,14|10|8,1:0|1:2|1:0,0:0:0:0:
257,262,58736,1,2,0:0:0:0:
229,181,58913,2,0,P|147:172|139:205,1,75,10|2,1:2|0:0,0:0:0:0:
94,202,59266,5,10,1:0:0:0:
38,137,59442,1,2,0:0:0:0:
94,72,59619,1,10,1:2:0:0:
98,67,59707,1,2,0:3:0:0:
102,62,59795,2,0,P|115:180|63:143,1,150,2|2,0:0|0:0,0:0:0:0:
94,202,60325,1,10,1:2:0:0:
51,277,60501,1,2,0:0:0:0:
48,284,60589,1,0,0:0:0:0:
50,291,60678,6,0,P|139:285|141:262,1,75,10|2,1:0|0:3,0:0:0:0:
183,364,61031,2,0,P|224:247|156:282,1,150,10|8,1:2|1:0,0:0:0:0:
230,214,61560,1,2,0:0:0:0:
167,156,61736,2,0,L|178:9,1,75,10|2,1:2|0:0,0:0:0:0:
238,26,62089,5,10,1:0:0:0:
310,70,62266,1,2,0:0:0:0:
297,159,62442,1,10,1:2:0:0:
297,159,62531,1,2,0:3:0:0:
297,159,62619,2,0,L|444:144,1,75,2|8,0:0|1:0,0:0:0:0:
467,116,62972,1,2,0:0:0:0:
471,122,63060,1,2,0:3:0:0:
475,128,63148,1,10,1:2:0:0:
438,205,63325,1,2,0:0:0:0:
478,280,63501,6,0,P|385:296|382:283,1,75,10|0,1:0|3:0,0:0:0:0:
354,368,63854,2,0,P|264:368|264:397,1,75,10|2,1:2|3:2,0:0:0:0:
235,275,64207,2,0,L|162:283,3,37.5,8|8|10|8,1:0|0:3|0:3|0:3,0:0:0:0:
165,307,64560,2,0,L|92:315,3,37.5,8|8|10|8,1:2|0:3|0:3|0:3,0:0:0:0:
95,339,64913,6,0,P|38:272|64:233,1,75,8|2,1:0|3:2,0:0:0:0:
0,221,65266,2,0,P|68:164|106:190,1,75,10|2,1:2|3:2,0:0:0:0:
109,112,65619,2,0,P|145:153|144:155,3,37.5,8|8|10|8,1:0|0:3|0:3|0:3,0:0:0:0:
165,160,65972,2,0,L|238:152,3,37.5,10|8|10|8,1:2|0:3|0:3|0:3,0:0:0:0:
240,135,66325,6,0,P|250:223|243:227,1,75,10|0,1:0|3:0,0:0:0:0:
235,275,66678,1,10,1:2:0:0:
285,344,66854,1,2,3:0:0:0:
364,310,67031,2,0,L|437:302,3,37.5,8|8|2|8,1:0|0:3|3:0|0:3,0:0:0:0:
434,278,67384,2,0,L|507:270,3,37.5,10|8|2|8,1:2|0:3|3:0|0:3,0:0:0:0:
504,246,67736,6,0,P|436:172|423:180,1,75,12|2,1:0|3:0,0:0:0:0:
418,130,68089,1,10,1:3:0:0:
336,157,68266,1,10,3:1:0:0:
333,163,68354,1,8,0:1:0:0:
330,169,68442,1,10,1:2:0:0:
256,213,68619,2,0,L|256:237,3,25,10|2|2|10,0:1|0:1|0:1|1:2,0:0:0:0:
182,169,68972,1,10,0:1:0:0:
256,127,69148,5,12,0:1:0:0:
256,192,69325,12,10,71619,1:2:0:0:
