osu file format v14

[General]
AudioFilename: audio.mp3
AudioLeadIn: 0
PreviewTime: 23950
Countdown: 0
SampleSet: Soft
StackLeniency: 0.4
Mode: 0
LetterboxInBreaks: 0
WidescreenStoryboard: 1

[Editor]
Bookmarks: 12678,22560,23972,29619,35266,40913,46560,52207,52560,57854,63501,69148
DistanceSpacing: 3
BeatDivisor: 2
GridSize: 32
TimelineZoom: 1

[Metadata]
Title:Opening
TitleUnicode:Opening
Artist:DJ Genki
ArtistUnicode:DJ Genki
Creator:Chaoslitz
Version:Easy
Source:
Tags:gram Starry Orange electronic instrumental featured artist fa mappers' guild mg mpg AirinCat arronchu1207 Sanayui not your kitty not_your_kitty iRedi PAJWOJ Outright
BeatmapID:4510961
BeatmapSetID:2142885

[Difficulty]
HPDrainRate:3
CircleSize:3
OverallDifficulty:3
ApproachRate:4.5
SliderMultiplier:1
SliderTickRate:1

[Events]
//Background and Video events
0,0,"bg4.jpg",0,0
//Break Periods
//Storyboard Layer 0 (Background)
//Storyboard Layer 1 (Fail)
//Storyboard Layer 2 (Pass)
//Storyboard Layer 3 (Foreground)
//Storyboard Layer 4 (Overlay)
//Storyboard Sound Samples

[TimingPoints]
1384,352.941176470588,4,2,1,50,1,0
1384,-125,4,2,1,50,0,0
12678,-125,4,2,1,60,0,0
17795,-125,4,2,1,60,0,0
18325,-125,4,2,1,60,0,0
22560,-125,4,2,5,75,0,0
22736,-125,4,2,1,75,0,0
23089,-125,4,2,1,75,0,0
23266,-125,4,2,1,75,0,0
23619,-125,4,2,5,75,0,0
23972,-100,4,2,2,80,0,1
24060,-100,4,2,2,80,0,0
24854,-100,4,2,2,80,0,0
25031,-100,4,2,2,80,0,0
27678,-100,4,2,2,80,0,0
27854,-100,4,2,2,80,0,0
28913,-100,4,2,2,80,0,0
29089,-100,4,2,2,80,0,0
29266,-100,4,2,2,80,0,0
29442,-100,4,2,2,80,0,0
29619,-100,4,2,2,80,0,0
32442,-100,4,2,2,80,0,0
35266,-100,4,2,2,80,0,0
36148,-100,4,2,2,80,0,0
36325,-100,4,2,2,80,0,0
38972,-100,4,2,2,80,0,0
39148,-100,4,2,2,80,0,0
40207,-100,4,2,2,80,0,0
40383,-100,4,2,2,80,0,0
40560,-100,4,2,2,80,0,0
40736,-100,4,2,2,80,0,0
40913,-100,4,2,3,80,0,0
45678,-100,4,2,3,80,0,0
45854,-100,4,2,3,80,0,0
46560,-100,4,2,2,80,0,1
46648,-100,4,2,2,80,0,0
51501,-100,4,2,2,80,0,0
51678,-100,4,2,2,80,0,0
51854,-100,4,2,2,80,0,0
52031,-100,4,2,2,80,0,0
52207,-100,4,2,2,80,0,0
56442,-100,4,2,2,80,0,0
56619,-100,4,2,2,80,0,0
62795,-100,4,2,2,80,0,0
62972,-100,4,2,2,80,0,0
63148,-100,4,2,2,80,0,0
63325,-100,4,2,2,80,0,0
63501,-100,4,2,3,80,0,0
64119,-100,4,2,2,80,0,0
64207,-100,4,2,3,80,0,0
65531,-100,4,2,2,80,0,0
65619,-100,4,2,3,80,0,0
67031,-100,4,2,3,80,0,0
68266,-100,4,2,5,80,0,0
68883,-100,4,2,3,80,0,0
68972,-100,4,2,5,80,0,0
69060,-100,4,2,3,80,0,0
69148,-100,4,2,5,80,0,0
69325,-100,4,2,1,60,0,0
71619,-100,4,2,10,60,0,0

[Colours]
Combo1 : 70,224,160
Combo2 : 241,70,123
Combo3 : 41,178,246
Combo4 : 253,120,45

[HitObjects]
0,327,1384,5,2,0:0:0:0:
64,267,1736,2,0,B|64:194|64:194|61:192|61:192|67:192|67:192|64:190|64:190|64:77,1,160,10|10,0:0|0:0,0:0:0:0:
180,6,3148,2,0,P|242:97|185:97,1,160,10|10,0:0|0:0,0:0:0:0:
182,132,4207,1,2,0:0:0:0:
256,179,4560,2,0,B|256:252|256:252|259:254|259:254|253:254|253:254|256:256|256:256|256:369,1,160,10|10,0:0|0:0,0:0:0:0:
412,365,5972,2,0,P|496:319|496:316,2,80,10|0|10,0:0|0:0|0:0,0:0:0:0:
341,312,7031,5,2,0:0:0:0:
256,330,7383,2,0,B|185:367|185:367|62:269,1,160,10|8,0:0|0:0,0:0:0:0:
122,157,8795,2,0,B|193:120|193:120|316:218,1,160,10|10,0:0|0:0,0:0:0:0:
324,226,9854,1,2,0:0:0:0:
409,204,10207,2,0,P|462:98|449:96,1,160,10|10,0:0|0:0,0:0:0:0:
397,12,11619,2,0,P|326:37|326:46,1,80,10|2,0:0|0:0,0:0:0:0:
256,72,12325,1,10,0:0:0:0:
182,24,12678,6,0,P|107:130|119:138,1,160,2|0,0:0|0:0,0:0:0:0:
34,171,13736,1,10,0:0:0:0:
83,244,14089,2,0,L|320:221,1,160,2|0,0:0|3:0,0:0:0:0:
327,205,15148,1,10,0:0:0:0:
384,272,15501,6,0,P|276:333|269:305,1,160,2|0,0:0|0:0,0:0:0:0:
226,318,16560,1,10,0:0:0:0:
143,348,16913,1,2,0:0:0:0:
16,250,17619,2,0,P|26:167|67:167,1,80,0|10,3:0|0:0,0:0:0:0:
27,92,18325,6,0,P|149:123|149:109,1,160,2|0,0:0|0:0,0:0:0:0:
191,118,19383,1,8,0:0:0:0:
177,31,19736,2,0,L|19:47,2,80,2|10|0,0:0|0:0|3:0,0:0:0:0:
259,62,20795,2,0,L|417:46,1,80,10|2,0:0|0:0,0:0:0:0:
510,93,21854,6,0,P|483:186|454:186,1,80,0|10,0:0|0:0,0:0:0:0:
432,202,22560,1,12,0:1:0:0:
382,354,23266,2,0,P|298:317|308:281,1,80,2|10,0:1|0:0,0:0:0:0:
256,273,23972,6,0,B|256:205|256:205|259:203|259:203|253:203|253:203|256:202|256:202|256:88,2,150,14|2|10,0:1|0:0|0:0,0:0:0:0:
202,345,25383,2,0,P|106:269|124:246,1,100,10|10,0:1|0:0,0:0:0:0:
58,261,26089,2,0,P|134:165|157:183,1,100,8|10,0:1|0:0,0:0:0:0:
141,116,26795,6,0,P|69:30|79:24,2,150,10|2|10,0:1|0:0|0:0,0:0:0:0:
192,42,28207,1,10,0:1:0:0:
256,105,28560,2,0,B|256:148|256:148|253:150|253:150|259:150|259:150|256:152|256:152|256:200,1,100,10|8,0:0|0:1,0:0:0:0:
325,254,29266,1,10,0:0:0:0:
278,331,29619,6,0,P|205:253|223:241,1,150,10|2,0:1|0:0,0:0:0:0:
256,196,30501,1,2,0:0:0:0:
325,254,30854,2,0,L|522:234,1,150,2|10,0:0|0:0,0:0:0:0:
512,157,31736,2,0,P|481:59|441:71,1,100,8|10,0:1|0:0,0:0:0:0:
440,12,32442,6,0,P|375:98|380:101,1,150,10|2,0:1|0:0,0:0:0:0:
341,168,33325,2,0,P|292:262|252:241,1,100,2|2,0:0|0:0,0:0:0:0:
278,331,34031,2,0,P|205:253|223:241,1,150,2|10,0:0|0:1,0:0:0:0:
256,196,34913,1,10,0:0:0:0:
240,107,35266,6,0,L|437:87,2,150,14|2|10,0:1|0:0|0:0,0:0:0:0:
160,149,36678,2,0,L|-13:167,1,100,10|10,0:1|0:0,0:0:0:0:
19,239,37383,2,0,P|59:327|119:292,1,100,8|10,0:1|0:0,0:0:0:0:
134,329,38089,6,0,B|197:370|197:370|306:313,2,150,10|2|10,0:1|0:0|0:0,0:0:0:0:
107,243,39501,1,10,0:1:0:0:
185,198,39854,2,0,P|176:93|117:93,1,100,10|8,0:0|0:1,0:0:0:0:
155,28,40560,1,10,0:0:0:0:
68,6,40913,5,10,0:1:0:0:
0,65,41266,1,10,0:0:0:0:
14,154,41619,2,0,L|187:136,1,100,8|8,0:1|0:0,0:0:0:0:
196,109,42325,1,8,0:1:0:0:
256,176,42678,1,10,0:0:0:0:
338,139,43031,2,0,P|307:252|299:252,1,100,8|10,0:1|0:0,0:0:0:0:
374,315,43736,6,0,P|263:327|263:278,1,100,10|10,0:1|0:0,0:0:0:0:
252,279,44442,2,0,L|79:297,1,100,8|10,0:1|0:0,0:0:0:0:
71,250,45148,2,0,P|182:135|214:179,1,200,12|10,0:1|0:3,0:0:0:0:
244,147,46207,1,10,0:0:0:0:
309,209,46560,6,0,L|293:406,2,150,14|2|10,0:1|0:0|0:0,0:0:0:0:
391,171,47972,2,0,P|342:71|315:81,1,100,10|10,0:1|0:0,0:0:0:0:
341,4,48678,2,0,P|253:27|274:107,1,100,8|10,0:1|0:0,0:0:0:0:
183,80,49383,6,0,L|-14:100,2,150,10|2|10,0:1|0:0|0:0,0:0:0:0:
244,147,50795,1,10,0:1:0:0:
173,202,51148,2,0,P|191:308|205:311,1,100,10|8,0:0|0:1,0:0:0:0:
226,358,51854,1,10,0:0:0:0:
307,319,52207,6,0,L|504:299,1,150,10|2,0:1|0:0,0:0:0:0:
482,218,53089,1,2,0:0:0:0:
414,159,53442,2,0,P|335:242|355:259,1,150,2|10,0:0|0:0,0:0:0:0:
307,319,54325,2,0,P|209:349|186:285,1,100,8|10,0:1|0:0,0:0:0:0:
142,323,55031,6,0,P|76:235|98:222,1,150,10|2,0:1|0:0,0:0:0:0:
144,192,55913,2,0,B|188:192|188:192|191:190|191:190|191:195|191:195|194:192|194:192|248:192,1,100,2|2,0:0|0:0,0:0:0:0:
312,141,56619,2,0,P|244:58|212:98,1,150,2|10,0:0|0:1,0:0:0:0:
160,103,57501,1,10,0:0:0:0:
105,32,57854,5,14,1:0:0:0:
22,67,58207,1,10,1:2:0:0:
18,158,58560,2,0,L|34:353,1,100,8|10,1:0|1:2,0:0:0:0:
6,346,59266,2,0,P|107:295|100:283,1,100,10|10,1:0|1:2,0:0:0:0:
147,288,59972,2,0,P|240:328|213:377,1,100,8|10,1:0|1:2,0:0:0:0:
301,362,60678,5,10,1:0:0:0:
388,339,61031,1,10,1:2:0:0:
444,269,61383,2,0,P|404:165|401:165,1,100,8|10,1:0|1:2,0:0:0:0:
403,100,62089,1,10,1:0:0:0:
336,160,62442,2,0,L|163:178,1,100,10|8,1:2|1:0,0:0:0:0:
166,226,63148,1,10,1:2:0:0:
82,192,63501,5,10,1:0:0:0:
69,102,63854,1,10,1:2:0:0:
140,46,64207,2,0,P|218:111|178:148,1,100,8|8,1:0|1:2,0:0:0:0:
237,170,64913,1,8,1:0:0:0:
166,226,65266,1,10,1:2:0:0:
151,315,65619,2,0,P|265:315|261:282,1,100,8|10,1:0|1:2,0:0:0:0:
307,319,66325,6,0,L|454:304,1,100,10|10,1:0|1:2,0:0:0:0:
491,340,67031,2,0,P|491:235|473:228,1,100,8|10,1:0|1:2,0:0:0:0:
467,174,67736,2,0,L|318:189,1,100,12|10,1:0|1:3,0:0:0:0:
290,231,68442,1,10,1:2:0:0:
244,154,68795,1,10,1:2:0:0:
167,201,69148,5,12,0:1:0:0:
256,192,69325,12,10,71619,1:2:0:0:
