osu file format v14

[General]
AudioFilename: audio.mp3
AudioLeadIn: 0
PreviewTime: 23950
Countdown: 0
SampleSet: Soft
StackLeniency: 0.4
Mode: 0
LetterboxInBreaks: 0
WidescreenStoryboard: 1

[Editor]
Bookmarks: 12678,22560,23972,29619,35266,40913,46560,52207,57854,63501,69148
DistanceSpacing: 3
BeatDivisor: 2
GridSize: 32
TimelineZoom: 1

[Metadata]
Title:Opening
TitleUnicode:Opening
Artist:DJ Genki
ArtistUnicode:DJ Genki
Creator:Chaoslitz
Version:Deluxe
Source:
Tags:gram Starry Orange electronic instrumental featured artist fa mappers' guild mg mpg AirinCat arronchu1207 Sanayui not your kitty not_your_kitty iRedi PAJWOJ Outright
BeatmapID:4510960
BeatmapSetID:2142885

[Difficulty]
HPDrainRate:5
CircleSize:4.2
OverallDifficulty:8.5
ApproachRate:9.3
SliderMultiplier:2
SliderTickRate:1

[Events]
//Background and Video events
0,0,"bg4.jpg",0,0
//Break Periods
//Storyboard Layer 0 (Background)
//Storyboard Layer 1 (Fail)
//Storyboard Layer 2 (Pass)
//Storyboard Layer 3 (Foreground)
//Storyboard Layer 4 (Overlay)
//Storyboard Sound Samples

[TimingPoints]
1384,352.941176470588,4,2,1,50,1,0
12678,-100,4,2,1,60,0,0
17795,-90.9090909090909,4,2,1,60,0,0
18325,-100,4,2,1,60,0,0
22560,-100,4,2,5,75,0,0
22736,-83.3333333333333,4,2,1,75,0,0
23089,-71.4285714285714,4,2,1,75,0,0
23266,-83.3333333333333,4,2,1,75,0,0
23619,-83.3333333333333,4,2,5,75,0,0
23972,-66.6666666666667,4,2,2,80,0,1
24060,-66.6666666666667,4,2,2,80,0,0
24854,-83.3333333333333,4,2,2,80,0,0
25031,-66.6666666666667,4,2,2,80,0,0
27678,-83.3333333333333,4,2,2,80,0,0
27854,-66.6666666666667,4,2,2,80,0,0
28913,-100,4,2,2,80,0,0
29089,-66.6666666666667,4,2,2,80,0,0
29266,-58.8235294117647,4,2,2,80,0,0
29442,-62.5,4,2,2,80,0,0
29619,-66.6666666666667,4,2,2,80,0,0
32442,-71.4285714285714,4,2,2,80,0,0
35266,-66.6666666666667,4,2,2,80,0,0
36148,-83.3333333333333,4,2,2,80,0,0
36325,-66.6666666666667,4,2,2,80,0,0
38972,-100,4,2,2,80,0,0
39148,-66.6666666666667,4,2,2,80,0,0
40207,-100,4,2,2,80,0,0
40383,-66.6666666666667,4,2,2,80,0,0
40560,-58.8235294117647,4,2,2,80,0,0
40736,-62.5,4,2,2,80,0,0
40913,-66.6666666666667,4,2,3,80,0,0
45678,-58.8235294117647,4,2,3,80,0,0
45854,-66.6666666666667,4,2,3,80,0,0
46560,-66.6666666666667,4,2,2,80,0,1
46648,-66.6666666666667,4,2,2,80,0,0
51501,-100,4,2,2,80,0,0
51678,-66.6666666666667,4,2,2,80,0,0
51854,-58.8235294117647,4,2,2,80,0,0
52031,-62.5,4,2,2,80,0,0
52207,-66.6666666666667,4,2,2,80,0,0
56442,-100,4,2,2,80,0,0
56619,-66.6666666666667,4,2,2,80,0,0
62795,-100,4,2,2,80,0,0
62972,-66.6666666666667,4,2,2,80,0,0
63148,-58.8235294117647,4,2,2,80,0,0
63325,-62.5,4,2,2,80,0,0
63501,-66.6666666666667,4,2,3,80,0,0
64119,-66.6666666666667,4,2,2,80,0,0
64207,-66.6666666666667,4,2,3,80,0,0
65531,-66.6666666666667,4,2,2,80,0,0
65619,-66.6666666666667,4,2,3,80,0,0
67031,-62.5,4,2,3,80,0,0
68266,-62.5,4,2,5,80,0,0
68883,-62.5,4,2,3,80,0,0
68972,-62.5,4,2,5,80,0,0
69060,-62.5,4,2,3,80,0,0
69148,-100,4,2,5,80,0,0
69325,-100,4,2,1,60,0,0
71619,-100,4,2,10,60,0,0

[Colours]
Combo1 : 70,224,160
Combo2 : 241,70,123
Combo3 : 41,178,246
Combo4 : 253,120,45

[HitObjects]
82,264,1384,6,0,L|264:280,1,100,2|0,0:0|0:0,0:0:0:0:
54,340,1736,2,0,L|-41:332,1,50,10|0,0:0|0:0,0:0:0:0:
185,361,1913,2,0,P|126:233|200:260,1,200,2|2,0:0|0:0,0:0:0:0:
167,143,2442,2,0,L|72:135,1,50,10|0,0:0|0:0,0:0:0:0:
53,188,2619,1,2,0:0:0:0:
240,108,2795,5,2,0:0:0:0:
108,16,2972,1,2,0:0:0:0:
167,143,3148,1,10,0:0:0:0:
271,0,3325,2,0,L|243:393,1,200,2|2,0:0|0:0,0:0:0:0:
174,62,3854,1,10,0:0:0:0:
314,142,4031,1,2,0:0:0:0:
481,16,4207,6,0,L|299:32,1,100,2|0,0:0|0:0,0:0:0:0:
314,142,4560,2,0,L|409:134,1,50,10|0,0:0|0:0,0:0:0:0:
381,25,4736,2,0,P|504:51|464:-2,1,200,2|2,0:0|0:0,0:0:0:0:
437,214,5266,2,0,L|445:116,1,50,10|0,0:0|0:0,0:0:0:0:
490,100,5442,1,2,0:0:0:0:
364,138,5619,5,2,0:0:0:0:
501,264,5795,1,2,0:0:0:0:
391,365,5972,1,10,0:0:0:0:
437,214,6148,2,0,L|255:230,1,100,2|0,0:0|0:0,0:0:0:0:
219,319,6501,6,0,B|201:337|201:337|229:297,1,50,2|0,0:0|0:0,0:0:0:0:
256,249,6678,2,0,B|249:225|249:225|260:248,1,50,10|0,0:0|0:0,0:0:0:0:
298,316,6854,2,0,B|322:321|322:321|252:315,1,50,2|0,0:0|0:0,0:0:0:0:
154,366,7031,6,0,P|86:286|102:276,1,100,2|0,0:0|0:0,0:0:0:0:
9,188,7383,1,10,0:0:0:0:
115,259,7560,2,0,L|-67:275,1,100,2|0,0:0|0:0,0:0:0:0:
108,179,7913,2,0,L|-74:195,1,100,2|8,0:0|0:0,0:0:0:0:
182,213,8266,1,2,0:0:0:0:
53,126,8442,6,0,P|101:25|146:50,1,100,2|2,0:0|0:0,0:0:0:0:
159,92,8795,1,10,0:0:0:0:
138,14,8972,2,0,P|202:160|109:156,1,200,2|2,0:0|0:0,0:0:0:0:
105,183,9501,1,10,0:0:0:0:
256,288,9678,1,2,0:0:0:0:
182,213,9854,6,0,L|168:405,1,100,2|0,0:0|0:0,0:0:0:0:
277,209,10207,1,10,0:0:0:0:
330,363,10384,2,0,L|344:171,1,100,2|0,0:0|0:0,0:0:0:0:
381,98,10736,1,2,0:0:0:0:
247,133,10912,1,10,0:0:0:0:
303,73,11089,1,2,0:0:0:0:
277,209,11265,5,0,0:0:0:0:
242,136,11442,1,2,0:0:0:0:
125,91,11619,1,10,0:0:0:0:
2,189,11795,1,2,0:0:0:0:
46,121,11972,6,0,L|32:-71,1,100,2|2,0:0|0:0,0:0:0:0:
36,15,12207,2,0,L|-21:-4,2,33.3333333333333,2|2|10,0:0|0:0|0:0,0:0:0:0:
202,65,12501,1,2,0:0:0:0:
109,171,12678,6,0,L|123:363,1,100,2|0,0:0|3:0,0:0:0:0:
74,340,12942,1,0,3:0:0:0:
73,346,13031,2,0,P|176:314|168:291,1,100,10|2,0:0|3:2,0:0:0:0:
198,290,13295,1,0,3:0:0:0:
198,290,13383,1,0,0:0:0:0:
35,269,13560,1,2,3:2:0:0:
35,269,13648,1,0,3:0:0:0:
35,269,13736,1,10,0:0:0:0:
159,166,13913,2,0,L|61:176,1,50,2|0,3:2|3:0,0:0:0:0:
227,211,14089,6,0,L|380:194,1,100,2|2,0:0|3:2,0:0:0:0:
384,258,14354,1,0,3:0:0:0:
388,263,14442,2,0,P|383:154|353:162,1,100,10|2,0:0|3:2,0:0:0:0:
299,73,14707,1,0,3:0:0:0:
295,77,14795,2,0,L|287:175,1,50,0|0,3:0|3:0,0:0:0:0:
372,134,14972,2,0,L|380:36,1,50,2|0,3:2|3:0,0:0:0:0:
326,200,15148,1,10,0:0:0:0:
219,54,15325,2,0,B|211:31|211:31|226:104,1,50,2|0,3:2|0:0,0:0:0:0:
291,127,15501,6,0,L|138:144,1,100,2|0,0:0|3:0,0:0:0:0:
155,211,15766,1,0,3:0:0:0:
151,216,15854,2,0,L|-2:233,1,100,10|2,0:0|3:2,0:0:0:0:
0,166,16119,1,0,3:0:0:0:
0,166,16207,1,0,0:0:0:0:
48,314,16383,1,2,3:2:0:0:
48,314,16472,1,0,3:0:0:0:
48,314,16560,1,10,0:0:0:0:
110,142,16736,2,0,L|118:44,1,50,2|0,3:2|3:0,0:0:0:0:
236,211,16913,6,0,L|222:403,1,100,2|2,0:0|3:2,0:0:0:0:
294,359,17178,1,0,3:0:0:0:
298,364,17266,2,0,P|371:288|344:268,1,100,10|2,0:0|3:2,0:0:0:0:
387,294,17531,1,0,3:0:0:0:
362,262,17619,2,0,L|264:272,1,50,0|0,3:0|3:0,0:0:0:0:
174,317,17795,6,0,L|280:305,1,55.0000016784668,2|0,3:2|3:0,0:0:0:0:
312,267,17972,2,0,L|320:160,1,55.0000016784668,10|0,0:0|0:0,0:0:0:0:
236,211,18148,2,0,L|244:104,1,55.0000016784668,2|0,3:2|0:0,0:0:0:0:
190,16,18325,6,0,P|202:115|244:115,1,100,2|0,0:0|3:0,0:0:0:0:
137,172,18589,1,0,3:0:0:0:
141,167,18678,2,0,L|294:150,1,100,10|2,0:0|3:2,0:0:0:0:
260,77,18942,1,0,3:0:0:0:
260,77,19031,1,0,0:0:0:0:
312,267,19207,1,2,3:2:0:0:
312,267,19295,1,0,3:0:0:0:
312,267,19383,1,8,0:0:0:0:
461,199,19560,2,0,L|469:101,1,50,2|0,3:2|3:0,0:0:0:0:
386,120,19736,6,0,L|372:312,1,100,2|2,0:0|3:2,0:0:0:0:
388,306,20001,1,0,3:0:0:0:
391,300,20089,2,0,P|289:300|303:348,1,100,10|2,0:0|3:2,0:0:0:0:
248,372,20354,1,0,3:0:0:0:
244,367,20442,2,0,L|252:269,1,50,0|0,3:0|3:0,0:0:0:0:
173,286,20619,2,0,L|165:384,1,50,2|0,3:2|3:0,0:0:0:0:
237,237,20795,1,10,0:0:0:0:
122,109,20972,2,0,B|114:132|114:132|128:61,1,50,2|0,3:2|0:0,0:0:0:0:
70,194,21148,6,0,L|223:177,1,100,2|0,0:0|3:0,0:0:0:0:
237,237,21413,1,0,3:0:0:0:
232,233,21501,2,0,P|280:132|325:157,1,100,10|2,0:0|3:2,0:0:0:0:
315,111,21766,1,0,3:0:0:0:
315,111,21854,1,0,0:0:0:0:
197,75,22031,1,2,3:2:0:0:
197,75,22119,1,0,3:0:0:0:
197,75,22207,1,10,0:0:0:0:
355,187,22383,2,0,L|257:197,1,50,2|0,3:2|3:0,0:0:0:0:
256,360,22560,5,12,0:1:0:0:
509,218,22736,6,0,L|498:333,1,59.9999981689454,2|0,0:1|0:0,0:0:0:0:
441,119,22913,2,0,L|432:236,1,59.9999981689454,2|0,0:1|0:0,0:0:0:0:
251,256,23089,2,0,P|336:238|336:229,1,69.9999978637696,2|0,0:1|0:0,0:0:0:0:
484,369,23266,6,0,B|490:328|490:328|474:280|419:289|399:313|406:348,1,119.999996337891,2|2,0:1|0:1,0:0:0:0:
415,313,23501,1,2,0:1:0:0:
399,316,23560,1,2,0:1:0:0:
384,309,23619,1,10,0:0:0:0:
306,192,23795,1,2,0:0:0:0:
101,311,23972,6,0,B|65:358|65:358|105:127,1,150.000005722046,14|0,0:1|0:0,0:0:0:0:
104,81,24236,1,0,0:0:0:0:
97,75,24325,2,0,L|-49:90,1,75.0000028610231,10|0,0:0|0:0,0:0:0:0:
3,244,24501,2,0,L|300:213,1,150.000005722046,2|8,0:0|0:1,0:0:0:0:
80,163,24766,5,0,0:0:0:0:
67,155,24854,2,0,P|62:157|71:155,1,59.9999981689454,2|0,0:0|0:0,0:0:0:0:
190,312,25031,1,10,0:0:0:0:
190,312,25119,1,0,0:0:0:0:
190,312,25207,2,0,L|336:297,1,75.0000028610231,2|0,0:0|0:0,0:0:0:0:
250,194,25383,6,0,B|233:226|233:226|261:124,1,75.0000028610231,10|0,0:1|0:0,0:0:0:0:
329,363,25560,2,0,B|286:301|286:301|364:155,1,150.000005722046,2|10,0:0|0:0,0:0:0:0:
460,280,25825,1,0,0:0:0:0:
454,287,25913,2,0,L|308:302,1,75.0000028610231,2|0,0:0|0:0,0:0:0:0:
329,363,26089,1,8,0:1:0:0:
410,136,26266,6,0,L|420:284,1,75.0000028610231,2|0,0:0|0:0,0:0:0:0:
496,206,26442,2,0,L|486:58,1,75.0000028610231,10|0,0:0|0:0,0:0:0:0:
381,11,26619,1,2,0:0:0:0:
381,11,26707,1,0,0:0:0:0:
381,11,26795,6,0,B|355:17|355:17|333:112|333:112|226:139,1,150.000005722046,10|0,0:1|0:0,0:0:0:0:
149,139,27060,1,0,0:0:0:0:
154,146,27148,2,0,L|165:269,1,75.0000028610231,10|0,0:0|0:0,0:0:0:0:
291,378,27325,2,0,B|299:372|299:372|320:148,1,150.000005722046,2|8,0:0|0:1,0:0:0:0:
233,257,27589,5,0,0:0:0:0:
229,263,27678,2,0,P|273:297|289:276,1,59.9999981689454,2|0,0:0|0:0,0:0:0:0:
311,138,27854,1,10,0:0:0:0:
316,127,27942,1,0,0:0:0:0:
308,118,28031,2,0,L|162:140,1,75.0000028610231,2|0,0:0|0:0,0:0:0:0:
87,232,28207,6,0,L|233:210,1,75.0000028610231,10|0,0:1|0:0,0:0:0:0:
210,367,28383,2,0,P|159:285|169:278,1,75.0000028610231,2|0,0:0|0:0,0:0:0:0:
155,109,28560,2,0,B|141:142|141:142|155:46,1,75.0000028610231,10|0,0:0|0:0,0:0:0:0:
68,326,28736,5,2,0:0:0:0:
68,326,28825,1,0,0:0:0:0:
68,326,28913,2,0,L|27:363,1,50,8|0,0:1|0:0,0:0:0:0:
61,155,29089,6,0,L|-85:177,1,75.0000028610231,2|0,0:0|0:0,0:0:0:0:
229,263,29266,2,0,L|340:370,1,85.0000016212464,10|0,0:0|0:0,0:0:0:0:
147,103,29442,2,0,L|168:-50,1,80,2|0,0:0|0:0,0:0:0:0:
13,243,29619,6,0,L|272:204,1,150.000005722046,10|0,0:1|0:0,0:0:0:0:
56,74,29883,1,0,0:0:0:0:
50,81,29972,2,0,L|71:222,1,75.0000028610231,10|0,0:0|0:0,0:0:0:0:
234,129,30148,2,0,P|117:157|141:111,1,150.000005722046,2|8,0:0|0:1,0:0:0:0:
57,326,30413,1,0,0:0:0:0:
61,319,30501,2,0,L|208:297,1,75.0000028610231,2|0,0:0|0:0,0:0:0:0:
191,367,30678,1,8,0:0:0:0:
153,140,30854,1,2,0:0:0:0:
191,367,31031,1,8,0:1:0:0:
337,243,31207,6,0,L|327:391,1,75.0000028610231,2|0,0:0|0:0,0:0:0:0:
256,237,31383,2,0,L|246:385,1,75.0000028610231,10|0,0:0|0:0,0:0:0:0:
422,178,31560,2,0,B|424:197|413:211|413:211|466:182|535:233|515:313|454:334|413:312,1,150.000005722046,2|8,0:0|0:1,0:0:0:0:
431,372,31825,1,0,0:0:0:0:
437,379,31913,2,0,P|481:302|457:286,1,75.0000028610231,2|0,0:0|0:0,0:0:0:0:
488,132,32089,1,10,0:0:0:0:
425,291,32266,1,2,0:0:0:0:
382,97,32442,6,0,B|356:106|348:147|348:147|370:34,1,139.999995727539,10|0,0:1|0:0,0:0:0:0:
500,35,32707,1,0,0:0:0:0:
505,28,32795,2,0,L|375:42,1,69.9999978637696,10|0,0:0|0:0,0:0:0:0:
422,178,32972,2,0,L|202:201,1,139.999995727539,2|8,0:0|0:1,0:0:0:0:
221,341,33236,1,0,0:0:0:0:
226,348,33325,2,0,B|256:367|256:367|342:310,1,69.9999978637696,2|0,0:0|0:0,0:0:0:0:
357,226,33501,1,10,0:0:0:0:
256,116,33678,1,2,0:0:0:0:
256,269,33854,1,8,0:1:0:0:
90,178,34031,6,0,L|73:74,1,69.9999978637696,2|0,0:0|0:0,0:0:0:0:
256,116,34207,2,0,L|256:17,1,69.9999978637696,10|0,0:0|0:0,0:0:0:0:
422,178,34383,2,0,L|439:74,1,69.9999978637696,2|0,0:0|0:0,0:0:0:0:
157,80,34560,6,0,P|154:87|158:79,1,69.9999978637696,10|0,0:1|0:0,0:0:0:0:
337,99,34736,1,2,0:0:0:0:
336,88,34795,1,2,0:0:0:0:
344,80,34854,1,2,0:0:0:0:
355,80,34913,2,0,L|338:184,1,69.9999978637696,10|0,0:0|0:0,0:0:0:0:
157,80,35089,2,0,L|174:184,1,69.9999978637696,2|0,0:0|0:0,0:0:0:0:
24,356,35266,6,0,B|33:361|33:372|33:372|33:372|33:372|96:389|154:303|71:224|-3:266|-5:321,1,150.000005722046,14|0,0:1|0:0,0:0:0:0:
23,111,35531,1,0,0:0:0:0:
14,113,35619,2,0,P|52:206|62:204,1,75.0000028610231,10|0,0:0|0:0,0:0:0:0:
157,247,35795,2,0,L|-140:278,1,150.000005722046,2|8,0:0|0:1,0:0:0:0:
83,173,36060,5,0,0:0:0:0:
90,178,36148,2,0,B|78:204|78:204|87:148,1,59.9999981689454,2|0,0:0|0:0,0:0:0:0:
97,33,36325,1,10,0:0:0:0:
93,28,36413,1,0,0:0:0:0:
89,23,36501,2,0,L|-57:38,1,75.0000028610231,2|0,0:0|0:0,0:0:0:0:
169,149,36678,6,0,L|315:134,1,75.0000028610231,10|0,0:1|0:0,0:0:0:0:
341,9,36854,2,0,B|335:57|335:57|335:57|335:57|393:31|462:98|414:185|339:180|311:137,1,150.000005722046,2|10,0:0|0:0,0:0:0:0:
329,177,37119,1,0,0:0:0:0:
320,168,37207,2,0,B|340:139|340:139|318:218,1,75.0000028610231,2|0,0:0|0:0,0:0:0:0:
292,73,37383,1,8,0:1:0:0:
419,260,37560,6,0,L|565:245,1,75.0000028610231,2|0,0:0|0:0,0:0:0:0:
486,172,37736,2,0,L|340:187,1,75.0000028610231,10|0,0:0|0:0,0:0:0:0:
345,379,37913,1,2,0:0:0:0:
345,379,38001,1,0,0:0:0:0:
345,379,38089,6,0,P|263:326|291:388,1,150.000005722046,10|0,0:1|0:0,0:0:0:0:
169,149,38354,1,0,0:0:0:0:
176,154,38442,2,0,L|166:302,1,75.0000028610231,10|0,0:0|0:0,0:0:0:0:
242,372,38619,2,0,L|255:187,1,150.000005722046,2|8,0:0|0:1,0:0:0:0:
141,305,38883,5,0,0:0:0:0:
146,310,38972,2,0,L|241:300,1,50,2|0,0:0|0:0,0:0:0:0:
335,202,39148,1,10,0:0:0:0:
331,208,39236,1,0,0:0:0:0:
327,214,39325,2,0,L|179:230,1,75.0000028610231,2|0,0:0|0:0,0:0:0:0:
91,132,39501,6,0,B|87:129|87:129|53:-2,1,75.0000028610231,10|0,0:1|0:0,0:0:0:0:
252,111,39678,2,0,B|255:108|255:108|284:-27,1,75.0000028610231,2|0,0:0|0:0,0:0:0:0:
80,212,39854,2,0,B|77:218|77:218|-56:259,1,75.0000028610231,10|0,0:0|0:0,0:0:0:0:
173,95,40031,5,2,0:0:0:0:
171,100,40119,1,0,0:0:0:0:
169,105,40207,2,0,L|181:182,1,50,8|0,0:1|0:0,0:0:0:0:
242,372,40383,6,0,L|349:286,1,75.0000028610231,2|0,0:0|0:0,0:0:0:0:
512,219,40560,2,0,L|367:162,1,85.0000016212464,10|0,0:0|0:0,0:0:0:0:
244,61,40736,2,0,L|264:192,1,80,2|0,0:0|0:0,0:0:0:0:
375,371,40913,5,10,0:1:0:0:
375,371,41089,1,0,3:0:0:0:
454,108,41266,1,10,0:0:0:0:
301,325,41442,1,2,3:2:0:0:
341,104,41619,1,8,0:1:0:0:
354,98,41707,1,8,0:3:0:0:
369,101,41795,1,10,0:3:0:0:
378,113,41883,1,8,0:3:0:0:
377,128,41972,1,8,0:0:0:0:
366,139,42060,1,8,0:3:0:0:
351,141,42148,1,10,0:3:0:0:
339,132,42236,1,8,0:3:0:0:
335,118,42325,5,8,0:1:0:0:
371,367,42502,1,2,3:2:0:0:
433,188,42678,1,10,0:0:0:0:
253,222,42854,1,2,3:2:0:0:
480,273,43031,5,8,0:1:0:0:
468,265,43119,1,8,0:3:0:0:
453,267,43207,1,10,0:3:0:0:
443,277,43295,1,8,0:3:0:0:
442,292,43383,1,10,0:0:0:0:
450,304,43472,1,8,0:3:0:0:
465,308,43560,1,2,3:0:0:0:
479,302,43648,1,8,0:3:0:0:
485,288,43736,6,0,L|337:304,1,75.0000028610231,10|0,0:1|0:0,0:0:0:0:
308,284,43913,2,0,P|325:271|308:282,1,75.0000028610231,0|0,3:0|0:0,0:0:0:0:
433,188,44089,2,0,L|285:204,1,75.0000028610231,10|0,0:0|0:0,0:0:0:0:
180,353,44266,2,0,P|245:295|230:277,1,75.0000028610231,2|0,3:0|0:0,0:0:0:0:
274,125,44442,5,8,0:1:0:0:
243,76,44531,1,8,0:3:0:0:
193,50,44619,1,2,3:0:0:0:
137,55,44707,1,8,0:3:0:0:
91,87,44795,1,10,0:0:0:0:
66,138,44883,1,8,0:3:0:0:
72,195,44972,1,2,3:0:0:0:
107,239,45060,1,8,0:3:0:0:
158,262,45148,6,0,L|306:246,1,75.0000028610231,12|8,0:1|0:3,0:0:0:0:
359,196,45325,1,2,3:0:0:0:
378,151,45413,1,8,0:3:0:0:
348,117,45501,2,0,L|200:133,1,75.0000028610231,10|8,0:3|0:3,0:0:0:0:
313,366,45678,2,0,P|247:298|280:271,1,85.0000016212464,2|8,3:0|0:3,0:0:0:0:
163,148,45854,6,0,P|170:144|164:147,1,75.0000028610231,10|8,0:3|0:3,0:0:0:0:
313,263,46031,1,2,3:0:0:0:
320,270,46089,1,2,0:0:0:0:
317,280,46148,1,2,0:0:0:0:
324,287,46207,2,0,L|472:271,1,75.0000028610231,10|8,0:0|0:3,0:0:0:0:
512,199,46383,2,0,L|364:215,1,75.0000028610231,2|8,3:0|0:3,0:0:0:0:
313,366,46560,5,14,0:1:0:0:
432,87,46736,2,0,B|406:94|406:94|384:189|384:189|275:219,1,150.000005722046,2|10,0:3|0:0,0:0:0:0:
316,127,47001,1,2,0:3:0:0:
304,118,47089,2,0,B|325:89|325:89|300:199,1,75.0000028610231,2|2,0:0|0:3,0:0:0:0:
438,207,47266,1,8,0:1:0:0:
236,73,47442,5,2,0:0:0:0:
197,68,47530,1,2,0:3:0:0:
163,88,47618,1,10,0:0:0:0:
147,124,47706,1,2,0:3:0:0:
156,162,47795,2,0,L|304:146,1,75.0000028610231,2|0,0:0|0:0,0:0:0:0:
165,332,47972,6,0,P|80:342|76:310,1,75.0000028610231,10|0,0:1|0:0,0:0:0:0:
75,163,48148,2,0,B|71:193|71:193|71:193|71:193|129:167|198:234|150:321|75:316|47:273,1,150.000005722046,2|10,0:0|0:0,0:0:0:0:
44,311,48413,1,2,0:3:0:0:
39,301,48501,2,0,B|76:292|76:292|-4:340,1,75.0000028610231,2|2,0:0|0:3,0:0:0:0:
0,230,48678,1,8,0:1:0:0:
236,73,48855,5,2,0:0:0:0:
197,68,48943,1,2,0:3:0:0:
163,88,49031,1,10,0:0:0:0:
147,124,49119,1,2,0:3:0:0:
156,162,49208,2,0,L|304:146,1,75.0000028610231,2|0,0:0|0:0,0:0:0:0:
375,364,49383,6,0,P|323:266|392:287,1,150.000005722046,10|2,0:1|0:3,0:0:0:0:
458,261,49648,1,0,0:0:0:0:
463,268,49736,2,0,P|423:338|411:335,1,75.0000028610231,10|2,0:0|0:3,0:0:0:0:
301,193,49913,2,0,B|329:197|329:197|332:196|332:196|347:279|347:279|350:277|350:277|457:299,1,150.000005722046,2|8,0:0|0:1,0:0:0:0:
491,98,50266,5,2,0:0:0:0:
452,93,50354,1,2,0:3:0:0:
418,113,50442,1,10,0:0:0:0:
402,149,50530,1,2,0:3:0:0:
411,187,50619,2,0,P|432:180|410:186,1,75.0000028610231,2|0,0:0|0:0,0:0:0:0:
268,27,50795,6,0,L|121:42,1,75.0000028610231,10|0,0:1|0:0,0:0:0:0:
72,158,50972,2,0,B|76:177|67:191|67:191|103:135|197:146|220:235|174:288|122:289,1,150.000005722046,2|10,0:0|0:0,0:0:0:0:
161,339,51236,1,2,0:3:0:0:
112,359,51325,1,2,0:0:0:0:
74,317,51413,1,2,0:3:0:0:
98,266,51501,6,0,L|195:256,1,50,8|0,0:1|0:0,0:0:0:0:
329,363,51678,6,0,P|375:279|356:264,1,75.0000028610231,2|2,0:0|0:3,0:0:0:0:
298,106,51854,2,0,L|131:123,1,85.0000016212464,10|2,0:0|0:3,0:0:0:0:
385,323,52031,2,0,L|542:307,1,80,2|0,0:0|0:0,0:0:0:0:
351,43,52207,6,0,B|311:107|311:107|375:227,1,150.000005722046,10|2,0:1|0:3,0:0:0:0:
482,95,52472,1,0,0:0:0:0:
477,102,52560,2,0,L|330:117,1,75.0000028610231,10|2,0:0|0:3,0:0:0:0:
425,188,52736,2,0,L|572:173,1,75.0000028610231,2|2,0:0|0:3,0:0:0:0:
432,30,52913,1,8,0:1:0:0:
341,254,53089,5,2,0:0:0:0:
302,276,53178,1,2,0:3:0:0:
260,262,53266,1,8,0:0:0:0:
244,221,53354,1,2,0:3:0:0:
264,182,53442,2,0,L|117:197,1,75.0000028610231,2|0,0:0|0:0,0:0:0:0:
121,145,53619,1,8,0:1:0:0:
103,368,53795,6,0,P|173:318|153:289,1,75.0000028610231,2|0,0:0|0:0,0:0:0:0:
260,262,53972,2,0,L|113:277,1,75.0000028610231,10|2,0:0|0:3,0:0:0:0:
117,226,54148,2,0,L|-30:241,1,75.0000028610231,2|2,0:0|0:3,0:0:0:0:
0,165,54325,1,8,0:1:0:0:
182,30,54501,5,2,0:0:0:0:
220,9,54589,1,2,0:3:0:0:
261,24,54678,1,10,0:0:0:0:
283,61,54766,1,2,0:3:0:0:
268,102,54854,2,0,L|121:117,1,75.0000028610231,2|0,0:0|0:0,0:0:0:0:
317,336,55031,6,0,B|324:345|324:358|324:358|324:358|324:358|387:362|429:273|344:210|277:251|275:303,1,150.000005722046,10|2,0:1|0:3,0:0:0:0:
269,186,55295,1,0,0:0:0:0:
264,182,55383,2,0,L|117:197,1,75.0000028610231,10|2,0:0|0:3,0:0:0:0:
168,351,55560,2,0,L|415:326,1,150.000005722046,2|8,0:0|0:1,0:0:0:0:
447,181,55913,5,2,0:0:0:0:
405,170,56001,1,2,0:3:0:0:
367,189,56089,1,10,0:0:0:0:
352,228,56177,1,2,0:3:0:0:
366,269,56266,2,0,L|513:254,1,75.0000028610231,2|0,0:0|0:0,0:0:0:0:
512,229,56442,1,8,0:1:0:0:
417,82,56619,6,0,L|440:-33,1,75.0000028610231,2|0,0:0|0:0,0:0:0:0:
289,111,56795,2,0,L|198:31,1,75.0000028610231,10|2,0:0|0:3,0:0:0:0:
270,256,56972,2,0,L|131:303,1,75.0000028610231,2|2,0:0|0:3,0:0:0:0:
342,50,57148,6,0,L|251:-30,1,75.0000028610231,10|0,0:1|0:0,0:0:0:0:
164,183,57325,1,2,0:0:0:0:
170,189,57383,1,2,0:0:0:0:
167,197,57442,1,2,0:0:0:0:
173,203,57501,2,0,L|312:156,1,75.0000028610231,10|2,0:0|0:3,0:0:0:0:
286,0,57678,2,0,L|377:80,1,75.0000028610231,2|0,0:0|0:0,0:0:0:0:
505,57,57854,6,0,L|492:242,1,150.000005722046,14|2,1:0|0:3,0:0:0:0:
417,82,58119,1,0,0:0:0:0:
424,88,58207,2,0,L|414:233,1,75.0000028610231,10|2,1:2|0:3,0:0:0:0:
381,373,58383,1,2,0:0:0:0:
381,373,58472,1,2,0:3:0:0:
381,373,58560,6,0,P|347:288|394:322,1,150.000005722046,8|2,1:0|0:0,0:0:0:0:
477,286,58825,1,2,0:3:0:0:
482,293,58913,2,0,P|419:360|404:350,1,75.0000028610231,10|2,1:2|0:3,0:0:0:0:
403,251,59089,2,0,B|391:286|391:286|402:220,1,75.0000028610231,2|0,0:0|0:0,0:0:0:0:
289,111,59266,6,0,L|142:126,1,75.0000028610231,10|0,1:0|0:0,0:0:0:0:
31,250,59442,2,0,L|178:235,1,75.0000028610231,2|0,0:0|0:0,0:0:0:0:
140,151,59619,1,10,1:2:0:0:
142,160,59707,2,0,B|124:174|118:211|118:211|136:99,1,150.000005722046,2|2,0:3|0:3,0:0:0:0:
106,45,59972,6,0,B|115:72|115:72|206:91|206:91|231:171,1,150.000005722046,8|2,1:0|0:0,0:0:0:0:
110,234,60236,1,2,0:3:0:0:
106,242,60325,2,0,L|-41:257,1,75.0000028610231,10|2,1:2|0:3,0:0:0:0:
52,134,60501,2,0,B|46:171|46:171|55:110,1,75.0000028610231,2|0,0:0|0:0,0:0:0:0:
1,332,60678,6,0,L|235:309,1,150.000005722046,10|2,1:0|0:3,0:0:0:0:
299,343,60942,1,0,0:0:0:0:
296,351,61031,2,0,P|216:334|221:311,1,75.0000028610231,10|0,1:2|0:3,0:0:0:0:
227,253,61207,1,2,0:0:0:0:
227,253,61295,1,2,0:3:0:0:
227,253,61383,6,0,B|223:283|223:283|223:283|223:283|281:257|350:322|302:411|227:406|199:363,1,150.000005722046,8|2,1:0|0:0,0:0:0:0:
397,334,61648,1,2,0:3:0:0:
407,336,61736,2,0,P|411:340|397:334,1,75.0000028610231,10|2,1:2|0:3,0:0:0:0:
308,261,61913,2,0,L|455:246,1,75.0000028610231,2|0,0:0|0:0,0:0:0:0:
366,48,62089,6,0,L|354:195,1,75.0000028610231,10|0,1:0|0:0,0:0:0:0:
486,318,62266,2,0,L|498:171,1,75.0000028610231,2|0,0:0|0:0,0:0:0:0:
366,48,62442,1,10,1:2:0:0:
372,41,62531,2,0,P|393:148|347:104,1,150.000005722046,2|2,0:3|0:3,0:0:0:0:
432,190,62795,6,0,B|439:165|439:165|403:228,1,50,8|0,1:0|0:0,0:0:0:0:
285,41,62972,6,0,L|273:188,1,75.0000028610231,2|2,0:0|0:3,0:0:0:0:
168,365,63148,2,0,L|182:198,1,85.0000016212464,10|2,1:2|0:3,0:0:0:0:
135,159,63325,2,0,L|289:176,1,80,2|0,0:0|0:0,0:0:0:0:
364,127,63501,5,10,1:0:0:0:
364,127,63678,1,0,3:0:0:0:
279,350,63854,1,10,1:2:0:0:
502,178,64031,2,0,L|355:193,1,75.0000028610231,2|2,3:2|0:3,0:0:0:0:
255,272,64207,5,8,1:0:0:0:
282,260,64295,1,8,0:3:0:0:
311,263,64384,1,10,0:3:0:0:
335,281,64472,1,8,0:3:0:0:
348,308,64560,1,8,1:2:0:0:
361,335,64648,1,8,0:3:0:0:
385,353,64737,1,10,0:3:0:0:
414,356,64825,1,8,0:3:0:0:
441,344,64913,5,8,1:0:0:0:
363,127,65089,1,2,3:2:0:0:
501,268,65266,1,10,1:2:0:0:
496,263,65354,1,0,0:0:0:0:
491,258,65442,2,0,L|344:273,1,75.0000028610231,2|2,3:2|0:3,0:0:0:0:
279,350,65619,5,8,1:0:0:0:
244,367,65707,1,8,0:3:0:0:
205,368,65795,1,10,0:3:0:0:
171,351,65883,1,8,0:3:0:0:
147,321,65971,1,10,1:2:0:0:
139,283,66060,1,8,0:3:0:0:
150,245,66148,1,10,0:3:0:0:
176,217,66236,1,8,0:3:0:0:
212,203,66325,5,10,1:0:0:0:
169,213,66414,1,8,0:3:0:0:
131,189,66502,1,0,3:0:0:0:
121,145,66590,1,8,0:3:0:0:
145,106,66678,1,10,1:2:0:0:
183,65,66766,1,8,0:3:0:0:
166,12,66854,1,2,3:0:0:0:
111,1,66942,1,8,0:3:0:0:
75,45,67031,6,0,L|-72:60,1,80,8|8,1:0|0:3,0:0:0:0:
226,127,67207,2,0,L|373:112,1,80,2|8,3:0|0:3,0:0:0:0:
189,375,67383,1,10,1:2:0:0:
171,321,67471,1,8,0:3:0:0:
196,271,67559,1,2,3:0:0:0:
249,254,67647,1,8,0:3:0:0:
298,280,67736,6,0,L|311:123,1,80,12|8,1:0|0:3,0:0:0:0:
383,0,67913,2,0,L|370:157,1,80,2|8,3:0|0:3,0:0:0:0:
298,280,68089,5,10,1:3:0:0:
366,316,68177,1,8,0:3:0:0:
439,291,68266,1,10,3:1:0:0:
476,225,68354,1,8,0:1:0:0:
455,152,68442,6,0,L|308:167,1,80,10|0,1:2|0:0,0:0:0:0:
298,22,68619,1,10,0:1:0:0:
301,28,68678,1,2,0:1:0:0:
296,33,68736,1,2,0:1:0:0:
299,39,68795,2,0,L|152:54,1,80,10|8,1:2|0:3,0:0:0:0:
36,200,68972,2,0,P|34:218|41:197,1,80,10|8,0:1|0:3,0:0:0:0:
152,93,69148,5,12,0:1:0:0:
225,245,69325,6,0,L|63:261,1,100,2|0,0:0|0:0,0:0:0:0:
132,336,69589,2,0,L|294:320,1,100,2|0,0:0|0:0,0:0:0:0:
299,366,69854,6,0,P|248:299|305:305,1,100,2|0,0:0|0:0,0:0:0:0:
225,245,70119,2,0,L|63:261,1,100,2|0,0:0|0:0,0:0:0:0:
59,301,70383,1,2,0:0:0:0:
87,74,70560,5,0,0:0:0:0:
21,157,70736,2,0,B|32:134|32:134|-11:190,1,50,2|0,0:0|0:0,0:0:0:0:
119,175,70913,2,0,B|110:150|110:150|121:223,1,50,2|0,0:0|0:0,0:0:0:0:
189,101,71089,2,0,B|166:90|166:90|224:135,1,50,2|0,0:0|0:0,0:0:0:0:
192,8,71266,6,0,L|108:17,1,50,2|0,0:0|0:0,0:0:0:0:
316,112,71442,2,0,L|296:174,2,33.3333333333333,2|2|2,0:0|0:0|0:0,0:0:0:0:
320,106,71619,2,0,L|404:97,1,50,10|0,1:2|0:0,0:0:0:0:
256,57,71795,1,2,0:0:0:0:
