osu file format v14

[General]
AudioFilename: audio.mp3
AudioLeadIn: 0
PreviewTime: 23950
Countdown: 0
SampleSet: Soft
StackLeniency: 0.4
Mode: 0
LetterboxInBreaks: 0
WidescreenStoryboard: 1

[Editor]
Bookmarks: 12678,22560,23972,29619,35266,40913,46560,52207,57854,63501,69148
DistanceSpacing: 1
BeatDivisor: 4
GridSize: 32
TimelineZoom: 1

[Metadata]
Title:Opening
TitleUnicode:Opening
Artist:DJ Genki
ArtistUnicode:DJ Genki
Creator:Chaoslitz
Version:Chu's Insane
Source:
Tags:gram Starry Orange electronic instrumental featured artist fa mappers' guild mg mpg AirinCat arronchu1207 Sanayui not your kitty not_your_kitty iRedi PAJWOJ Outright
BeatmapID:4512298
BeatmapSetID:2142885

[Difficulty]
HPDrainRate:5
CircleSize:4
OverallDifficulty:7.5
ApproachRate:9
SliderMultiplier:1.6
SliderTickRate:1

[Events]
//Background and Video events
0,0,"bg4.jpg",0,0
//Break Periods
//Storyboard Layer 0 (Background)
//Storyboard Layer 1 (Fail)
//Storyboard Layer 2 (Pass)
//Storyboard Layer 3 (Foreground)
//Storyboard Layer 4 (Overlay)
//Storyboard Sound Samples

[TimingPoints]
1384,352.941176470588,4,2,1,50,1,0
1384,-125,4,2,1,50,0,0
12678,-125,4,2,1,60,0,0
22560,-125,4,2,5,75,0,0
22736,-125,4,2,1,75,0,0
23618,-125,4,2,5,75,0,0
23972,-100,4,2,2,80,0,0
40913,-100,4,2,3,80,0,0
46560,-100,4,2,2,80,0,0
63501,-100,4,2,3,80,0,0
64119,-100,4,2,2,80,0,0
64207,-100,4,2,3,80,0,0
68266,-100,4,2,5,80,0,0
68883,-100,4,2,3,80,0,0
68972,-66.6666666666667,4,2,5,80,0,0

[Colours]
Combo1 : 70,224,160
Combo2 : 241,70,123
Combo3 : 41,178,246
Combo4 : 253,120,45

[HitObjects]
287,67,1384,6,0,P|342:55|411:107,1,128,2|10,0:0|0:0,0:0:0:0:
379,188,1913,2,0,P|324:199|254:147,1,128,2|2,0:0|0:0,0:0:0:0:
182,45,2442,2,0,P|187:77|194:121,1,64,10|2,0:0|0:0,0:0:0:0:
112,203,2795,5,2,0:0:0:0:
28,184,2972,1,2,0:0:0:0:
112,203,3148,5,10,0:0:0:0:
28,184,3325,1,2,0:0:0:0:
98,314,3501,5,0,0:0:0:0:
98,314,3678,2,0,P|147:307|170:305,2,64,2|10|2,0:0|0:0|0:0,0:0:0:0:
249,324,4207,6,0,P|301:357|363:347,1,128,2|10,0:0|0:0,0:0:0:0:
386,249,4736,2,0,P|333:215|271:226,1,128,2|2,0:0|0:0,0:0:0:0:
148,158,5266,2,0,P|191:153|219:149,1,64,10|2,0:0|0:0,0:0:0:0:
313,36,5619,5,2,0:0:0:0:
226,21,5795,1,2,0:0:0:0:
313,36,5972,5,10,0:0:0:0:
226,21,6148,1,2,0:0:0:0:
306,126,6325,5,0,0:0:0:0:
306,126,6501,2,0,P|337:130|369:133,2,64,2|10|2,0:0|0:0|0:0,0:0:0:0:
240,247,7031,6,0,P|233:208|226:168,1,64,2|0,0:0|0:0,0:0:0:0:
326,288,7383,1,10,0:0:0:0:
326,288,7560,2,0,P|331:256|337:224,1,64,2|0,0:0|0:0,0:0:0:0:
242,329,7913,2,0,P|235:290|228:250,1,64,2|8,0:0|0:0,0:0:0:0:
341,384,8266,6,0,P|375:361|472:358,1,128,2|2,0:0|0:0,0:0:0:0:
507,280,8795,1,10,0:0:0:0:
416,182,8972,2,0,P|382:205|285:208,1,128,2|2,0:0|0:0,0:0:0:0:
204,113,9501,2,0,P|248:120|280:124,1,64,10|2,0:0|0:0,0:0:0:0:
139,169,9854,6,0,P|95:162|63:158,1,64,2|0,0:0|0:0,0:0:0:0:
9,269,10207,1,10,0:0:0:0:
83,319,10383,2,0,P|87:287|92:255,1,64,2|0,0:0|0:0,0:0:0:0:
219,191,10736,1,2,0:0:0:0:
233,273,10913,1,10,0:0:0:0:
247,354,11089,1,2,0:0:0:0:
247,354,11442,5,2,0:0:0:0:
324,321,11619,1,10,0:0:0:0:
391,369,11795,1,2,0:0:0:0:
468,336,11972,2,0,P|476:296|468:259,1,64,2|2,0:0|0:0,0:0:0:0:
456,250,12207,2,0,L|418:245,2,21.3333333333333,2|2|10,0:0|0:0|0:0,0:0:0:0:
510,186,12501,1,2,0:0:0:0:
402,103,12678,6,0,P|349:110|324:113,1,64,2|0,0:0|3:0,0:0:0:0:
317,104,12942,1,0,3:0:0:0:
317,104,13031,1,10,0:0:0:0:
235,63,13207,2,0,P|231:31|226:0,1,64,2|0,3:2|0:0,0:0:0:0:
169,128,13560,1,2,3:2:0:0:
169,128,13648,1,0,3:0:0:0:
169,128,13736,2,0,P|165:159|160:191,1,64,10|2,0:0|3:2,0:0:0:0:
219,253,14089,5,2,0:0:0:0:
157,316,14266,1,2,3:2:0:0:
157,316,14354,1,0,3:0:0:0:
157,316,14442,2,0,P|126:320|94:325,1,64,10|2,0:0|3:2,0:0:0:0:
219,253,14795,1,0,3:0:0:0:
284,360,14972,1,2,3:2:0:0:
284,360,15060,1,0,3:0:0:0:
284,360,15148,2,0,P|315:364|347:369,1,64,10|2,0:0|3:2,0:0:0:0:
477,298,15501,6,0,P|446:302|414:307,1,64,2|0,0:0|3:0,0:0:0:0:
394,293,15766,1,0,3:0:0:0:
394,293,15854,1,10,0:0:0:0:
434,209,16031,2,0,P|429:177|424:145,1,64,2|0,3:2|0:0,0:0:0:0:
345,29,16383,1,2,3:2:0:0:
345,29,16472,1,0,3:0:0:0:
345,29,16560,2,0,P|349:60|354:92,1,64,10|2,0:0|3:2,0:0:0:0:
301,163,16913,5,2,0:0:0:0:
231,111,17089,1,2,3:2:0:0:
231,111,17178,1,0,3:0:0:0:
231,111,17266,2,0,P|199:115|167:120,1,64,10|2,0:0|3:2,0:0:0:0:
301,163,17619,1,0,3:0:0:0:
197,249,17795,1,2,3:2:0:0:
197,249,17884,1,0,3:0:0:0:
197,249,17972,2,0,P|165:245|133:240,1,64,10|2,0:0|3:2,0:0:0:0:
255,330,18325,6,0,P|287:326|319:321,1,64,2|0,0:0|3:0,0:0:0:0:
338,337,18589,1,0,3:0:0:0:
338,337,18678,1,10,0:0:0:0:
401,271,18854,2,0,P|405:239|410:207,1,64,2|0,3:2|0:0,0:0:0:0:
360,82,19207,1,2,3:2:0:0:
360,82,19295,1,0,3:0:0:0:
360,82,19383,2,0,P|355:113|351:145,1,64,8|2,0:0|3:2,0:0:0:0:
285,201,19736,5,2,0:0:0:0:
215,149,19913,1,2,3:2:0:0:
215,149,20001,1,0,3:0:0:0:
215,149,20089,2,0,P|183:153|151:157,1,64,10|2,0:0|3:2,0:0:0:0:
49,234,20442,5,0,3:0:0:0:
132,253,20619,1,2,3:2:0:0:
32,319,20795,5,10,0:0:0:0:
115,338,20972,1,2,3:2:0:0:
42,220,21148,6,0,P|38:188|34:156,1,64,2|0,0:0|3:0,0:0:0:0:
45,132,21413,1,0,3:0:0:0:
45,132,21501,1,10,0:0:0:0:
135,29,21678,2,0,P|131:61|127:93,1,64,2|0,3:2|0:0,0:0:0:0:
212,176,22031,5,2,3:2:0:0:
309,144,22207,1,10,0:0:0:0:
232,77,22383,1,2,3:2:0:0:
206,194,22560,5,12,0:1:0:0:
368,287,22736,5,2,0:1:0:0:
486,247,22912,1,2,0:1:0:0:
392,165,23088,1,2,0:1:0:0:
271,317,23266,1,2,0:1:0:0:
436,359,23442,6,0,L|464:353,3,21.3333333333333,2|2|2|10,0:1|0:1|0:1|0:0,0:0:0:0:
368,287,23795,1,2,0:0:0:0:
192,361,23972,6,0,P|128:367|79:314,1,120,14|0,0:1|0:0,0:0:0:0:
87,333,24325,1,10,0:0:0:0:
115,124,24501,2,0,P|123:168|129:211,1,80,2|8,0:0|0:1,0:0:0:0:
176,47,24854,1,2,0:0:0:0:
22,123,25031,1,10,0:0:0:0:
166,32,25207,1,2,0:0:0:0:
232,177,25383,6,0,P|224:221|218:264,1,80,10|2,0:1|0:0,0:0:0:0:
346,104,25736,2,0,P|338:64|332:25,1,80,10|2,0:0|0:0,0:0:0:0:
496,243,26089,1,8,0:1:0:0:
391,199,26266,1,2,0:0:0:0:
500,140,26442,1,10,0:0:0:0:
418,308,26619,1,2,0:0:0:0:
381,182,26795,6,0,P|368:114|364:92,1,80,10|0,0:1|0:0,0:0:0:0:
358,75,27060,1,0,0:0:0:0:
358,75,27148,1,10,0:0:0:0:
207,13,27325,2,0,P|220:81|224:103,1,80,2|8,0:0|0:1,0:0:0:0:
122,240,27678,5,2,0:0:0:0:
19,98,27854,1,10,0:0:0:0:
140,139,28031,1,2,0:0:0:0:
0,279,28207,5,10,0:1:0:0:
209,213,28383,1,2,0:0:0:0:
49,188,28560,5,10,0:0:0:0:
240,304,28736,1,2,0:0:0:0:
133,354,28913,5,8,0:1:0:0:
308,181,29089,1,2,0:0:0:0:
291,94,29266,1,10,0:0:0:0:
275,7,29442,1,2,0:0:0:0:
452,91,29619,6,0,P|457:134|440:180,1,80,10|0,0:1|0:0,0:0:0:0:
424,195,29884,1,0,0:0:0:0:
424,195,29972,1,10,0:0:0:0:
275,7,30148,2,0,L|357:19,1,80,2|8,0:0|0:1,0:0:0:0:
106,70,30501,2,0,L|188:82,1,80,2|8,0:0|0:0,0:0:0:0:
250,247,30854,6,0,L|261:167,1,80,2|8,0:0|0:1,0:0:0:0:
354,18,31207,1,2,0:0:0:0:
457,69,31383,1,10,0:0:0:0:
343,31,31560,2,0,L|354:110,1,80,2|8,0:0|0:1,0:0:0:0:
498,260,31913,5,2,0:0:0:0:
411,245,32089,1,10,0:0:0:0:
323,231,32266,1,2,0:0:0:0:
191,362,32442,6,0,P|255:371|313:322,1,120,10|0,0:1|0:0,0:0:0:0:
299,342,32795,1,10,0:0:0:0:
139,267,32972,2,0,P|83:258|52:251,1,80,2|8,0:0|0:1,0:0:0:0:
0,328,33325,1,2,0:0:0:0:
151,259,33501,1,10,0:0:0:0:
89,379,33678,1,2,0:0:0:0:
13,172,33854,6,0,P|7:117|0:72,1,80,8|2,0:1|0:0,0:0:0:0:
194,2,34207,2,0,P|198:41|203:81,1,80,10|2,0:0|0:0,0:0:0:0:
358,200,34560,6,0,P|401:213|456:199,1,80,10|2,0:1|0:0,0:0:0:0:
450,198,34795,2,0,L|457:156,2,26.6666666666667,2|2|10,0:0|0:0|0:0,0:0:0:0:
506,280,35089,1,2,0:0:0:0:
309,384,35266,6,0,P|298:317|288:261,1,120,14|0,0:1|0:0,0:0:0:0:
288,265,35619,1,10,0:0:0:0:
224,57,35795,2,0,P|214:133|208:152,1,80,2|8,0:0|0:1,0:0:0:0:
139,192,36148,1,2,0:0:0:0:
306,124,36325,1,10,0:0:0:0:
118,76,36501,1,2,0:0:0:0:
321,113,36678,6,0,P|367:108|416:101,1,80,10|2,0:1|0:0,0:0:0:0:
499,257,37031,2,0,P|459:251|419:247,1,80,10|2,0:0|0:0,0:0:0:0:
255,352,37383,1,8,0:1:0:0:
358,324,37560,1,2,0:0:0:0:
231,254,37736,1,10,0:0:0:0:
365,344,37913,1,2,0:0:0:0:
386,162,38089,6,0,P|375:108|366:69,1,80,10|0,0:1|0:0,0:0:0:0:
377,53,38354,1,0,0:0:0:0:
377,53,38442,1,10,0:0:0:0:
210,1,38619,2,0,P|201:40|193:79,1,80,2|8,0:0|0:1,0:0:0:0:
34,216,38972,1,2,0:0:0:0:
2,81,39148,1,10,0:0:0:0:
126,162,39325,1,2,0:0:0:0:
8,67,39501,6,0,P|64:60|115:52,1,80,10|2,0:1|0:0,0:0:0:0:
205,151,39854,2,0,P|149:158|98:166,1,80,10|2,0:0|0:0,0:0:0:0:
5,280,40207,1,8,0:1:0:0:
222,374,40383,5,2,0:0:0:0:
112,252,40560,1,10,0:0:0:0:
42,381,40736,1,2,0:0:0:0:
244,239,40913,6,0,P|308:248|335:255,1,80,10|0,0:1|3:0,0:0:0:0:
458,46,41266,1,10,0:0:0:0:
487,161,41442,2,0,P|423:152|396:145,1,80,2|8,3:2|0:1,0:0:0:0:
338,83,41707,1,8,0:3:0:0:
338,83,41795,2,0,L|329:32,1,40,10|8,0:3|0:3,0:0:0:0:
249,64,41972,2,0,L|240:13,1,40,8|8,0:0|0:3,0:0:0:0:
160,45,42148,2,0,L|151:-6,1,40,10|8,0:3|0:3,0:0:0:0:
28,133,42325,6,0,P|10:186|14:224,1,80,8|2,0:1|3:2,0:0:0:0:
201,371,42678,2,0,P|219:318|215:280,1,80,10|2,0:0|3:2,0:0:0:0:
108,192,43031,1,8,0:1:0:0:
108,192,43120,1,8,0:3:0:0:
108,192,43208,2,0,L|148:200,1,40,10|8,0:3|0:3,0:0:0:0:
251,120,43383,2,0,L|211:127,1,40,10|8,0:0|0:3,0:0:0:0:
304,196,43560,2,0,L|344:204,1,40,2|8,3:0|0:3,0:0:0:0:
437,133,43736,6,0,P|445:106|442:81,3,40,10|0|0|0,0:1|0:0|3:0|0:0,0:0:0:0:
447,28,44089,2,0,P|439:55|442:80,1,40,10|0,0:0|0:0,0:0:0:0:
512,232,44266,6,0,P|485:224|460:227,3,40,2|0|8|8,3:0|0:0|0:1|0:3,0:0:0:0:
415,223,44619,2,0,P|442:231|467:228,1,40,2|8,3:0|0:3,0:0:0:0:
512,330,44795,2,0,P|485:322|460:325,1,40,10|8,0:0|0:3,0:0:0:0:
386,367,44972,2,0,P|359:375|334:372,1,40,2|8,3:0|0:3,0:0:0:0:
249,321,45148,5,12,0:1:0:0:
316,168,45325,1,2,3:0:0:0:
316,168,45413,1,8,0:3:0:0:
316,168,45501,2,0,P|310:118|306:96,3,40,10|8|2|8,0:3|0:3|3:0|0:3,0:0:0:0:
379,58,45854,5,10,0:3:0:0:
379,58,45942,1,8,0:3:0:0:
379,58,46031,2,0,P|429:52|451:48,1,40,2|0,3:0|0:0,0:0:0:0:
254,9,46207,5,10,0:0:0:0:
254,9,46295,1,8,0:3:0:0:
254,9,46384,2,0,P|204:15|182:19,1,40,2|8,3:0|0:3,0:0:0:0:
105,97,46560,6,0,P|49:87|14:73,1,80,14|2,0:1|0:3,0:0:0:0:
197,170,46913,1,10,0:0:0:0:
126,255,47089,1,2,0:0:0:0:
126,255,47178,1,2,0:3:0:0:
126,255,47266,2,0,P|113:293|108:332,1,80,8|2,0:1|0:0,0:0:0:0:
8,178,47619,1,10,0:0:0:0:
197,170,47795,1,2,0:0:0:0:
197,170,47883,1,0,0:0:0:0:
197,170,47972,6,0,L|303:158,1,80,10|2,0:1|0:0,0:0:0:0:
443,38,48325,1,10,0:0:0:0:
443,38,48413,2,0,L|348:24,1,80,2|2,0:3|0:3,0:0:0:0:
338,10,48678,1,8,0:1:0:0:
451,138,48854,1,2,0:0:0:0:
330,249,49031,1,10,0:0:0:0:
330,249,49119,1,2,0:3:0:0:
330,249,49207,2,0,L|282:256,1,40,2|0,0:0|0:0,0:0:0:0:
213,203,49383,6,0,B|172:186|126:184,1,80,10|2,0:1|0:3,0:0:0:0:
16,21,49736,1,10,0:0:0:0:
112,62,49913,1,2,0:0:0:0:
112,62,50001,1,2,0:3:0:0:
112,62,50089,2,0,L|198:49,1,80,8|2,0:1|0:0,0:0:0:0:
274,6,50354,1,2,0:3:0:0:
274,6,50442,2,0,L|329:13,1,40,10|2,0:0|0:3,0:0:0:0:
383,81,50619,2,0,L|438:74,1,40,2|0,0:0|0:0,0:0:0:0:
488,152,50795,6,0,P|505:205|504:239,1,80,10|2,0:1|0:0,0:0:0:0:
271,306,51148,1,10,0:0:0:0:
271,306,51236,2,0,L|285:204,1,80,2|2,0:3|0:3,0:0:0:0:
270,198,51501,1,8,0:1:0:0:
183,359,51678,5,2,0:0:0:0:
370,277,51854,1,10,0:0:0:0:
192,166,52031,1,2,0:0:0:0:
192,166,52119,1,0,0:0:0:0:
192,166,52207,6,0,P|145:174|102:179,1,80,10|2,0:1|0:3,0:0:0:0:
3,237,52560,1,10,0:0:0:0:
92,384,52736,2,0,P|97:344|103:304,1,80,2|8,0:0|0:1,0:0:0:0:
28,58,53089,2,0,P|22:97|16:137,1,80,2|8,0:0|0:0,0:0:0:0:
85,199,53354,1,2,0:3:0:0:
85,199,53442,2,0,L|146:188,1,40,2|0,0:0|0:0,0:0:0:0:
221,132,53619,6,0,L|313:146,1,80,8|2,0:1|0:0,0:0:0:0:
412,277,53972,1,10,0:0:0:0:
412,277,54060,2,0,P|398:323|398:357,1,80,2|2,0:3|0:3,0:0:0:0:
410,379,54325,1,8,0:1:0:0:
394,155,54501,1,2,0:0:0:0:
512,288,54678,1,10,0:0:0:0:
312,239,54854,1,2,0:0:0:0:
312,239,54942,1,0,0:0:0:0:
312,239,55031,6,0,P|258:249|223:257,1,80,10|2,0:1|0:3,0:0:0:0:
122,82,55383,1,10,0:0:0:0:
6,181,55560,1,2,0:0:0:0:
6,181,55648,1,2,0:3:0:0:
6,181,55736,2,0,P|60:171|95:163,1,80,8|2,0:1|0:0,0:0:0:0:
273,13,56089,1,10,0:0:0:0:
218,147,56266,1,2,0:0:0:0:
369,49,56442,6,0,P|381:114|378:150,1,80,8|2,0:1|0:0,0:0:0:0:
311,312,56795,2,0,P|299:247|302:211,1,80,10|2,0:0|0:0,0:0:0:0:
408,278,57148,1,10,0:1:0:0:
194,370,57325,2,0,L|221:376,2,26.6666666666667,2|2|2,0:0|0:0|0:0,0:0:0:0:
177,356,57501,2,0,P|123:348|96:340,1,80,10|2,0:0|0:0,0:0:0:0:
5,193,57854,5,14,1:0:0:0:
5,193,58031,1,2,0:3:0:0:
182,109,58207,1,10,1:2:0:0:
46,16,58383,1,2,0:0:0:0:
46,16,58472,1,2,0:3:0:0:
46,16,58560,2,0,P|59:74|62:106,1,80,8|2,1:0|0:0,0:0:0:0:
114,169,58825,1,2,0:3:0:0:
114,169,58913,2,0,P|107:208|105:220,1,40,10|2,1:2|0:3,0:0:0:0:
195,205,59089,2,0,P|188:244|186:256,1,40,2|0,0:0|0:0,0:0:0:0:
304,132,59266,6,0,P|354:124|400:119,1,80,10|2,1:0|0:0,0:0:0:0:
512,277,59619,2,0,P|462:285|416:290,1,80,10|2,1:2|0:0,0:0:0:0:
364,340,59883,1,2,0:3:0:0:
364,340,59972,2,0,P|321:333|313:332,1,40,8|0,1:0|0:0,0:0:0:0:
231,262,60148,2,0,P|224:219|223:211,1,40,2|2,0:0|0:3,0:0:0:0:
158,334,60325,2,0,P|155:353|151:373,1,40,10|2,1:2|0:3,0:0:0:0:
75,284,60501,2,0,P|55:286|35:290,1,40,2|0,0:0|0:0,0:0:0:0:
128,197,60678,5,10,1:0:0:0:
249,101,60854,1,2,0:3:0:0:
131,3,61031,1,10,1:2:0:0:
13,110,61207,1,2,0:0:0:0:
13,110,61295,1,2,0:3:0:0:
13,110,61383,2,0,P|61:100|114:97,1,80,8|2,1:0|0:0,0:0:0:0:
245,4,61736,1,10,1:2:0:0:
175,159,61913,6,0,L|167:218,1,40,2|0,0:0|0:0,0:0:0:0:
139,287,62089,2,0,P|151:341|150:381,1,80,10|2,1:0|0:0,0:0:0:0:
317,233,62442,2,0,P|307:194|305:155,1,80,10|2,1:2|0:0,0:0:0:0:
360,81,62707,1,2,0:3:0:0:
360,81,62795,2,0,L|419:87,1,40,8|0,1:0|0:0,0:0:0:0:
508,154,62972,2,0,L|468:149,1,40,2|2,0:0|0:3,0:0:0:0:
406,264,63148,2,0,L|401:303,1,40,10|2,1:2|0:3,0:0:0:0:
489,360,63325,2,0,L|493:320,1,40,2|0,0:0|0:0,0:0:0:0:
285,287,63501,5,10,1:0:0:0:
203,253,63678,1,0,3:0:0:0:
122,288,63854,1,10,1:2:0:0:
43,382,64031,2,0,L|37:328,1,40,2|2,3:2|0:3,0:0:0:0:
16,231,64207,5,8,1:0:0:0:
14,211,64295,1,8,0:3:0:0:
16,191,64383,1,10,0:3:0:0:
23,172,64472,1,8,0:3:0:0:
34,155,64560,2,0,L|92:146,3,40,8|8|10|8,1:2|0:3|0:3|0:3,0:0:0:0:
148,187,64913,5,8,1:0:0:0:
311,96,65089,1,2,3:2:0:0:
166,3,65266,1,10,1:2:0:0:
245,163,65442,1,2,3:2:0:0:
414,27,65619,5,8,1:0:0:0:
414,27,65707,1,8,0:3:0:0:
414,27,65795,1,10,0:3:0:0:
414,27,65883,1,8,0:3:0:0:
414,27,65972,2,0,L|464:20,3,40,10|8|10|8,1:2|0:3|0:3|0:3,0:0:0:0:
505,110,66325,6,0,L|465:115,3,40,10|8|0|8,1:0|0:3|3:0|0:3,0:0:0:0:
401,188,66678,2,0,L|361:182,1,40,10|8,1:2|0:3,0:0:0:0:
283,85,66854,6,0,L|288:124,3,40,2|8|8|8,3:0|0:3|1:0|0:3,0:0:0:0:
228,198,67207,2,0,L|234:238,1,40,2|8,3:0|0:3,0:0:0:0:
148,143,67383,2,0,L|108:148,1,40,10|8,1:2|0:3,0:0:0:0:
45,225,67560,2,0,L|5:219,1,40,2|8,3:0|0:3,0:0:0:0:
58,240,67736,5,12,1:0:0:0:
126,353,67913,1,2,3:0:0:0:
126,353,68001,1,8,0:3:0:0:
126,353,68089,2,0,L|172:345,1,40,10|8,1:3|0:3,0:0:0:0:
249,279,68266,5,10,3:1:0:0:
287,270,68354,1,8,0:1:0:0:
311,301,68442,2,0,L|303:359,1,40,10|0,1:2|0:0,0:0:0:0:
460,240,68619,5,10,0:1:0:0:
422,231,68707,1,8,0:1:0:0:
398,262,68795,2,0,L|406:320,1,40,10|8,1:2|0:3,0:0:0:0:
329,189,68972,6,0,B|337:114|315:138|329:53,1,120.000004577637,10|12,0:1|0:1,0:0:0:0:
