osu file format v14

[General]
AudioFilename: audio.mp3
AudioLeadIn: 0
PreviewTime: 23950
Countdown: 0
SampleSet: Soft
StackLeniency: 0.7
Mode: 0
LetterboxInBreaks: 0
WidescreenStoryboard: 1

[Editor]
Bookmarks: 12678,22560,23972,29619,35266,40913,46560,52207,57854,63501,69148
DistanceSpacing: 3
BeatDivisor: 4
GridSize: 32
TimelineZoom: 1.4

[Metadata]
Title:Opening
TitleUnicode:Opening
Artist:DJ Genki
ArtistUnicode:DJ Genki
Creator:Chaoslitz
Version:Airin's Insane
Source:
Tags:gram Starry Orange electronic instrumental featured artist fa mappers' guild mg mpg AirinCat arronchu1207 Sanayui not your kitty not_your_kitty iRedi PAJWOJ Outright
BeatmapID:4510959
BeatmapSetID:2142885

[Difficulty]
HPDrainRate:5
CircleSize:4
OverallDifficulty:8
ApproachRate:9
SliderMultiplier:1.4
SliderTickRate:1

[Events]
//Background and Video events
0,0,"bg4.jpg",0,0
//Break Periods
//Storyboard Layer 0 (Background)
//Storyboard Layer 1 (Fail)
//Storyboard Layer 2 (Pass)
//Storyboard Layer 3 (Foreground)
//Storyboard Layer 4 (Overlay)
//Storyboard Sound Samples

[TimingPoints]
1384,352.941176470588,4,2,1,50,1,0
12678,-100,4,2,1,60,0,0
17795,-100,4,2,1,60,0,0
22560,-100,4,2,5,75,0,0
22736,-100,4,2,1,75,0,0
23619,-100,4,2,5,75,0,0
23972,-83.3333333333333,4,2,2,80,0,0
24854,-83.3333333333333,4,2,2,80,0,0
25031,-83.3333333333333,4,2,2,80,0,0
27678,-83.3333333333333,4,2,2,80,0,0
27854,-83.3333333333333,4,2,2,80,0,0
28913,-83.3333333333333,4,2,2,80,0,0
29089,-66.6666666666667,4,2,2,80,0,0
29266,-66.6666666666667,4,2,2,80,0,0
29442,-66.6666666666667,4,2,2,80,0,0
29619,-83.3333333333333,4,2,2,80,0,0
32442,-83.3333333333333,4,2,2,80,0,0
35266,-83.3333333333333,4,2,2,80,0,0
38972,-83.3333333333333,4,2,2,80,0,0
39148,-83.3333333333333,4,2,2,80,0,0
40913,-83.3333333333333,4,2,3,80,0,0
46560,-66.6666666666667,4,2,2,80,0,0
63501,-66.6666666666667,4,2,3,80,0,0
64119,-66.6666666666667,4,2,2,80,0,0
64207,-66.6666666666667,4,2,3,80,0,0
65531,-66.6666666666667,4,2,2,80,0,0
65619,-66.6666666666667,4,2,3,80,0,0
68266,-66.6666666666667,4,2,5,80,0,0
68883,-66.6666666666667,4,2,3,80,0,0
68972,-66.6666666666667,4,2,5,80,0,0
69060,-66.6666666666667,4,2,3,80,0,0
69148,-66.6666666666667,4,2,5,80,0,0
69325,-66.6666666666667,4,2,1,60,0,0
71619,-66.6666666666667,4,2,10,60,0,0

[Colours]
Combo1 : 70,224,160
Combo2 : 241,70,123
Combo3 : 41,178,246
Combo4 : 253,120,45

[HitObjects]
45,338,12678,6,0,P|0:285|0:217,1,140,2|10,0:0|0:0,0:0:0:0:
105,174,13207,2,0,P|150:230|149:296,1,140,2|2,3:2|3:2,0:0:0:0:
139,298,13648,1,0,3:0:0:0:
128,298,13736,2,0,P|168:286|212:274,1,70,10|2,0:0|3:2,0:0:0:0:
427,312,14089,5,2,0:0:0:0:
364,363,14266,1,2,3:2:0:0:
290,322,14442,1,10,0:0:0:0:
300,238,14619,2,0,P|288:154|280:89,1,140,2|2,3:2|3:2,0:0:0:0:
210,43,15148,1,10,0:0:0:0:
281,99,15325,6,0,P|347:113|407:79,1,140,2|0,3:2|3:0,0:0:0:0:
512,225,15854,1,10,0:0:0:0:
512,225,16031,2,0,P|454:191|387:204,1,140,2|2,3:2|3:2,0:0:0:0:
374,219,16472,1,0,3:0:0:0:
368,231,16560,2,0,P|371:264|380:320,1,70,10|2,0:0|3:2,0:0:0:0:
235,372,16913,5,2,0:0:0:0:
170,316,17089,1,2,3:2:0:0:
248,252,17266,1,10,0:0:0:0:
164,161,17442,2,0,B|173:85|184:106|188:6,1,140,2|2,3:2|3:2,0:0:0:0:
108,53,17972,1,10,0:0:0:0:
336,68,18148,6,0,P|287:107|208:99,1,140,2|0,3:2|3:0,0:0:0:0:
369,204,18678,1,10,0:0:0:0:
435,133,18854,2,0,P|468:141|520:153,1,70,2|0,3:2|0:0,0:0:0:0:
439,303,19207,2,0,P|472:294|524:283,1,70,2|8,3:2|0:0,0:0:0:0:
273,213,19560,6,0,P|199:210|135:254,1,140,2|2,3:2|3:2,0:0:0:0:
32,226,20089,1,10,0:0:0:0:
32,226,20266,2,0,L|45:302,1,70,2|0,3:2|3:0,0:0:0:0:
132,106,20619,1,2,3:2:0:0:
132,106,20707,1,0,3:0:0:0:
132,106,20795,2,0,L|64:121,1,70,10|2,0:0|3:2,0:0:0:0:
249,292,21148,6,0,P|313:317|380:304,1,140,2|10,0:0|0:0,0:0:0:0:
475,209,21678,2,0,P|465:129|457:70,1,140,2|2,3:2|3:2,0:0:0:0:
348,0,22207,2,0,P|340:34|333:68,1,70,10|2,0:0|3:2,0:0:0:0:
138,247,22560,5,12,0:1:0:0:
254,190,22736,1,2,0:1:0:0:
254,190,22913,1,2,0:1:0:0:
244,307,23089,1,2,0:1:0:0:
152,136,23266,5,2,0:1:0:0:
356,210,23442,2,0,L|387:203,2,23.3333333333333,2|2|2,0:2|0:2|0:2,0:0:0:0:
355,303,23619,2,0,L|425:286,1,70,10|2,0:0|0:0,0:0:0:0:
188,57,23972,6,0,P|107:72|59:138,1,167.999994873047,14|10,0:1|0:0,0:0:0:0:
15,342,24501,2,0,P|9:300|-4:248,1,83.9999974365235,2|8,0:0|0:1,0:0:0:0:
203,180,24854,1,2,0:0:0:0:
127,295,25031,1,10,0:0:0:0:
59,138,25207,1,2,0:0:0:0:
277,262,25383,5,10,0:1:0:0:
376,102,25560,1,2,0:0:0:0:
256,8,25736,1,10,0:0:0:0:
148,111,25913,1,2,0:0:0:0:
416,217,26089,2,0,P|375:207|334:197,1,83.9999974365235,8|2,0:1|0:0,0:0:0:0:
160,256,26442,1,10,0:0:0:0:
275,114,26619,1,2,0:0:0:0:
45,131,26795,6,0,P|113:177|196:173,1,167.999994873047,10|10,0:1|0:0,0:0:0:0:
442,15,27325,2,0,P|404:22|350:39,1,83.9999974365235,2|8,0:0|0:1,0:0:0:0:
291,257,27678,1,2,0:0:0:0:
424,153,27854,1,10,0:0:0:0:
459,307,28031,1,2,0:0:0:0:
276,163,28207,6,0,P|285:119|293:77,1,83.9999974365235,10|2,0:1|0:0,0:0:0:0:
381,244,28560,1,10,0:0:0:0:
164,137,28736,2,0,P|123:148|76:157,1,83.9999974365235,2|8,0:0|0:1,0:0:0:0:
189,384,29089,2,0,L|202:327,1,52.5000020027161,2|0,0:0|0:0,0:0:0:0:
78,170,29266,2,0,L|90:221,1,52.5000020027161,10|0,0:0|0:0,0:0:0:0:
305,226,29442,2,0,L|255:208,1,52.5000020027161,2|0,0:0|0:0,0:0:0:0:
0,288,29619,6,0,P|80:307|154:271,1,167.999994873047,10|10,0:1|0:0,0:0:0:0:
326,136,30148,2,0,P|371:152|427:166,1,83.9999974365235,2|8,0:0|0:1,0:0:0:0:
136,60,30501,2,0,P|92:69|49:79,1,83.9999974365235,2|8,0:0|0:0,0:0:0:0:
154,271,30854,2,0,P|164:228|176:174,1,83.9999974365235,2|8,0:0|0:1,0:0:0:0:
226,118,31207,5,2,0:0:0:0:
350,242,31383,1,10,0:0:0:0:
355,58,31560,1,2,0:0:0:0:
172,189,31736,2,0,P|130:179|90:170,1,83.9999974365235,8|2,0:1|0:0,0:0:0:0:
125,2,32089,2,0,P|165:12|206:21,1,83.9999974365235,10|2,0:0|0:0,0:0:0:0:
281,219,32442,6,0,P|262:308|252:401,1,167.999994873047,10|10,0:1|0:0,0:0:0:0:
467,220,32972,2,0,P|457:173|449:129,1,83.9999974365235,2|8,0:0|0:1,0:0:0:0:
255,63,33325,1,2,0:0:0:0:
353,174,33501,1,10,0:0:0:0:
428,55,33678,1,2,0:0:0:0:
224,197,33854,5,8,0:1:0:0:
224,197,34031,1,2,0:0:0:0:
117,109,34207,1,10,0:0:0:0:
201,0,34383,1,2,0:0:0:0:
354,91,34560,5,10,0:1:0:0:
135,228,34736,2,0,L|103:219,3,27.9999991455078,2|2|2|10,0:2|0:2|0:2|0:2,0:0:0:0:
220,78,35089,1,2,0:0:0:0:
369,260,35266,6,0,P|456:262|519:197,1,167.999994873047,14|10,0:1|0:0,0:0:0:0:
294,138,35795,2,0,P|255:150|203:164,1,83.9999974365235,2|8,0:0|0:1,0:0:0:0:
368,353,36148,1,2,0:0:0:0:
376,181,36325,1,10,0:0:0:0:
258,265,36501,1,2,0:0:0:0:
445,271,36678,5,10,0:1:0:0:
467,109,36854,1,2,0:0:0:0:
330,50,37031,1,10,0:0:0:0:
186,200,37207,2,0,P|147:195|87:181,1,83.9999974365235,2|8,0:0|0:1,0:0:0:0:
170,91,37560,1,2,0:0:0:0:
275,177,37736,1,10,0:0:0:0:
220,6,37913,1,2,0:0:0:0:
138,270,38089,6,0,P|130:311|123:352,1,83.9999974365235,10|0,0:1|0:0,0:0:0:0:
246,247,38442,1,10,0:0:0:0:
93,152,38619,2,0,P|51:145|10:136,1,83.9999974365235,2|8,0:0|0:1,0:0:0:0:
36,261,38972,1,2,0:0:0:0:
174,106,39148,2,0,P|180:64|185:18,1,83.9999974365235,10|2,0:0|0:0,0:0:0:0:
389,180,39501,5,10,0:1:0:0:
246,247,39678,1,2,0:0:0:0:
284,113,39854,1,10,0:0:0:0:
430,301,40031,2,0,P|482:291|533:279,1,83.9999974365235,2|8,0:0|0:1,0:0:0:0:
398,17,40383,6,0,L|388:77,1,41.9999987182618,2|0,0:0|0:0,0:0:0:0:
512,173,40560,2,0,L|505:131,1,41.9999987182618,10|0,0:0|0:0,0:0:0:0:
325,207,40736,2,0,L|386:222,1,41.9999987182618,2|0,0:0|0:0,0:0:0:0:
399,67,40913,6,0,L|317:87,1,83.9999974365235,10|0,0:1|3:0,0:0:0:0:
161,221,41266,1,10,0:0:0:0:
194,0,41442,2,0,P|207:47|217:103,1,83.9999974365235,2|8,3:2|0:1,0:0:0:0:
11,235,41795,5,10,0:3:0:0:
5,229,41883,1,8,0:3:0:0:
0,224,41972,2,0,L|11:170,1,41.9999987182618,8|8,0:0|0:3,0:0:0:0:
155,131,42148,1,10,0:3:0:0:
154,138,42236,1,8,0:3:0:0:
152,145,42325,2,0,L|99:162,1,41.9999987182618,8|0,0:1|0:0,0:0:0:0:
16,60,42501,2,0,L|45:107,1,41.9999987182618,2|0,3:2|0:0,0:0:0:0:
123,238,42678,5,10,0:0:0:0:
222,69,42854,1,2,3:2:0:0:
322,213,43031,1,8,0:1:0:0:
322,213,43119,1,8,0:3:0:0:
322,213,43207,1,10,0:3:0:0:
322,213,43295,1,8,0:3:0:0:
322,213,43383,2,0,L|375:221,1,41.9999987182618,10|8,0:0|0:3,0:0:0:0:
474,99,43560,2,0,L|433:109,1,41.9999987182618,2|8,3:0|0:3,0:0:0:0:
493,349,43736,6,0,P|503:306|512:267,1,83.9999974365235,10|0,0:1|3:0,0:0:0:0:
481,193,44001,1,8,0:3:0:0:
474,200,44089,2,0,L|485:258,1,41.9999987182618,10|8,0:0|0:3,0:0:0:0:
402,340,44266,5,2,3:0:0:0:
364,356,44355,1,8,0:3:0:0:
318,353,44443,1,8,0:1:0:0:
278,333,44531,1,8,0:3:0:0:
256,293,44619,2,0,L|266:252,1,41.9999987182618,2|8,3:0|0:3,0:0:0:0:
363,190,44795,2,0,L|352:127,1,41.9999987182618,10|8,0:0|0:3,0:0:0:0:
171,111,44972,2,0,L|183:50,1,41.9999987182618,2|8,3:0|0:3,0:0:0:0:
298,0,45148,6,0,B|294:71|277:60|274:130,1,125.999996154785,12|8,0:1|0:3,0:0:0:0:
265,130,45501,2,0,L|275:184,1,41.9999987182618,10|8,0:3|0:3,0:0:0:0:
167,236,45678,5,2,3:0:0:0:
151,233,45766,1,8,0:3:0:0:
160,227,45854,2,0,L|98:244,1,41.9999987182618,10|8,0:3|0:3,0:0:0:0:
335,303,46031,5,2,3:0:0:0:
348,317,46119,1,0,0:0:0:0:
337,324,46207,2,0,L|397:337,1,41.9999987182618,10|8,0:0|0:3,0:0:0:0:
210,344,46383,6,0,L|192:404,1,41.9999987182618,2|8,3:0|0:3,0:0:0:0:
354,217,46560,6,0,P|363:163|372:113,1,105.000004005432,14|2,0:1|0:3,0:0:0:0:
127,0,46913,2,0,L|143:52,1,52.5000020027161,10|2,0:0|0:3,0:0:0:0:
218,190,47089,2,0,L|239:85,1,105.000004005432,2|8,0:0|0:1,0:0:0:0:
11,56,47442,1,2,0:0:0:0:
11,56,47531,1,2,0:3:0:0:
11,56,47619,2,0,L|27:116,1,52.5000020027161,10|2,0:0|0:3,0:0:0:0:
110,223,47795,2,0,L|124:173,1,52.5000020027161,2|0,0:0|0:0,0:0:0:0:
142,50,47972,5,10,0:1:0:0:
14,213,48148,1,2,0:0:0:0:
274,252,48325,1,10,0:0:0:0:
207,115,48501,2,0,P|260:127|309:136,1,105.000004005432,2|8,0:0|0:1,0:0:0:0:
503,39,48854,1,2,0:0:0:0:
503,39,48942,1,2,0:3:0:0:
503,39,49031,2,0,L|452:53,1,52.5000020027161,10|2,0:0|0:3,0:0:0:0:
346,0,49207,2,0,L|337:75,1,52.5000020027161,2|0,0:0|0:0,0:0:0:0:
462,155,49383,6,0,P|476:203|490:256,1,105.000004005432,10|2,0:1|0:3,0:0:0:0:
235,376,49736,2,0,L|249:319,1,52.5000020027161,10|2,0:0|0:3,0:0:0:0:
316,190,49913,2,0,P|330:238|344:291,1,105.000004005432,2|8,0:0|0:1,0:0:0:0:
107,345,50266,1,2,0:0:0:0:
107,345,50354,1,2,0:3:0:0:
107,345,50442,2,0,L|121:288,1,52.5000020027161,10|2,0:0|0:3,0:0:0:0:
168,182,50619,2,0,L|182:239,1,52.5000020027161,2|0,0:0|0:0,0:0:0:0:
55,236,50795,5,10,0:1:0:0:
263,130,50972,1,2,0:0:0:0:
36,91,51148,1,10,0:0:0:0:
307,5,51325,2,0,P|254:16|200:31,1,105.000004005432,2|8,0:0|0:1,0:0:0:0:
270,275,51678,1,2,0:0:0:0:
270,275,51766,1,2,0:3:0:0:
270,275,51854,2,0,P|278:250|284:224,1,52.5000020027161,10|2,0:0|0:3,0:0:0:0:
127,57,52031,2,0,P|131:82|137:108,1,52.5000020027161,2|2,0:1|0:3,0:0:0:0:
107,287,52207,6,0,P|43:282|-4:261,1,105.000004005432,10|2,0:1|0:3,0:0:0:0:
359,102,52560,2,0,P|384:107|411:117,1,52.5000020027161,10|2,0:0|0:3,0:0:0:0:
278,15,52736,2,0,P|260:65|254:117,1,105.000004005432,2|8,0:0|0:1,0:0:0:0:
433,312,53089,2,0,P|449:263|456:211,1,105.000004005432,2|8,0:0|0:0,0:0:0:0:
206,207,53442,6,0,P|100:232|1:256,1,210.000008010865,2|2,0:0|0:0,0:0:0:0:
93,31,53972,2,0,L|211:74,1,105.000004005432,10|2,0:0|0:0,0:0:0:0:
191,66,54236,1,2,0:3:0:0:
191,66,54325,1,8,0:1:0:0:
111,239,54501,1,2,0:0:0:0:
20,121,54678,1,10,0:0:0:0:
120,135,54854,1,2,0:0:0:0:
18,384,55031,6,0,P|8:333|-1:279,1,105.000004005432,10|2,0:1|0:3,0:0:0:0:
222,196,55383,2,0,P|215:224|209:259,1,52.5000020027161,10|2,0:0|0:3,0:0:0:0:
303,374,55560,2,0,P|313:310|327:263,1,105.000004005432,2|8,0:0|0:1,0:0:0:0:
144,88,55913,1,2,0:0:0:0:
144,88,56001,1,2,0:3:0:0:
144,88,56089,2,0,L|156:142,1,52.5000020027161,10|2,0:0|0:3,0:0:0:0:
74,226,56266,2,0,P|54:173|47:115,1,105.000004005432,2|8,0:0|0:1,0:0:0:0:
358,178,56619,6,0,L|421:194,1,52.5000020027161,2|0,0:0|0:0,0:0:0:0:
299,337,56795,2,0,L|275:276,1,52.5000020027161,10|2,0:0|0:3,0:0:0:0:
450,301,56972,2,0,L|419:366,1,52.5000020027161,2|2,0:0|0:3,0:0:0:0:
250,169,57148,6,0,B|252:107|268:119|269:54,1,105.000004005432,10|2,0:1|0:0,0:0:0:0:
225,0,57413,1,0,0:0:0:0:
213,8,57501,2,0,L|232:72,1,52.5000020027161,10|2,0:0|0:3,0:0:0:0:
366,33,57678,2,0,L|344:101,1,52.5000020027161,2|0,0:0|0:0,0:0:0:0:
136,115,57854,6,0,P|85:109|36:89,1,105.000004005432,14|2,1:0|0:3,0:0:0:0:
237,254,58207,1,10,1:2:0:0:
0,328,58383,2,0,P|48:301|99:293,1,105.000004005432,2|8,0:0|1:0,0:0:0:0:
54,195,58648,1,0,0:0:0:0:
49,203,58736,2,0,L|107:217,1,52.5000020027161,2|2,0:0|0:3,0:0:0:0:
269,345,58913,2,0,P|219:362|167:361,1,105.000004005432,10|2,1:2|0:0,0:0:0:0:
252,154,59266,5,10,1:0:0:0:
370,318,59442,1,2,0:0:0:0:
420,119,59619,1,10,1:2:0:0:
189,228,59795,1,2,0:0:0:0:
189,228,59883,1,2,0:3:0:0:
189,228,59972,2,0,P|238:245|290:252,1,105.000004005432,8|2,1:0|0:0,0:0:0:0:
366,208,60236,1,2,0:3:0:0:
357,200,60325,2,0,L|340:138,1,52.5000020027161,10|2,1:2|0:3,0:0:0:0:
285,20,60501,2,0,P|276:49|264:84,1,52.5000020027161,2|0,0:0|0:0,0:0:0:0:
116,136,60678,6,0,P|64:130|18:105,1,105.000004005432,10|2,1:0|0:3,0:0:0:0:
18,105,60942,1,0,0:0:0:0:
18,105,61031,1,10,1:2:0:0:
117,311,61207,2,0,P|68:331|16:336,1,105.000004005432,2|8,0:0|1:0,0:0:0:0:
0,239,61472,1,0,0:0:0:0:
5,227,61560,2,0,P|28:235|66:248,1,52.5000020027161,2|2,0:0|0:3,0:0:0:0:
197,384,61736,2,0,P|220:326|221:274,1,105.000004005432,10|2,1:2|0:0,0:0:0:0:
222,69,62089,5,10,1:0:0:0:
147,204,62266,1,2,0:0:0:0:
334,270,62442,1,10,1:2:0:0:
429,23,62619,2,0,P|375:36|326:56,1,105.000004005432,2|8,0:0|1:0,0:0:0:0:
469,310,62972,1,2,0:0:0:0:
477,322,63060,1,2,0:3:0:0:
490,314,63148,2,0,P|496:279|505:251,1,52.5000020027161,10|2,1:2|0:3,0:0:0:0:
337,136,63325,2,0,P|344:162|349:195,1,52.5000020027161,2|0,0:0|0:0,0:0:0:0:
280,359,63501,6,0,P|229:377|172:385,1,105.000004005432,10|0,1:0|3:0,0:0:0:0:
234,121,63854,1,10,1:2:0:0:
23,183,64031,2,0,P|83:209|135:216,1,105.000004005432,2|8,3:2|1:0,0:0:0:0:
182,276,64295,1,8,0:3:0:0:
172,285,64383,1,10,0:3:0:0:
163,292,64472,1,8,0:3:0:0:
153,299,64560,2,0,P|120:306|99:305,1,52.5000020027161,8|8,1:2|0:3,0:0:0:0:
56,87,64736,2,0,P|110:101|156:126,1,105.000004005432,10|8,0:3|1:0,0:0:0:0:
7,327,65089,5,2,3:2:0:0:
7,327,65178,1,0,0:0:0:0:
7,327,65266,1,10,1:2:0:0:
106,206,65442,1,2,3:2:0:0:
245,346,65619,1,8,1:0:0:0:
245,346,65707,1,8,0:3:0:0:
245,346,65795,1,10,0:3:0:0:
245,346,65883,1,8,0:3:0:0:
245,346,65972,2,0,L|308:324,1,52.5000020027161,10|8,1:2|0:3,0:0:0:0:
445,274,66148,2,0,L|390:261,1,52.5000020027161,10|8,0:3|0:3,0:0:0:0:
282,119,66325,6,0,P|286:176|299:228,1,105.000004005432,10|0,1:0|3:0,0:0:0:0:
206,250,66589,1,8,0:3:0:0:
192,247,66678,2,0,P|190:220|183:195,1,52.5000020027161,10|8,1:2|0:3,0:0:0:0:
372,44,66854,1,2,3:0:0:0:
389,38,66942,1,8,0:3:0:0:
382,52,67031,2,0,P|397:102|404:154,1,105.000004005432,8|2,1:0|3:0,0:0:0:0:
482,195,67295,1,8,0:3:0:0:
494,196,67383,2,0,P|504:164|506:132,1,52.5000020027161,10|8,1:2|0:3,0:0:0:0:
395,290,67560,2,0,P|397:315|413:353,1,52.5000020027161,2|8,3:0|0:3,0:0:0:0:
280,182,67736,6,0,B|189:166|197:184|120:173,1,157.500006008148,12|8,1:0|0:3,0:0:0:0:
113,159,68089,2,0,P|92:167|47:178,1,52.5000020027161,10|8,1:3|0:3,0:0:0:0:
46,271,68266,5,10,3:1:0:0:
52,288,68354,1,8,0:1:0:0:
59,304,68442,1,10,1:2:0:0:
160,68,68619,1,10,0:1:0:0:
155,55,68707,1,8,0:1:0:0:
149,40,68795,1,10,1:2:0:0:
2,116,68972,1,10,0:1:0:0:
252,221,69148,5,12,0:1:0:0:
256,192,69325,12,10,71619,1:2:0:0:
