osu file format v14

[General]
AudioFilename: audio.mp3
AudioLeadIn: 0
PreviewTime: 23950
Countdown: 0
SampleSet: Soft
StackLeniency: 0.4
Mode: 0
LetterboxInBreaks: 0
WidescreenStoryboard: 1

[Editor]
Bookmarks: 12678,22560,23972,29619,35266,40913,46560,52207,52560,57854,63501,69148
DistanceSpacing: 3
BeatDivisor: 2
GridSize: 32
TimelineZoom: 1

[Metadata]
Title:Opening
TitleUnicode:Opening
Artist:DJ Genki
ArtistUnicode:DJ Genki
Creator:Chaoslitz
Version:Advanced
Source:
Tags:gram Starry Orange electronic instrumental featured artist fa mappers' guild mg mpg AirinCat arronchu1207 Sanayui not your kitty not_your_kitty iRedi PAJWOJ Outright
BeatmapID:4520260
BeatmapSetID:2142885

[Difficulty]
HPDrainRate:3.7
CircleSize:4
OverallDifficulty:5
ApproachRate:6.5
SliderMultiplier:1.3
SliderTickRate:1

[Events]
//Background and Video events
0,0,"bg4.jpg",0,0
//Break Periods
//Storyboard Layer 0 (Background)
//Storyboard Layer 1 (Fail)
//Storyboard Layer 2 (Pass)
//Storyboard Layer 3 (Foreground)
//Storyboard Layer 4 (Overlay)
//Storyboard Sound Samples

[TimingPoints]
1384,352.941176470588,4,2,1,50,1,0
1384,-125,4,2,1,50,0,0
12678,-125,4,2,1,60,0,0
17795,-125,4,2,1,60,0,0
18325,-125,4,2,1,60,0,0
22560,-125,4,2,5,75,0,0
22736,-125,4,2,1,75,0,0
23089,-125,4,2,1,75,0,0
23266,-125,4,2,1,75,0,0
23619,-125,4,2,5,75,0,0
23972,-100,4,2,2,80,0,1
24060,-100,4,2,2,80,0,0
24854,-100,4,2,2,80,0,0
25031,-100,4,2,2,80,0,0
27678,-100,4,2,2,80,0,0
27854,-100,4,2,2,80,0,0
28913,-100,4,2,2,80,0,0
29089,-100,4,2,2,80,0,0
29266,-100,4,2,2,80,0,0
29442,-100,4,2,2,80,0,0
29619,-100,4,2,2,80,0,0
32442,-100,4,2,2,80,0,0
35266,-100,4,2,2,80,0,0
36148,-100,4,2,2,80,0,0
36325,-100,4,2,2,80,0,0
38972,-100,4,2,2,80,0,0
39148,-100,4,2,2,80,0,0
40207,-100,4,2,2,80,0,0
40383,-100,4,2,2,80,0,0
40560,-100,4,2,2,80,0,0
40736,-100,4,2,2,80,0,0
40913,-100,4,2,3,80,0,0
45678,-100,4,2,3,80,0,0
45854,-100,4,2,3,80,0,0
46560,-100,4,2,2,80,0,1
46648,-100,4,2,2,80,0,0
51501,-100,4,2,2,80,0,0
51678,-100,4,2,2,80,0,0
51854,-100,4,2,2,80,0,0
52031,-100,4,2,2,80,0,0
52207,-100,4,2,2,80,0,0
56442,-100,4,2,2,80,0,0
56619,-100,4,2,2,80,0,0
62795,-100,4,2,2,80,0,0
62972,-100,4,2,2,80,0,0
63148,-100,4,2,2,80,0,0
63325,-100,4,2,2,80,0,0
63501,-100,4,2,3,80,0,0
64119,-100,4,2,2,80,0,0
64207,-100,4,2,3,80,0,0
65531,-100,4,2,2,80,0,0
65619,-100,4,2,3,80,0,0
67031,-100,4,2,3,80,0,0
68266,-100,4,2,5,80,0,0
68883,-100,4,2,3,80,0,0
68972,-100,4,2,5,80,0,0
69060,-100,4,2,3,80,0,0
69148,-100,4,2,5,80,0,0
69325,-100,4,2,1,60,0,0
71619,-100,4,2,10,60,0,0

[Colours]
Combo1 : 70,224,160
Combo2 : 241,70,123
Combo3 : 41,178,246
Combo4 : 253,120,45

[HitObjects]
68,351,1384,6,0,P|155:269|139:256,1,104,2|10,0:0|0:0,0:0:0:0:
186,304,1913,2,0,L|172:114,1,104,2|2,0:0|0:0,0:0:0:0:
146,166,2442,1,10,0:0:0:0:
201,90,2795,1,2,0:0:0:0:
206,86,2972,2,0,P|251:143|246:153,1,52,2|10,0:0|0:0,0:0:0:0:
256,156,3325,2,0,P|147:152|148:140,1,104,2|2,0:0|0:0,0:0:0:0:
146,166,3854,2,0,L|47:176,1,52,10|2,0:0|0:0,0:0:0:0:
62,137,4207,1,2,0:0:0:0:
4,210,4560,5,10,0:0:0:0:
0,215,4736,2,0,P|90:283|97:271,1,104,2|2,0:0|0:0,0:0:0:0:
66,278,5266,1,10,0:0:0:0:
157,302,5619,2,0,L|149:403,2,52,2|2|10,0:0|0:0|0:0,0:0:0:0:
197,277,6148,2,0,P|264:355|227:369,1,104,2|2,0:0|0:0,0:0:0:0:
302,348,6678,2,0,P|362:332|360:320,1,52,10|2,0:0|0:0,0:0:0:0:
385,330,7031,1,2,0:0:0:0:
408,239,7383,5,10,0:0:0:0:
412,234,7560,2,0,L|596:216,2,104,2|2|2,0:0|0:0|0:0,0:0:0:0:
381,199,8442,2,0,L|282:209,2,52,2|2|10,0:0|0:0|0:0,0:0:0:0:
402,157,8972,2,0,P|319:91|302:131,1,104,2|2,0:0|0:0,0:0:0:0:
321,97,9501,2,0,P|262:57|264:50,1,52,10|2,0:0|0:0,0:0:0:0:
256,48,9854,1,2,0:0:0:0:
168,79,10207,5,10,0:0:0:0:
170,85,10383,2,0,L|156:275,1,104,2|2,0:0|0:0,0:0:0:0:
178,233,10913,2,0,P|118:240|117:237,1,52,10|2,0:0|0:0,0:0:0:0:
49,234,11442,1,2,0:0:0:0:
44,230,11619,2,0,P|73:157|74:157,1,52,10|2,0:0|0:0,0:0:0:0:
43,136,11972,2,0,L|227:118,1,104,2|10,0:0|0:0,0:0:0:0:
170,85,12501,1,2,0:0:0:0:
168,79,12678,1,2,0:0:0:0:
256,46,13031,5,10,0:0:0:0:
261,42,13207,2,0,P|286:132|231:115,1,104,2|2,3:2|3:2,0:0:0:0:
282,146,13736,2,0,P|304:211|323:210,1,52,10|2,0:0|3:2,0:0:0:0:
302,235,14089,2,0,L|401:225,1,52,2|2,0:0|3:2,0:0:0:0:
392,203,14442,1,10,0:0:0:0:
397,199,14619,2,0,P|421:294|393:294,1,104,2|2,3:2|3:2,0:0:0:0:
468,308,15148,2,0,P|412:333|396:313,1,52,10|2,0:0|3:2,0:0:0:0:
392,364,15501,1,2,0:0:0:0:
309,320,15854,5,10,0:0:0:0:
305,325,16031,2,0,L|121:343,1,104,2|2,3:2|3:2,0:0:0:0:
165,365,16560,2,0,P|98:344|89:355,1,52,10|2,0:0|3:2,0:0:0:0:
96,299,16913,1,2,0:0:0:0:
94,305,17089,2,0,P|30:281|30:264,1,52,2|10,3:2|0:0,0:0:0:0:
12,272,17442,2,0,P|80:202|104:256,1,104,2|2,3:2|3:2,0:0:0:0:
96,212,17972,2,0,L|195:202,1,52,10|2,0:0|3:2,0:0:0:0:
192,223,18325,1,2,0:0:0:0:
256,155,18678,5,10,0:0:0:0:
256,149,18854,1,2,3:2:0:0:
237,57,19207,1,2,3:2:0:0:
158,108,19560,1,2,3:2:0:0:
154,113,19736,2,0,L|55:123,1,52,2|2,0:0|3:2,0:0:0:0:
72,154,20089,1,10,0:0:0:0:
76,159,20266,2,0,P|109:247|61:236,1,104,2|2,3:2|3:2,0:0:0:0:
159,257,20795,2,0,L|151:358,1,52,10|2,0:0|3:2,0:0:0:0:
175,351,21148,1,2,0:0:0:0:
256,304,21501,5,10,0:0:0:0:
260,309,21678,2,0,L|444:291,1,104,2|2,3:2|3:2,0:0:0:0:
397,332,22207,2,0,L|496:322,1,52,10|2,0:0|3:2,0:0:0:0:
474,288,22560,5,12,0:1:0:0:
479,284,22736,2,0,P|520:336|513:345,2,52,2|2|2,0:1|0:1|0:1,0:0:0:0:
460,241,23266,2,0,B|460:195|460:195|458:192|458:192|462:192|462:192|460:189|460:189|460:103,1,104,2|10,0:1|0:0,0:0:0:0:
488,106,23795,1,2,0:0:0:0:
470,30,23972,6,0,B|418:-8|418:-8|289:59,1,130,14|10,0:1|0:0,0:0:0:0:
326,93,24501,1,2,0:0:0:0:
256,0,24854,1,2,0:0:0:0:
253,5,25031,2,0,L|126:18,1,65,10|2,0:0|0:0,0:0:0:0:
117,43,25383,5,10,0:1:0:0:
139,118,25560,2,0,P|64:138|58:125,1,65,2|10,0:0|0:0,0:0:0:0:
44,95,25913,2,0,L|63:326,1,130,2|2,0:0|0:0,0:0:0:0:
42,302,26442,2,0,P|123:317|128:306,1,65,10|2,0:0|0:0,0:0:0:0:
159,301,26795,1,10,0:1:0:0:
256,367,27148,5,10,0:0:0:0:
259,372,27325,2,0,P|259:276|228:311,1,130,2|2,0:0|0:0,0:0:0:0:
381,246,27854,2,0,P|309:201|303:208,1,65,10|2,0:0|0:0,0:0:0:0:
306,132,28207,5,10,0:1:0:0:
302,136,28383,2,0,L|175:149,1,65,2|10,0:0|0:0,0:0:0:0:
172,186,28736,2,0,L|-56:208,1,130,2|2,0:0|0:0,0:0:0:0:
0,265,29266,1,10,0:0:0:0:
44,329,29442,1,2,0:0:0:0:
113,292,29619,1,10,0:1:0:0:
204,366,29972,5,10,0:0:0:0:
210,368,30148,2,0,P|250:310|219:291,1,65,2|8,0:0|0:1,0:0:0:0:
191,287,30501,2,0,L|200:176,1,65,2|8,0:0|0:0,0:0:0:0:
140,168,30854,6,0,L|159:-63,1,130,2|2,0:0|0:0,0:0:0:0:
221,3,31383,1,10,0:0:0:0:
226,0,31560,2,0,P|261:89|230:75,1,130,2|2,0:0|0:0,0:0:0:0:
385,79,32089,2,0,P|362:162|358:163,1,65,10|2,0:0|0:0,0:0:0:0:
336,195,32442,1,10,0:1:0:0:
388,299,32795,5,10,0:0:0:0:
392,303,32972,2,0,P|284:334|290:298,1,130,2|2,0:0|0:0,0:0:0:0:
256,335,33501,1,10,0:0:0:0:
253,329,33678,1,2,0:0:0:0:
336,195,34031,5,2,0:0:0:0:
340,199,34207,2,0,L|467:186,1,65,10|2,0:0|0:0,0:0:0:0:
471,151,34560,2,0,P|379:117|388:143,1,130,10|10,0:1|0:0,0:0:0:0:
361,17,35089,1,2,0:0:0:0:
316,81,35266,6,0,L|88:103,1,130,14|10,0:1|0:0,0:0:0:0:
153,23,35795,1,2,0:0:0:0:
48,74,36148,1,2,0:0:0:0:
44,78,36325,2,0,P|66:156|87:154,1,65,10|2,0:0|0:0,0:0:0:0:
112,118,36678,5,10,0:1:0:0:
91,193,36854,2,0,L|82:304,1,65,2|10,0:0|0:0,0:0:0:0:
20,300,37207,2,0,P|105:341|95:292,1,130,2|2,0:0|0:0,0:0:0:0:
145,309,37736,2,0,L|272:296,1,65,10|2,0:0|0:0,0:0:0:0:
266,248,38089,1,10,0:1:0:0:
348,331,38442,5,10,0:0:0:0:
351,336,38619,2,0,B|403:374|403:374|532:307,1,130,2|2,0:0|0:0,0:0:0:0:
509,281,39148,2,0,P|453:210|444:214,1,65,10|2,0:0|0:0,0:0:0:0:
430,188,39501,5,10,0:1:0:0:
429,182,39678,2,0,L|438:71,1,65,2|10,0:0|0:0,0:0:0:0:
407,44,40031,2,0,P|368:141|411:132,1,130,2|2,0:0|0:0,0:0:0:0:
351,183,40560,1,10,0:0:0:0:
275,163,40736,1,2,0:0:0:0:
297,239,40913,6,0,P|232:194|241:179,1,65,10|0,0:1|3:0,0:0:0:0:
197,167,41266,2,0,L|70:180,1,65,10|2,0:0|3:2,0:0:0:0:
60,144,41619,2,0,B|26:199|26:199|85:314,1,130,8|8,0:1|0:0,0:0:0:0:
85,371,42325,6,0,L|212:358,1,65,8|2,0:1|3:2,0:0:0:0:
209,312,42678,2,0,L|336:299,1,65,10|2,0:0|3:2,0:0:0:0:
346,335,43031,2,0,B|398:373|398:373|527:306,1,130,8|10,0:1|0:0,0:0:0:0:
508,280,43560,1,2,3:0:0:0:
469,212,43736,6,0,L|342:225,1,65,10|0,0:1|3:0,0:0:0:0:
336,257,44089,1,10,0:0:0:0:
333,252,44266,1,2,3:0:0:0:
310,178,44442,2,0,L|183:191,1,65,8|2,0:1|3:0,0:0:0:0:
181,229,44795,1,10,0:0:0:0:
141,161,44972,1,2,3:0:0:0:
192,102,45148,6,0,P|219:201|156:164,1,130,12|10,0:1|0:3,0:0:0:0:
181,229,45678,1,2,3:0:0:0:
237,283,45854,2,0,P|142:324|150:277,1,130,10|10,0:3|0:0,0:0:0:0:
94,373,46383,1,2,3:0:0:0:
50,308,46560,6,0,L|69:77,1,130,14|10,0:1|0:0,0:0:0:0:
17,113,47089,1,2,0:0:0:0:
74,11,47442,1,2,0:0:0:0:
77,6,47619,2,0,P|126:67|119:74,1,65,10|2,0:0|0:0,0:0:0:0:
148,103,47972,5,10,0:1:0:0:
216,65,48148,2,0,P|265:126|258:133,1,65,2|10,0:0|0:0,0:0:0:0:
298,159,48501,2,0,L|279:390,1,130,2|2,0:0|0:0,0:0:0:0:
234,346,49031,2,0,P|314:322|313:317,1,65,10|2,0:0|0:0,0:0:0:0:
366,380,49383,6,0,P|393:277|339:302,1,130,10|10,0:1|0:0,0:0:0:0:
367,259,49913,1,2,0:0:0:0:
467,197,50266,1,2,0:0:0:0:
464,192,50442,2,0,L|473:81,1,65,10|2,0:0|0:0,0:0:0:0:
512,65,50795,5,10,0:1:0:0:
455,11,50972,2,0,P|386:54|386:55,1,65,2|10,0:0|0:0,0:0:0:0:
357,92,51325,2,0,P|261:135|283:72,1,130,2|2,0:0|0:0,0:0:0:0:
221,128,51854,1,10,0:0:0:0:
246,54,52031,1,2,0:0:0:0:
178,16,52207,6,0,L|51:29,1,65,10|2,0:1|0:3,0:0:0:0:
77,92,52560,1,10,0:0:0:0:
24,34,52736,2,0,B|-10:89|-10:89|49:204,1,130,2|2,0:0|0:0,0:0:0:0:
40,224,53266,1,8,0:0:0:0:
96,169,53442,6,0,P|137:277|81:267,1,130,2|2,0:0|0:0,0:0:0:0:
121,298,53972,1,10,0:0:0:0:
124,303,54148,1,2,0:0:0:0:
220,371,54501,1,2,0:0:0:0:
223,365,54678,2,0,P|304:370|305:372,1,65,10|2,0:0|0:0,0:0:0:0:
353,380,55031,6,0,P|361:290|333:315,1,130,10|10,0:1|0:0,0:0:0:0:
391,240,55560,2,0,L|400:129,1,65,2|8,0:0|0:1,0:0:0:0:
318,166,55913,2,0,L|309:277,1,65,2|10,0:0|0:0,0:0:0:0:
344,303,56266,1,2,0:0:0:0:
237,257,56619,5,2,0:0:0:0:
233,253,56795,2,0,L|106:266,1,65,10|2,0:0|0:0,0:0:0:0:
108,309,57148,2,0,P|85:209|127:227,1,130,10|10,0:1|0:0,0:0:0:0:
71,162,57678,1,2,0:0:0:0:
146,184,57854,5,14,1:0:0:0:
247,124,58207,2,0,P|241:42|238:41,1,65,10|2,1:2|0:0,0:0:0:0:
212,13,58560,2,0,L|-16:35,1,130,8|10,1:0|1:2,0:0:0:0:
7,47,59089,1,2,0:0:0:0:
64,102,59266,6,0,P|61:172|18:178,1,65,10|2,1:0|0:0,0:0:0:0:
0,194,59619,1,10,1:2:0:0:
4,198,59795,2,0,P|40:288|12:289,1,130,2|2,0:0|0:0,0:0:0:0:
32,345,60325,2,0,P|109:338|107:319,1,65,10|2,1:2|0:0,0:0:0:0:
134,308,60678,5,10,1:0:0:0:
242,261,61031,2,0,P|268:337|260:343,1,65,10|2,1:2|0:0,0:0:0:0:
221,356,61383,2,0,L|449:334,1,130,8|10,1:0|1:2,0:0:0:0:
422,376,61913,1,2,0:0:0:0:
498,359,62089,6,0,P|484:283|458:285,1,65,10|2,1:0|0:0,0:0:0:0:
464,237,62442,1,10,1:2:0:0:
415,298,62619,2,0,L|434:67,1,130,2|2,0:0|0:0,0:0:0:0:
467,102,63148,1,10,1:2:0:0:
417,43,63325,1,2,0:0:0:0:
345,72,63501,6,0,L|218:85,1,65,10|0,1:0|3:0,0:0:0:0:
218,126,63854,2,0,L|91:139,1,65,10|2,1:2|3:2,0:0:0:0:
88,89,64207,2,0,P|73:194|116:168,1,130,8|8,1:0|1:2,0:0:0:0:
78,217,64736,1,10,0:3:0:0:
14,262,64913,6,0,P|39:325|51:325,1,65,8|2,1:0|3:2,0:0:0:0:
88,364,65266,2,0,L|215:351,1,65,10|2,1:2|3:2,0:0:0:0:
228,378,65619,2,0,P|249:276|230:278,1,130,8|10,1:0|1:2,0:0:0:0:
260,227,66148,1,10,0:3:0:0:
194,269,66325,6,0,L|67:282,1,65,10|0,1:0|3:0,0:0:0:0:
78,217,66678,1,10,1:2:0:0:
75,212,66854,1,2,3:0:0:0:
115,144,67031,2,0,L|242:131,1,65,8|2,1:0|3:0,0:0:0:0:
248,98,67383,1,10,1:2:0:0:
298,159,67560,1,2,3:0:0:0:
372,134,67736,6,0,P|407:220|341:177,1,130,12|10,1:0|1:3,0:0:0:0:
468,273,68266,1,10,3:1:0:0:
442,347,68442,2,0,P|361:335|360:327,1,65,10|10,1:2|0:1,0:0:0:0:
320,322,68795,2,0,P|336:250|372:256,1,65,10|10,1:2|0:1,0:0:0:0:
391,287,69148,1,12,0:1:0:0:
256,192,69325,12,10,71619,1:2:0:0:
