osu file format v14

[General]
AudioFilename: audio.mp3
AudioLeadIn: 0
PreviewTime: 123432
Countdown: 1
SampleSet: None
StackLeniency: 0.7
Mode: 0
LetterboxInBreaks: 0
WidescreenStoryboard: 0

[Editor]
DistanceSpacing: 1.5
BeatDivisor: 4
GridSize: 4
TimelineZoom: 2.1

[Metadata]
Title:MONSTER
TitleUnicode:MONSTER
Artist:DJ Genki
ArtistUnicode:DJ Genki
Creator:Kujar3
Version:Trance
Source:
Tags:
BeatmapID:1919246
BeatmapSetID:919152

[Difficulty]
HPDrainRate:6.5
CircleSize:4.5
OverallDifficulty:8
ApproachRate:9
SliderMultiplier:1.4
SliderTickRate:1

[Events]
//Background and Video events
0,0,"1920x1080-4512325-monster-girl-anime-chains-laser.png",0,0
//Break Periods
2,24102,33008
//Storyboard Layer 0 (Background)
//Storyboard Layer 1 (Fail)
//Storyboard Layer 2 (Pass)
//Storyboard Layer 3 (Foreground)
//Storyboard Sound Samples

[TimingPoints]
609,352.941176470588,4,2,0,70,1,0
11903,-80,4,2,0,70,0,0
23197,-100,4,2,0,70,0,0
57079,-200,4,2,0,70,0,0
59903,-100,4,2,0,70,0,0
62726,-400,4,2,0,70,0,0
67491,-200,4,2,0,70,0,0
72432,-133.333333333333,4,2,0,70,0,0
74020,-100,4,2,0,70,0,0
85403,-166.666666666667,4,2,0,70,0,0
91050,-133.333333333333,4,2,0,70,0,0
93079,-400,4,2,0,70,0,0
93432,-133.333333333333,4,2,0,70,0,0
93873,-400,4,2,0,70,0,0
94138,-133.333333333333,4,2,0,70,0,0
94579,-400,4,2,0,70,0,0
94844,-133.333333333333,4,2,0,70,0,0
96256,-80,4,2,0,70,0,0
102256,-66.6666666666667,4,2,0,70,0,0
122020,-100,4,2,0,70,0,0

[Colours]
Combo1 : 253,253,61
Combo2 : 70,86,101
Combo3 : 245,63,64
Combo4 : 22,33,34

[HitObjects]
144,88,609,5,0,0:0:0:0:
144,88,785,1,0,0:0:0:0:
276,84,961,2,0,L|236:152,1,70
200,232,1314,1,0,0:0:0:0:
200,232,1490,1,0,0:0:0:0:
332,228,1666,2,0,L|292:296,1,70
232,368,2020,5,0,0:0:0:0:
232,368,2196,1,0,0:0:0:0:
100,372,2372,2,0,L|140:304,1,70
184,216,2726,1,0,0:0:0:0:
184,216,2902,1,0,0:0:0:0:
52,220,3078,2,0,L|92:152,1,70
216,48,3432,5,0,0:0:0:0:
300,72,3608,1,0,0:0:0:0:
224,161,3785,2,0,L|152:169,1,70
236,250,4138,1,0,0:0:0:0:
153,284,4314,1,0,0:0:0:0:
244,356,4491,2,0,L|316:364,1,70
404,320,4844,5,0,0:0:0:0:
488,280,5020,1,0,0:0:0:0:
432,176,5197,2,0,L|360:168,1,70
460,80,5550,1,0,0:0:0:0:
376,20,5726,1,0,0:0:0:0:
276,96,5903,2,0,B|196:84|196:84|180:124|128:128,1,140
112,220,6432,5,0,0:0:0:0:
240,182,6608,2,0,L|300:235,1,70
377,328,6961,1,0,0:0:0:0:
419,239,7138,1,0,0:0:0:0:
292,244,7314,2,0,L|231:190,1,70
140,124,7667,5,0,0:0:0:0:
80,208,7844,1,0,0:0:0:0:
220,212,8020,2,0,L|283:256,1,70
383,317,8373,1,0,0:0:0:0:
307,371,8550,1,0,0:0:0:0:
259,213,8726,2,0,L|186:176,1,70
128,84,9079,5,0,0:0:0:0:
128,84,9256,1,0,0:0:0:0:
72,224,9432,2,0,L|116:292,1,70
128,84,9785,1,0,0:0:0:0:
128,84,9962,1,0,0:0:0:0:
72,224,10138,2,0,L|116:292,1,70
240,152,10491,5,0,0:0:0:0:
240,152,10668,1,0,0:0:0:0:
296,292,10844,2,0,L|252:360,1,70
240,152,11197,2,0,L|256:132,3,23.3333333333333
268,172,11461,2,0,L|300:148,1,35
280,200,11638,2,0,L|328:180,1,35
288,236,11814,2,0,L|328:228,1,35
168,324,12079,5,0,0:3:0:0:
96,184,12256,2,0,L|68:96,1,87.5
40,344,12608,1,0,0:0:0:0:
136,288,12785,1,0,0:0:0:0:
48,168,12961,2,0,L|84:80,1,87.5
192,28,13314,5,0,0:0:0:0:
288,84,13491,1,0,0:0:0:0:
200,204,13667,2,0,L|236:292,1,87.5
304,96,14020,1,0,0:0:0:0:
400,152,14197,1,0,0:0:0:0:
312,272,14373,2,0,L|348:360,1,87.5
240,320,14726,5,0,0:0:0:0:
240,320,14903,1,0,0:0:0:0:
284,120,15079,2,0,L|260:212,1,87.5
240,320,15432,1,0,0:0:0:0:
240,320,15609,1,0,0:0:0:0:
196,120,15785,2,0,L|220:212,1,87.5
244,24,16138,5,0,0:0:0:0:
244,24,16315,1,0,0:0:0:0:
288,224,16491,2,0,L|264:132,1,87.5
244,24,16844,1,0,0:0:0:0:
244,24,17021,1,0,0:0:0:0:
192,224,17197,2,0,B|208:140|208:140|154:131|140:68,1,175
65,31,17726,5,0,0:0:0:0:
23,179,17903,1,0,0:0:0:0:
195,103,18079,1,0,0:0:0:0:
19,69,18256,1,0,0:0:0:0:
105,228,18432,1,0,0:0:0:0:
174,58,18608,1,0,0:0:0:0:
308,177,18785,2,0,L|341:214,2,43.75
207,50,19138,5,0,0:0:0:0:
95,216,19314,1,0,0:0:0:0:
237,327,19491,1,0,0:0:0:0:
193,135,19667,1,0,0:0:0:0:
367,197,19844,1,0,0:0:0:0:
380,228,19932,1,0,0:0:0:0:
392,256,20020,1,0,0:0:0:0:
224,344,20197,5,0,0:0:0:0:
188,320,20285,1,0,0:0:0:0:
168,288,20373,1,0,0:0:0:0:
156,248,20461,1,0,0:0:0:0:
216,212,20550,1,0,0:0:0:0:
240,180,20638,1,0,0:0:0:0:
260,144,20726,1,0,0:0:0:0:
276,104,20814,1,0,0:0:0:0:
228,52,20903,6,0,L|200:12,4,43.75
136,20,21344,2,0,L|116:64,4,43.75
179,112,21785,2,0,L|185:145,3,29.1666666666667
188,156,22050,1,0,0:0:0:0:
232,144,22138,2,0,L|238:111,3,29.1666666666667
244,96,22403,1,0,0:0:0:0:
188,32,22491,5,0,0:0:0:0:
152,112,22579,1,0,0:0:0:0:
320,60,22756,1,0,0:0:0:0:
404,152,22844,1,0,0:0:0:0:
420,192,22932,1,0,0:0:0:0:
420,228,23020,1,0,0:0:0:0:
412,252,23108,1,0,0:0:0:0:
296,312,23197,2,0,B|236:240|236:240|280:204|320:168|292:72,1,280
348,200,33608,6,0,L|356:224,2,23.3333333333333
340,180,33785,1,0,0:0:0:0:
292,88,33873,1,0,0:0:0:0:
200,156,34050,1,0,0:0:0:0:
240,268,34138,2,0,P|263:284|294:285,1,35
388,284,34314,2,0,P|404:260|404:232,1,35
404,152,34491,6,0,L|371:91,3,70
176,120,35197,1,0,0:0:0:0:
302,101,35373,2,0,L|374:89,2,70
272,112,35814,1,0,0:0:0:0:
236,124,35903,5,0,0:0:0:0:
200,116,35991,1,0,0:0:0:0:
172,96,36079,2,0,L|108:48,2,70
312,240,36608,1,0,0:0:0:0:
396,168,36785,2,0,L|448:100,2,70
368,196,37226,1,0,0:0:0:0:
340,224,37314,5,0,0:0:0:0:
316,252,37403,1,0,0:0:0:0:
284,276,37491,2,0,L|228:220,2,70
464,284,38020,1,0,0:0:0:0:
456,156,38197,2,0,L|432:84,2,70
448,196,38638,1,0,0:0:0:0:
428,232,38726,5,0,0:0:0:0:
396,256,38814,1,0,0:0:0:0:
364,276,38903,2,0,L|288:300,2,70
400,260,39344,1,0,0:0:0:0:
428,232,39432,1,0,0:0:0:0:
448,196,39520,1,0,0:0:0:0:
468,148,39608,2,0,P|476:112|468:88,1,35
408,12,39785,1,0,0:0:0:0:
212,152,39961,1,0,0:0:0:0:
408,12,40138,5,0,0:0:0:0:
320,80,40314,2,0,L|260:124,2,70
496,80,40844,1,0,0:3:0:0:
488,224,41020,1,0,0:0:0:0:
392,304,41197,1,0,0:0:0:0:
488,224,41373,1,0,0:0:0:0:
488,184,41461,1,0,0:0:0:0:
472,148,41550,5,0,0:0:0:0:
408,80,41726,1,0,0:0:0:0:
272,28,41903,1,0,0:0:0:0:
300,176,42079,1,0,0:0:0:0:
460,8,42256,1,0,0:0:0:0:
440,152,42432,1,0,0:0:0:0:
328,56,42608,1,0,0:0:0:0:
292,208,42785,1,0,0:0:0:0:
304,248,42873,1,0,0:0:0:0:
320,284,42961,5,0,0:0:0:0:
448,352,43138,1,0,0:0:0:0:
468,196,43314,1,0,0:0:0:0:
316,224,43491,1,0,0:0:0:0:
508,360,43667,1,0,0:0:0:0:
448,240,43844,1,0,0:0:0:0:
352,364,44020,1,0,0:0:0:0:
448,240,44197,1,0,0:0:0:0:
456,200,44285,1,0,0:0:0:0:
448,160,44373,5,0,0:0:0:0:
384,76,44550,1,0,0:0:0:0:
224,36,44726,1,0,0:0:0:0:
264,184,44903,2,0,L|252:208,3,23.3333333333333
212,280,45167,1,0,0:0:0:0:
212,280,45344,1,0,0:0:0:0:
340,224,45432,1,0,0:0:0:0:
256,36,45608,1,0,0:0:0:0:
56,220,45785,5,0,0:0:0:0:
176,328,45961,2,0,P|208:328|248:308,1,70
260,300,46314,1,0,0:0:0:0:
376,184,46491,2,0,P|391:156|394:111,1,70
300,136,46844,1,0,0:0:0:0:
216,176,47020,1,0,0:0:0:0:
176,196,47108,1,0,0:0:0:0:
148,232,47197,5,0,0:0:0:0:
84,328,47373,2,0,P|124:344|164:344,1,70
192,344,47726,1,0,0:0:0:0:
348,280,47903,2,0,P|384:252|400:220,1,70
280,176,48256,1,0,0:0:0:0:
184,100,48432,1,0,0:0:0:0:
144,80,48520,1,0,0:0:0:0:
96,72,48608,5,0,0:0:0:0:
40,188,48785,2,0,P|36:244|56:276,1,70
156,212,49138,1,0,0:0:0:0:
348,184,49314,2,0,P|380:164|400:132,1,70
276,76,49667,1,0,0:0:0:0:
128,28,49844,1,0,0:0:0:0:
92,60,49932,1,0,0:0:0:0:
112,104,50020,5,0,0:0:0:0:
256,200,50197,2,0,P|288:220|304:252,1,70
164,328,50550,1,0,0:0:0:0:
120,304,50638,1,0,0:0:0:0:
132,256,50726,1,0,0:0:0:0:
216,192,50903,2,0,L|248:168,1,35
364,64,51079,1,0,0:0:0:0:
64,264,51256,1,0,0:0:0:0:
372,76,51432,5,0,0:0:0:0:
368,200,51608,1,0,0:0:0:0:
224,160,51785,1,0,0:0:0:0:
332,32,51961,1,0,0:0:0:0:
284,272,52138,2,0,P|244:296|204:292,1,70
100,188,52491,1,0,0:0:0:0:
256,96,52667,1,0,0:0:0:0:
268,128,52756,1,0,0:0:0:0:
260,168,52844,5,0,0:0:0:0:
120,288,53020,1,0,0:0:0:0:
128,108,53197,1,0,0:0:0:0:
260,204,53373,1,0,0:0:0:0:
144,376,53550,2,0,P|88:356|72:332,1,70
60,200,53903,1,0,0:0:0:0:
188,96,54079,2,0,L|224:108,1,35
344,148,54256,5,0,0:0:0:0:
232,260,54432,1,0,0:0:0:0:
176,112,54608,1,0,0:0:0:0:
336,72,54785,1,0,0:0:0:0:
360,256,54961,2,0,P|344:292|308:316,1,70
168,264,55314,1,0,0:0:0:0:
268,104,55491,2,0,L|308:80,1,35
412,40,55667,6,0,P|444:68|460:108,2,70
272,32,56197,2,0,L|240:40,3,23.3333333333333
208,60,56461,1,0,0:0:0:0:
128,180,56638,1,0,0:0:0:0:
304,164,56726,2,0,P|340:172|356:180,1,35
248,344,56903,2,0,P|224:356|200:356,1,35
88,104,57079,2,0,B|72:64|72:64|112:72|112:72|128:44|128:44|168:64|172:156|280:116|288:64|336:44|412:96|412:96|368:120|368:120|392:128|392:128|368:140|368:140|392:148|392:148,1,560
396,156,60256,5,0,0:0:0:0:
408,164,60608,1,0,0:0:0:0:
412,180,60961,1,0,0:0:0:0:
404,192,61314,5,0,0:0:0:0:
388,200,61667,1,0,0:0:0:0:
372,192,62020,1,0,0:0:0:0:
360,176,62373,1,0,0:0:0:0:
440,32,62726,6,0,L|448:48,1,17.5
452,88,63079,1,0,0:0:0:0:
424,120,63432,1,0,0:0:0:0:
384,112,63785,1,0,0:0:0:0:
360,76,64138,5,0,0:0:0:0:
384,36,64491,1,0,0:0:0:0:
432,28,64844,1,0,0:0:0:0:
468,60,65197,1,0,0:0:0:0:
468,116,65550,5,0,0:0:0:0:
432,168,65903,1,0,0:0:0:0:
376,208,66256,1,0,0:0:0:0:
304,224,66608,1,0,0:0:0:0:
224,208,66961,5,0,0:0:0:0:
156,136,67138,1,0,0:0:0:0:
156,136,67226,1,0,0:0:0:0:
156,136,67314,1,0,0:0:0:0:
320,128,67491,2,0,L|308:144,3,11.6666666666667
244,228,67756,1,0,0:0:0:0:
376,236,67932,1,0,0:0:0:0:
368,120,68020,1,0,0:0:0:0:
360,136,68108,1,0,0:0:0:0:
348,148,68197,1,0,0:0:0:0:
336,156,68285,1,0,0:0:0:0:
224,200,68373,6,0,P|200:208|188:220,1,35
124,304,68726,1,0,0:0:0:0:
200,344,68903,1,0,0:0:0:0:
280,316,69079,1,0,0:0:0:0:
344,256,69256,1,0,0:0:0:0:
208,164,69432,1,0,0:0:0:0:
256,88,69608,1,0,0:0:0:0:
344,48,69785,5,0,0:0:0:0:
380,52,69873,1,0,0:0:0:0:
416,76,69961,1,0,0:0:0:0:
448,216,70138,1,0,0:0:0:0:
392,288,70314,1,0,0:0:0:0:
300,312,70491,1,0,0:0:0:0:
216,268,70667,1,0,0:0:0:0:
336,128,70844,1,0,0:0:0:0:
280,60,71020,1,0,0:0:0:0:
128,44,71197,6,0,P|100:60|92:68,1,35
64,180,71550,1,0,0:0:0:0:
96,264,71726,1,0,0:0:0:0:
64,180,71903,1,0,0:0:0:0:
96,264,72079,1,0,0:0:0:0:
248,308,72256,1,0,0:0:0:0:
332,252,72432,2,0,B|356:220|356:220|352:208,2,52.5000020027161
184,312,72961,5,0,0:0:0:0:
120,244,73138,1,0,0:0:0:0:
104,152,73314,1,0,0:0:0:0:
128,120,73403,1,0,0:0:0:0:
164,100,73491,1,0,0:0:0:0:
204,92,73579,1,0,0:0:0:0:
308,116,73667,1,0,0:0:0:0:
308,116,73844,1,0,0:0:0:0:
400,244,74020,6,0,P|392:284|364:304,1,70
268,324,74285,2,0,L|228:332,4,35
276,244,74726,1,0,0:0:0:0:
308,176,74814,2,0,L|272:152,2,35
360,120,75079,1,0,0:0:0:0:
436,84,75167,2,0,L|444:124,2,35
452,196,75432,6,0,P|440:232|412:252,1,70
336,280,75697,1,0,0:0:0:0:
296,280,75785,1,0,0:0:0:0:
256,264,75873,1,0,0:0:0:0:
228,232,75961,1,0,0:0:0:0:
212,192,76050,1,0,0:0:0:0:
252,156,76138,1,0,0:0:0:0:
288,128,76226,2,0,L|292:88,2,35
264,56,76491,1,0,0:0:0:0:
224,28,76579,2,0,L|176:40,2,35
88,76,76844,5,0,0:0:0:0:
88,92,76932,1,0,0:0:0:0:
88,104,77020,1,0,0:0:0:0:
88,116,77108,1,0,0:0:0:0:
88,128,77197,1,0,0:0:0:0:
88,140,77285,1,0,0:0:0:0:
88,152,77373,1,0,0:0:0:0:
88,164,77461,1,0,0:0:0:0:
88,176,77550,1,0,0:0:0:0:
88,188,77638,2,0,L|88:232,6,35
248,340,78785,6,0,L|276:316,3,23.3333333333333
308,292,79050,1,0,0:0:0:0:
400,156,79226,1,0,0:0:0:0:
368,128,79314,1,0,0:0:0:0:
368,128,79403,1,0,0:0:0:0:
368,128,79491,1,0,0:0:0:0:
368,128,79579,1,0,0:0:0:0:
308,72,79667,6,0,L|256:72,3,35
288,148,80020,2,0,L|236:148,3,35
320,224,80373,2,0,L|268:224,3,35
296,304,80726,2,0,L|244:304,3,35
180,248,81079,5,0,0:0:0:0:
156,216,81167,1,0,0:0:0:0:
136,176,81256,1,0,0:0:0:0:
124,136,81344,1,0,0:0:0:0:
124,96,81432,2,0,L|124:56,3,35
160,108,81785,1,0,0:0:0:0:
200,124,81873,1,0,0:0:0:0:
240,144,81961,1,0,0:0:0:0:
280,160,82050,1,0,0:0:0:0:
320,176,82138,2,0,L|360:176,3,35
392,160,82491,5,0,0:0:0:0:
420,128,82579,1,0,0:0:0:0:
440,88,82667,1,0,0:0:0:0:
452,44,82756,1,0,0:0:0:0:
412,60,82844,1,0,0:0:0:0:
372,76,82932,1,0,0:0:0:0:
332,88,83020,1,0,0:0:0:0:
288,92,83108,1,0,0:0:0:0:
312,128,83197,1,0,0:0:0:0:
336,160,83285,1,0,0:0:0:0:
352,196,83373,1,0,0:0:0:0:
352,236,83461,1,0,0:0:0:0:
328,264,83550,2,0,L|288:264,3,35
244,192,83903,6,0,L|284:192,3,35
328,120,84256,2,0,L|288:120,3,35
244,44,84608,2,0,L|284:44,3,35
148,96,84961,2,0,B|80:136|80:136|84:200,1,140
88,228,85403,5,0,0:0:0:0:
104,256,85491,1,0,0:0:0:0:
132,272,85579,1,0,0:0:0:0:
152,248,85667,5,0,0:0:0:0:
176,224,85756,1,0,0:0:0:0:
204,208,85844,1,0,0:0:0:0:
232,192,85932,1,0,0:0:0:0:
264,188,86020,1,0,0:0:0:0:
296,196,86108,1,0,0:0:0:0:
324,212,86197,1,0,0:0:0:0:
348,232,86285,1,0,0:0:0:0:
368,208,86373,5,0,0:0:0:0:
368,176,86461,1,0,0:0:0:0:
352,148,86550,1,0,0:0:0:0:
328,128,86638,1,0,0:0:0:0:
300,116,86726,1,0,0:0:0:0:
268,108,86814,1,0,0:0:0:0:
236,116,86903,1,0,0:0:0:0:
208,128,86991,1,0,0:0:0:0:
224,156,87079,5,0,0:0:0:0:
256,164,87167,1,0,0:0:0:0:
288,156,87256,1,0,0:0:0:0:
312,136,87344,1,0,0:0:0:0:
332,112,87432,1,0,0:0:0:0:
352,88,87520,1,0,0:0:0:0:
372,64,87608,1,0,0:0:0:0:
396,44,87697,1,0,0:0:0:0:
412,68,87785,5,0,0:0:0:0:
420,100,87873,1,0,0:0:0:0:
408,128,87961,1,0,0:0:0:0:
384,148,88050,1,0,0:0:0:0:
356,160,88138,1,0,0:0:0:0:
328,168,88226,1,0,0:0:0:0:
296,168,88314,1,0,0:0:0:0:
264,164,88403,1,0,0:0:0:0:
252,192,88491,5,0,0:3:0:0:
232,216,88579,1,0,0:3:0:0:
208,236,88667,1,0,0:3:0:0:
180,252,88756,1,0,0:3:0:0:
148,260,88844,1,0,0:3:0:0:
116,252,88932,1,0,0:3:0:0:
88,236,89020,1,0,0:3:0:0:
68,212,89108,1,0,0:3:0:0:
92,192,89197,5,0,0:3:0:0:
120,176,89285,1,0,0:0:0:0:
152,172,89373,1,0,0:0:0:0:
184,176,89461,1,0,0:0:0:0:
216,188,89550,1,0,0:0:0:0:
244,204,89638,1,0,0:0:0:0:
272,220,89726,1,0,0:0:0:0:
292,244,89814,1,0,0:0:0:0:
320,232,89903,5,0,0:0:0:0:
344,212,89991,1,0,0:0:0:0:
356,184,90079,1,0,0:0:0:0:
360,152,90167,1,0,0:0:0:0:
356,120,90256,2,0,L|348:96,3,13.9999995727539
332,80,90520,1,0,0:0:0:0:
360,68,90608,1,0,0:0:0:0:
332,80,90697,1,0,0:0:0:0:
364,72,90785,1,0,0:0:0:0:
332,80,90873,1,0,0:0:0:0:
352,104,90961,5,0,0:0:0:0:
336,116,91050,1,0,0:0:0:0:
320,124,91138,1,0,0:0:0:0:
304,132,91226,1,0,0:0:0:0:
240,168,91314,5,0,0:0:0:0:
308,148,91403,1,0,0:0:0:0:
320,164,91491,1,0,0:0:0:0:
332,176,91579,1,0,0:0:0:0:
348,188,91667,1,0,0:0:0:0:
364,200,91756,1,0,0:0:0:0:
380,212,91844,1,0,0:0:0:0:
396,224,91932,1,0,0:0:0:0:
452,264,92020,5,0,0:0:0:0:
388,240,92108,1,0,0:0:0:0:
372,252,92197,1,0,0:0:0:0:
356,264,92285,1,0,0:0:0:0:
340,276,92373,1,0,0:0:0:0:
324,284,92461,1,0,0:0:0:0:
308,292,92550,1,0,0:0:0:0:
292,300,92638,1,0,0:0:0:0:
252,360,92726,5,0,0:0:0:0:
276,292,92814,1,0,0:0:0:0:
264,280,92903,1,0,0:0:0:0:
252,264,92991,1,0,0:0:0:0:
244,248,93079,1,0,0:0:0:0:
240,236,93167,1,0,0:0:0:0:
236,224,93256,1,0,0:0:0:0:
232,212,93344,1,0,0:0:0:0:
192,212,93432,5,0,0:0:0:0:
228,200,93520,1,0,0:0:0:0:
264,180,93608,1,0,0:0:0:0:
296,156,93697,1,0,0:0:0:0:
384,116,93785,1,0,0:0:0:0:
392,128,93873,1,0,0:0:0:0:
400,140,93961,1,0,0:0:0:0:
408,152,94050,1,0,0:0:0:0:
448,140,94138,5,0,0:0:0:0:
416,164,94226,1,0,0:0:0:0:
384,188,94314,1,0,0:0:0:0:
344,200,94403,1,0,0:0:0:0:
252,176,94491,1,0,0:0:0:0:
248,188,94579,1,0,0:0:0:0:
244,200,94667,1,0,0:0:0:0:
240,212,94756,1,0,0:0:0:0:
204,200,94844,5,0,0:0:0:0:
236,220,94932,1,0,0:0:0:0:
272,240,95020,1,0,0:0:0:0:
308,252,95108,1,0,0:0:0:0:
348,264,95197,2,0,L|392:276,3,26.2500010013581
456,276,95550,6,0,B|480:248|480:248|480:216,1,52.5000020027161
480,156,95814,2,0,L|492:124,4,26.2500010013581
388,128,96256,2,0,B|339:57|339:57|295:89|240:54,1,175
188,64,96697,5,0,0:0:0:0:
128,88,96785,1,0,0:0:0:0:
88,140,96873,1,0,0:0:0:0:
76,204,96961,2,0,P|84:256|104:288,1,87.5
228,328,97314,1,0,0:0:0:0:
284,292,97403,1,0,0:0:0:0:
316,236,97491,1,0,0:0:0:0:
336,172,97579,1,0,0:0:0:0:
344,108,97667,2,0,P|328:56|300:24,1,87.5
220,128,98020,6,0,L|172:152,3,43.75
180,76,98373,2,0,P|232:64|272:88,1,87.5
384,124,98726,2,0,L|432:148,3,43.75
424,72,99079,2,0,P|372:60|332:84,1,87.5
256,172,99432,5,0,0:0:0:0:
216,224,99520,1,0,0:0:0:0:
264,268,99608,1,0,0:0:0:0:
216,316,99697,1,0,0:0:0:0:
264,360,99785,2,0,P|332:348|364:320,1,87.5
432,240,100138,5,0,0:0:0:0:
472,188,100226,1,0,0:0:0:0:
424,144,100314,1,0,0:0:0:0:
472,96,100403,1,0,0:0:0:0:
424,52,100491,2,0,P|356:64|324:92,1,87.5
232,148,100844,6,0,L|224:188,3,29.1666666666667
216,216,101138,1,0,0:0:0:0:
244,248,101197,2,0,L|276:280,3,29.1666666666667
304,268,101491,1,0,0:0:0:0:
344,248,101550,2,0,L|376:212,3,29.1666666666667
392,192,101844,2,0,L|412:156,1,29.1666666666667
320,156,102020,2,0,L|292:180,1,29.1666666666667
212,152,102197,1,0,0:0:0:0:
180,192,102256,6,0,B|28:104|-44:176|-44:248|16:304|132:288|168:200|112:96|156:32|156:32|244:16|364:52|396:164,1,840.000032043458
408,220,103756,1,0,0:0:0:0:
400,276,103844,2,0,P|396:315|377:337,1,52.5000020027161
340,288,104020,2,0,P|303:282|281:262,1,52.5000020027161
336,232,104197,1,0,0:0:0:0:
336,232,104285,1,0,0:0:0:0:
316,176,104373,2,0,L|255:185,1,52.5000020027161
212,192,104550,1,0,0:0:0:0:
164,200,104638,1,0,0:0:0:0:
132,164,104726,2,0,L|173:109,1,52.5000020027161
196,84,104903,1,0,0:0:0:0:
240,60,104991,1,0,0:0:0:0:
288,52,105079,6,0,P|340:44|364:88,1,105.000004005432
376,132,105344,1,0,0:0:0:0:
376,180,105432,2,0,B|368:240|368:240|320:224,1,105.000004005432
284,208,105697,1,0,0:0:0:0:
240,184,105785,2,0,P|216:156|144:132,2,105.000004005432
264,224,106226,1,0,0:0:0:0:
280,268,106314,1,0,0:0:0:0:
304,308,106403,1,0,0:0:0:0:
340,336,106491,6,0,P|376:352|400:340,1,52.5000020027161
424,320,106667,1,0,0:0:0:0:
456,284,106756,2,0,P|488:240|477:191,1,105.000004005432
425,228,107020,2,0,P|368:200|363:181,1,52.5000020027161
340,184,107197,1,0,0:0:0:0:
340,184,107285,1,0,0:0:0:0:
340,184,107373,1,0,0:0:0:0:
340,184,107461,1,0,0:0:0:0:
360,236,107550,2,0,B|275:247|275:247|269:193|240:188,1,157.500006008148
164,160,107903,6,0,B|-14:123|-5:12|65:-57|172:-29|234:66|161:145|48:179|33:256|33:256|155:208|248:210|296:332,1,840.000032043458
300,328,109403,1,0,0:0:0:0:
344,344,109491,2,0,P|374:319|383:292,1,52.5000020027161
344,344,109667,2,0,P|381:338|403:318,1,52.5000020027161
432,284,109844,1,0,0:0:0:0:
432,284,109932,1,0,0:0:0:0:
456,240,110020,2,0,L|422:188,1,52.5000020027161
400,156,110197,1,0,0:0:0:0:
376,116,110285,1,0,0:0:0:0:
340,84,110373,2,0,L|271:80,1,52.5000020027161
244,92,110550,1,0,0:0:0:0:
212,124,110638,1,0,0:0:0:0:
200,76,110726,6,0,P|148:68|124:112,1,105.000004005432
128,152,110991,1,0,0:0:0:0:
136,200,111079,2,0,B|144:260|144:260|192:244,1,105.000004005432
228,228,111344,1,0,0:0:0:0:
272,212,111432,2,0,P|306:226|351:287,2,105.000004005432
232,204,111873,1,0,0:0:0:0:
188,212,111961,1,0,0:0:0:0:
156,244,112050,1,0,0:0:0:0:
128,280,112138,6,0,P|92:296|68:284,1,52.5000020027161
48,320,112314,1,0,0:0:0:0:
44,276,112403,2,0,P|12:232|23:183,1,105.000004005432
76,220,112667,2,0,P|133:192|138:173,1,52.5000020027161
160,172,112844,2,0,L|188:128,3,35.0000013351441
216,84,113108,1,0,0:0:0:0:
244,68,113197,1,0,0:0:0:0:
248,104,113285,1,0,0:0:0:0:
224,68,113373,1,0,0:0:0:0:
256,84,113461,1,0,0:0:0:0:
228,100,113550,6,0,B|76:188|8:132|4:44|56:-8|180:4|216:92|160:196|204:260|204:260|292:276|412:240|444:128,1,840.000032043458
452,88,115050,1,0,0:0:0:0:
440,44,115138,2,0,P|403:57|386:81,1,52.5000020027161
394,66,115314,2,0,P|357:60|335:40,1,52.5000020027161
308,72,115491,1,0,0:0:0:0:
308,32,115579,1,0,0:0:0:0:
272,52,115667,2,0,L|211:61,1,52.5000020027161
184,40,115844,1,0,0:0:0:0:
184,76,115932,1,0,0:0:0:0:
144,60,116020,2,0,L|81:88,1,52.5000020027161
52,80,116197,1,0,0:0:0:0:
72,116,116285,1,0,0:0:0:0:
32,116,116373,6,0,P|16:166|57:196,1,105.000004005432
96,204,116638,1,0,0:0:0:0:
136,224,116726,2,0,B|144:284|144:284|192:268,1,105.000004005432
228,252,116991,1,0,0:0:0:0:
264,224,117079,2,0,P|289:197|305:123,2,105.000004005432
224,216,117520,1,0,0:0:0:0:
240,256,117608,1,0,0:0:0:0:
264,224,117697,1,0,0:0:0:0:
308,236,117785,6,0,P|344:252|368:240,1,52.5000020027161
392,228,117961,1,0,0:0:0:0:
428,204,118050,2,0,P|460:160|449:111,1,105.000004005432
408,112,118314,2,0,P|351:84|346:65,1,52.5000020027161
324,52,118491,1,0,0:0:0:0:
284,72,118579,1,0,0:0:0:0:
256,108,118667,1,0,0:0:0:0:
240,152,118755,1,0,0:0:0:0:
240,196,118844,2,0,B|270:276|270:276|320:256|338:279,1,157.500006008148
400,320,119197,5,0,0:0:0:0:
432,172,119373,1,0,0:0:0:0:
316,272,119550,5,0,0:0:0:0:
260,140,119726,1,0,0:0:0:0:
176,280,119903,5,0,0:0:0:0:
312,184,120079,1,0,0:0:0:0:
156,144,120256,5,0,0:0:0:0:
288,256,120432,1,0,0:0:0:0:
288,256,120520,1,0,0:0:0:0:
332,284,120608,5,0,0:0:0:0:
392,128,120785,1,0,0:0:0:0:
392,128,120873,1,0,0:0:0:0:
344,104,120961,5,0,0:0:0:0:
200,208,121138,1,0,0:0:0:0:
200,208,121226,1,0,0:0:0:0:
160,176,121314,5,0,0:0:0:0:
352,212,121491,1,0,0:0:0:0:
352,212,121579,1,0,0:0:0:0:
396,236,121667,5,0,0:0:0:0:
216,324,121844,1,0,0:0:0:0:
216,324,121932,1,0,0:0:0:0:
268,316,122020,6,0,L|280:264,3,35
312,240,122373,2,0,L|328:188,3,35
296,160,122726,6,0,L|312:104,3,35
352,104,123079,2,0,L|368:52,3,35
328,32,123432,6,0,B|260:20|188:36|188:36|268:64|252:188,1,315
252,196,124403,1,0,0:0:0:0:
252,300,124491,2,0,L|296:252,1,35
188,228,124667,2,0,L|160:192,1,35
248,156,124844,6,0,B|268:112|300:80|352:108|388:136,1,140
