osu file format v14

[General]
AudioFilename: audio.mp3
AudioLeadIn: 0
PreviewTime: 20507
Countdown: 0
SampleSet: Soft
StackLeniency: 0.7
Mode: 0
LetterboxInBreaks: 0
WidescreenStoryboard: 0

[Editor]
DistanceSpacing: 3
BeatDivisor: 4
GridSize: 16
TimelineZoom: 1.9

[Metadata]
Title:Introduction
TitleUnicode:Introduction
Artist:DJ Genki
ArtistUnicode:DJ Genki
Creator:KaedeharaKazuha
Version:Extra
Source:
Tags:Addy2607 Kaedehara Kazuha happycore j-core ultimate happy carnival hardcore electronic instrumental english Gram Intro fa featured artist mg mpg mappers mapper's guild
BeatmapID:4457542
BeatmapSetID:2121355

[Difficulty]
HPDrainRate:6
CircleSize:3.8
OverallDifficulty:8.5
ApproachRate:9.2
SliderMultiplier:1.9
SliderTickRate:1

[Events]
//Background and Video events
0,0,"87626360_p5.png",0,0
//Break Periods
//Storyboard Layer 0 (Background)
//Storyboard Layer 1 (Fail)
//Storyboard Layer 2 (Pass)
//Storyboard Layer 3 (Foreground)
//Storyboard Layer 4 (Overlay)
//Storyboard Sound Samples

[TimingPoints]
182,300,4,2,1,70,1,0
482,-142.857142857143,4,2,1,5,0,0
782,-142.857142857143,4,2,1,10,0,0
1082,-142.857142857143,4,2,1,20,0,0
1382,-142.857142857143,4,2,1,30,0,0
1682,-142.857142857143,4,2,1,40,0,0
1982,-142.857142857143,4,2,1,50,0,0
2282,-142.857142857143,4,2,1,60,0,0
2582,300,4,2,1,40,1,0
2582,-166.666666666667,4,2,1,40,0,0
12182,-142.857142857143,4,2,1,50,0,0
14582,-125,4,2,1,60,0,0
16982,-111.111111111111,4,2,1,70,0,0
19382,-100,4,2,1,80,0,0
20582,-250,4,2,1,60,0,0
20882,-105.263157894737,4,2,1,60,0,0
21182,-80,4,2,1,60,0,0
21482,-62.5,4,2,1,80,0,0
21782,-83.3333333333333,4,2,2,95,0,1
36182,-76.9230769230769,4,2,2,90,0,1
39782,-100,4,2,3,80,0,1
40982,-100,4,2,1,60,0,0
42182,-100,4,2,1,50,0,0
42782,-100,4,2,1,40,0,0
43382,-100,4,2,1,30,0,0
43982,-100,4,2,1,20,0,0
44582,-100,4,2,1,30,0,0
44882,-100,4,2,1,40,0,0
45182,-100,4,2,1,50,0,0
45482,-100,4,2,1,60,0,0
45782,-100,4,2,1,5,0,0

[Colours]
Combo1 : 117,117,117
Combo2 : 205,48,48
Combo3 : 166,166,166
Combo4 : 68,183,221

[HitObjects]
256,192,482,12,0,2282,0:0:0:0:
489,280,2582,6,0,P|496:327|500:354,3,56.9999982604981,2|0|0|0,0:0|0:0|0:0|0:0,0:0:0:0:
418,302,3182,2,0,P|425:349|429:376,3,56.9999982604981,2|0|2|0,0:0|0:0|0:0|0:0,0:0:0:0:
339,286,3782,6,0,P|346:333|350:360,3,56.9999982604981,2|0|0|0,0:0|0:0|0:0|0:0,0:0:0:0:
268,308,4382,2,0,P|275:355|279:382,3,56.9999982604981,2|0|2|0,0:0|0:0|0:0|0:0,0:0:0:0:
151,283,4982,5,2,0:0:0:0:
151,283,5132,1,0,0:0:0:0:
163,273,5282,1,2,0:0:0:0:
183,235,5432,1,0,0:0:0:0:
148,179,5582,1,2,0:0:0:0:
99,111,5732,1,0,0:0:0:0:
133,17,5882,1,2,0:0:0:0:
228,15,6032,1,0,0:0:0:0:
296,93,6182,5,2,0:0:0:0:
300,80,6332,1,0,0:0:0:0:
316,51,6482,1,2,0:0:0:0:
388,21,6632,1,0,0:0:0:0:
461,76,6782,1,2,0:0:0:0:
436,174,6932,1,0,0:0:0:0:
346,243,7082,1,2,0:0:0:0:
379,363,7232,1,0,0:0:0:0:
390,359,7382,6,0,P|437:366|464:370,3,56.9999982604981,2|0|0|0,0:0|0:0|0:0|0:0,0:0:0:0:
468,296,7982,2,0,P|440:292|412:288,3,56.9999982604981,2|0|2|0,0:0|0:0|0:0|0:0,0:0:0:0:
396,209,8582,6,0,P|443:216|470:220,3,56.9999982604981,2|0|0|0,0:0|0:0|0:0|0:0,0:0:0:0:
474,146,9182,2,0,P|446:142|418:138,3,56.9999982604981,2|0|2|0,0:0|0:0|0:0|0:0,0:0:0:0:
303,65,9782,5,2,0:0:0:0:
303,65,9932,1,0,0:0:0:0:
290,51,10082,1,2,0:0:0:0:
269,34,10232,1,0,0:0:0:0:
214,20,10382,1,2,0:0:0:0:
150,38,10532,1,0,0:0:0:0:
100,109,10682,1,2,0:0:0:0:
126,212,10832,1,0,0:0:0:0:
245,246,10982,5,2,0:0:0:0:
266,239,11132,1,0,0:0:0:0:
316,195,11282,1,2,0:0:0:0:
409,159,11432,1,0,0:0:0:0:
498,224,11582,2,0,L|494:246,11,18.999999420166,2|0|0|0|0|0|0|0|0|0|0|0,0:0|0:0|0:0|0:0|0:0|0:0|0:0|0:0|0:0|0:0|0:0|0:0,0:0:0:0:
489,250,12182,6,0,P|430:263|345:281,1,132.999995941162,4|8,3:2|0:0,0:0:0:0:
509,328,12632,1,0,0:0:0:0:
509,328,12782,2,0,P|443:341|379:356,1,132.999995941162,8|8,0:0|0:0,0:0:0:0:
323,210,13382,2,0,P|264:197|179:179,1,132.999995941162,8|8,0:0|0:0,0:0:0:0:
340,135,13832,1,0,0:0:0:0:
340,135,13982,2,0,P|274:121|210:106,1,132.999995941162,8|8,0:0|0:0,0:0:0:0:
0,238,14582,5,6,3:2:0:0:
0,238,14732,2,0,P|6:285|9:320,1,76,0|8,0:0|0:0,0:0:0:0:
77,228,15032,1,2,0:0:0:0:
77,228,15182,2,0,P|83:275|86:310,1,76,8|0,0:0|0:0,0:0:0:0:
154,218,15482,2,0,P|160:265|163:300,1,76,10|0,0:0|0:0,0:0:0:0:
261,364,15782,5,10,0:0:0:0:
261,364,15932,2,0,P|267:317|270:282,2,76,0|8|0,0:0|0:0|0:0,0:0:0:0:
338,374,16382,2,0,P|344:327|347:292,1,76,10|0,0:0|0:0,0:0:0:0:
415,384,16682,2,0,P|421:337|424:302,1,76,10|0,0:0|0:0,0:0:0:0:
502,158,16982,5,4,3:2:0:0:
492,239,17132,1,8,0:0:0:0:
448,94,17282,1,8,0:0:0:0:
458,13,17432,1,8,0:0:0:0:
379,145,17582,5,8,0:0:0:0:
369,226,17732,1,8,0:0:0:0:
325,81,17882,1,8,0:0:0:0:
335,0,18032,1,8,0:0:0:0:
171,75,18182,5,4,3:2:0:0:
171,75,18257,1,8,0:0:0:0:
171,75,18332,1,8,0:0:0:0:
259,133,18482,1,8,0:0:0:0:
136,168,18632,1,8,0:0:0:0:
287,227,18782,1,8,0:0:0:0:
108,268,18932,1,8,0:0:0:0:
312,325,19082,1,8,0:0:0:0:
78,371,19232,1,8,0:0:0:0:
290,219,19382,5,4,3:2:0:0:
442,374,19532,1,0,3:0:0:0:
223,291,19682,1,0,3:0:0:0:
429,181,19832,1,0,3:0:0:0:
296,15,19982,5,0,3:0:0:0:
298,26,20057,1,0,3:0:0:0:
300,38,20132,1,0,3:0:0:0:
302,50,20207,1,0,3:0:0:0:
304,61,20282,5,0,3:0:0:0:
245,52,20357,1,0,3:0:0:0:
186,43,20432,1,0,3:0:0:0:
127,35,20507,1,0,3:0:0:0:
69,26,20582,6,0,L|78:98,1,57,2|0,0:0|0:0,0:0:0:0:
39,153,20882,6,0,L|43:189,5,30.0833325300217,2|0|0|0|0|0,0:0|0:0|0:0|0:0|0:0|0:0,0:0:0:0:
127,212,21182,6,0,L|132:253,5,39.5833333333333,2|0|0|2|0|0,0:0|0:0|0:0|0:0|0:0|0:0,0:0:0:0:
38,307,21482,6,0,L|45:370,5,50.6666666666667,2|0|0|0|0|0,0:1|0:0|0:0|0:0|0:0|0:0,0:0:0:0:
39,365,21782,5,4,3:1:0:0:
188,305,21932,1,0,0:0:0:0:
248,384,22082,1,8,3:2:0:0:
398,304,22232,1,0,0:0:0:0:
473,361,22382,2,0,P|479:301|488:229,1,113.999996520996,0|0,3:0|0:0,0:0:0:0:
327,183,22682,1,8,3:2:0:0:
250,241,22832,2,0,P|244:181|235:109,1,113.999996520996,0|0,0:0|3:0,0:0:0:0:
422,61,23132,5,0,0:0:0:0:
512,20,23282,2,0,P|477:63|413:56,1,113.999996520996,8|0,3:2|0:0,0:0:0:0:
264,21,23582,2,0,P|318:29|344:88,1,113.999996520996,0|0,3:0|0:0,0:0:0:0:
389,236,23882,2,0,P|369:184|407:132,1,113.999996520996,8|0,3:2|0:0,0:0:0:0:
193,55,24182,5,0,3:0:0:0:
112,109,24332,2,0,P|50:98|-20:84,1,113.999996520996,0|8,0:0|3:2,0:0:0:0:
198,138,24632,5,0,0:0:0:0:
117,192,24782,2,0,P|55:181|-15:167,1,113.999996520996,0|0,3:0|0:0,0:0:0:0:
203,221,25082,5,8,3:2:0:0:
122,275,25232,2,0,P|60:264|-10:250,1,113.999996520996,0|0,0:0|3:0,0:0:0:0:
203,221,25532,5,0,0:0:0:0:
262,370,25682,2,0,P|200:359|130:345,1,113.999996520996,8|0,3:2|0:0,0:0:0:0:
20,363,25982,1,0,3:0:0:0:
117,192,26132,1,0,0:0:0:0:
385,358,26282,5,8,0:0:0:0:
385,358,26357,1,8,0:0:0:0:
385,358,26432,1,8,0:0:0:0:
385,358,26507,1,8,0:0:0:0:
385,358,26582,5,4,3:2:0:0:
295,195,26732,1,0,0:0:0:0:
254,275,26882,1,8,3:2:0:0:
499,274,27032,1,0,0:0:0:0:
464,194,27182,2,0,P|475:125|485:76,1,113.999996520996,0|0,3:0|0:0,0:0:0:0:
313,0,27482,1,8,3:2:0:0:
237,32,27632,2,0,P|226:101|216:150,1,113.999996520996,0|0,0:0|3:0,0:0:0:0:
177,330,27932,5,0,0:0:0:0:
267,372,28082,2,0,P|232:329|168:336,1,113.999996520996,8|0,3:2|0:0,0:0:0:0:
0,376,28382,2,0,P|54:368|80:309,1,113.999996520996,0|0,3:0|0:0,0:0:0:0:
130,142,28682,2,0,P|109:192|148:244,1,113.999996520996,8|0,3:2|0:0,0:0:0:0:
325,310,28982,5,0,3:0:0:0:
400,255,29132,2,0,P|462:266|532:280,1,113.999996520996,0|8,0:0|3:2,0:0:0:0:
320,227,29432,5,0,0:0:0:0:
395,172,29582,2,0,P|457:183|527:197,2,113.999996520996,0|0|8,3:0|0:0|3:2,0:0:0:0:
254,276,30032,1,0,0:0:0:0:
43,133,30182,6,0,P|30:77|16:22,1,113.999996520996,2|0,3:2|0:0,0:0:0:0:
92,0,30406,2,0,P|104:55|118:110,1,113.999996520996,0|0,3:0|0:0,0:0:0:0:
100,186,30632,1,0,3:0:0:0:
210,349,30782,5,8,3:2:0:0:
3,201,30932,1,8,3:2:0:0:
212,57,31082,5,8,0:0:0:0:
212,57,31157,1,8,0:0:0:0:
212,57,31232,1,8,0:0:0:0:
212,57,31307,1,8,0:0:0:0:
212,57,31382,5,6,3:1:0:0:
307,100,31532,1,0,0:0:0:0:
400,4,31682,1,8,3:2:0:0:
499,134,31832,1,0,0:0:0:0:
432,187,31982,2,0,P|423:258|419:315,1,113.999996520996,0|0,3:0|0:0,0:0:0:0:
282,384,32282,1,8,3:2:0:0:
207,335,32432,2,0,P|216:264|220:207,1,113.999996520996,0|0,0:0|3:0,0:0:0:0:
177,51,32732,5,0,0:0:0:0:
267,10,32882,2,0,P|232:53|168:46,1,113.999996520996,8|0,3:2|0:0,0:0:0:0:
0,6,33182,2,0,P|54:14|80:73,1,113.999996520996,0|0,3:0|0:0,0:0:0:0:
130,240,33482,2,0,P|109:190|148:138,1,113.999996520996,8|0,3:2|0:0,0:0:0:0:
360,27,33782,5,2,3:1:0:0:
421,103,33932,2,0,P|412:174|408:231,1,113.999996520996,0|8,0:0|3:2,0:0:0:0:
277,44,34232,5,0,0:0:0:0:
338,120,34382,2,0,P|329:191|325:248,1,113.999996520996,0|0,3:0|0:0,0:0:0:0:
194,61,34682,5,8,3:2:0:0:
255,137,34832,2,0,P|246:208|242:265,1,113.999996520996,0|0,0:0|3:0,0:0:0:0:
67,384,35132,5,0,0:0:0:0:
0,318,35282,2,0,P|9:247|13:190,1,113.999996520996,8|0,3:2|0:0,0:0:0:0:
21,23,35582,5,0,3:0:0:0:
116,145,35732,1,0,0:0:0:0:
307,15,35882,5,8,0:0:0:0:
307,15,35957,1,8,0:0:0:0:
307,15,36032,1,8,0:0:0:0:
307,15,36107,1,8,0:0:0:0:
307,15,36182,5,2,3:1:0:0:
341,109,36332,1,0,3:0:0:0:
213,49,36482,1,0,3:0:0:0:
247,143,36632,1,0,3:0:0:0:
478,307,36782,5,0,3:0:0:0:
512,213,36932,1,0,3:0:0:0:
384,273,37082,1,0,3:0:0:0:
418,179,37232,1,8,0:0:0:0:
418,179,37307,1,8,0:0:0:0:
418,179,37382,5,2,3:1:0:0:
412,356,37532,1,0,3:0:0:0:
299,180,37682,1,0,3:0:0:0:
280,364,37832,1,0,3:0:0:0:
119,94,37982,5,0,3:0:0:0:
128,336,38132,1,0,3:0:0:0:
198,156,38282,1,0,3:0:0:0:
5,257,38432,1,8,0:0:0:0:
5,257,38507,1,8,0:0:0:0:
5,257,38582,5,2,3:1:0:0:
223,288,38732,1,0,3:0:0:0:
114,101,38882,1,0,3:0:0:0:
10,353,39032,1,0,3:0:0:0:
207,151,39182,5,8,3:2:0:0:
243,123,39257,1,8,3:2:0:0:
288,121,39332,1,8,3:2:0:0:
326,146,39407,1,8,3:2:0:0:
342,189,39482,1,8,3:2:0:0:
358,231,39557,1,8,3:2:0:0:
396,256,39632,1,8,3:2:0:0:
441,255,39707,1,8,3:2:0:0:
477,227,39782,6,0,P|485:161|495:116,1,95,2|8,0:1|0:0,0:0:0:0:
510,44,40007,1,8,0:0:0:0:
510,44,40082,2,0,P|444:36|399:26,1,95,8|8,0:0|0:0,0:0:0:0:
327,11,40307,1,8,0:0:0:0:
327,11,40382,2,0,P|319:77|309:122,1,95,8|8,0:0|0:0,0:0:0:0:
294,194,40607,1,8,0:0:0:0:
294,194,40682,2,0,P|360:202|405:212,1,95,8|4,0:3|0:3,0:0:0:0:
404,116,40982,5,4,3:2:0:0:
256,192,41057,12,0,45782,0:0:0:0:
