osu file format v14

[General]
AudioFilename: audio.mp3
AudioLeadIn: 0
PreviewTime: 20507
Countdown: 0
SampleSet: Soft
StackLeniency: 0.7
Mode: 0
LetterboxInBreaks: 0
WidescreenStoryboard: 1

[Editor]
DistanceSpacing: 0.9
BeatDivisor: 4
GridSize: 16
TimelineZoom: 1

[Metadata]
Title:Introduction
TitleUnicode:Introduction
Artist:DJ Genki
ArtistUnicode:DJ Genki
Creator:KaedeharaKazuha
Version:Easy
Source:
Tags:Addy2607 Kaedehara Kazuha happycore j-core ultimate happy carnival hardcore electronic instrumental english Gram Intro fa featured artist mg mpg mappers mapper's guild
BeatmapID:4457541
BeatmapSetID:2121355

[Difficulty]
HPDrainRate:3
CircleSize:3
OverallDifficulty:3
ApproachRate:4
SliderMultiplier:1
SliderTickRate:1

[Events]
//Background and Video events
0,0,"87626360_p5.png",0,0
//Break Periods
//Storyboard Layer 0 (Background)
//Storyboard Layer 1 (Fail)
//Storyboard Layer 2 (Pass)
//Storyboard Layer 3 (Foreground)
//Storyboard Layer 4 (Overlay)
//Storyboard Sound Samples

[TimingPoints]
182,300,4,2,1,70,1,0
482,-100,4,2,1,5,0,0
782,-100,4,2,1,10,0,0
1082,-100,4,2,1,20,0,0
1382,-100,4,2,1,30,0,0
1682,-100,4,2,1,40,0,0
1982,-100,4,2,1,50,0,0
2282,-100,4,2,1,60,0,0
2582,300,4,2,1,40,1,0
2582,-100,4,2,1,40,0,0
12182,-100,4,2,1,50,0,0
14582,-100,4,2,1,60,0,0
16982,-100,4,2,1,70,0,0
19382,-100,4,2,1,80,0,0
20582,-100,4,2,1,60,0,0
21482,-100,4,2,1,80,0,0
21782,-100,4,2,2,95,0,1
36182,-100,4,2,2,90,0,1
39782,-100,4,2,3,80,0,1
40982,-100,4,2,1,60,0,0
42182,-100,4,2,1,50,0,0
42782,-100,4,2,1,40,0,0
43382,-100,4,2,1,30,0,0
43982,-100,4,2,1,20,0,0
44582,-100,4,2,1,30,0,0
44882,-100,4,2,1,40,0,0
45182,-100,4,2,1,50,0,0
45482,-100,4,2,1,60,0,0
45782,-100,4,2,1,5,0,0

[Colours]
Combo1 : 117,117,117
Combo2 : 205,48,48
Combo3 : 166,166,166
Combo4 : 68,183,221

[HitObjects]
52,373,2582,6,0,P|132:360|266:347,1,200,2|2,0:0|0:0,0:0:0:0:
342,369,3482,1,2,0:0:0:0:
342,369,3782,2,0,P|328:289|316:155,1,200,2|2,0:0|0:0,0:0:0:0:
251,117,4682,1,2,0:0:0:0:
251,117,4982,6,0,P|211:123|144:129,2,100,2|2|2,0:0|0:0|0:0,0:0:0:0:
400,217,6182,2,0,P|440:211|507:205,2,100,2|2|2,0:0|0:0|0:0,0:0:0:0:
353,295,7082,1,2,0:0:0:0:
353,295,7382,6,0,P|253:304|154:320,1,200,2|2,0:0|0:0,0:0:0:0:
71,300,8282,1,2,0:0:0:0:
71,300,8582,2,0,P|-2:232|43:148,1,200,2|2,0:0|0:0,0:0:0:0:
113,107,9482,1,2,0:0:0:0:
113,107,9782,6,0,P|108:54|99:2,2,100,2|2|2,0:0|0:0|0:0,0:0:0:0:
218,252,10982,2,0,P|223:305|232:357,2,100,2|2|2,0:0|0:0|0:0,0:0:0:0:
260,172,11882,1,0,0:0:0:0:
336,219,12182,6,0,P|341:272|350:324,1,100,4|8,3:2|0:0,0:0:0:0:
432,364,12782,1,8,0:0:0:0:
432,364,13082,1,8,0:0:0:0:
486,292,13382,2,0,P|477:242|473:192,1,100,8|8,0:0|0:0,0:0:0:0:
400,138,13982,1,8,0:0:0:0:
454,66,14282,1,8,0:0:0:0:
386,6,14582,6,0,P|321:19|231:24,1,150,6|2,3:2|0:0,0:0:0:0:
139,116,15482,2,0,P|152:181|154:225,1,100,10|8,0:0|0:0,0:0:0:0:
238,373,16382,1,10,0:0:0:0:
298,306,16682,1,10,0:0:0:0:
370,359,16982,6,0,P|421:367|477:383,2,100,4|8|8,3:2|0:0|0:0,0:0:0:0:
305,298,17882,1,8,0:0:0:0:
377,244,18182,2,0,P|428:252|484:268,2,100,4|8|8,3:2|0:0|0:0,0:0:0:0:
300,81,19382,6,0,P|249:73|193:57,1,100,4|0,3:2|3:0,0:0:0:0:
120,96,19982,1,0,3:0:0:0:
171,170,20282,1,0,3:0:0:0:
107,233,20582,2,0,P|56:241|0:257,2,100,2|2|2,0:0|0:0|0:0,0:0:0:0:
170,304,21482,1,2,0:1:0:0:
170,304,21782,6,0,P|247:319|385:359,1,200,4|0,3:1|3:0,0:0:0:0:
476,276,22832,2,0,P|486:222|514:127,1,150,2|8,0:0|3:2,0:0:0:0:
445,70,23582,1,0,3:0:0:0:
384,136,23882,1,8,3:2:0:0:
316,76,24182,6,0,P|299:31|199:47,2,150,0|0|8,3:0|0:0|3:2,0:0:0:0:
273,155,25382,1,0,3:0:0:0:
341,213,25682,2,0,P|398:218|446:227,2,100,8|0|8,3:2|3:0|0:0,0:0:0:0:
277,276,26582,6,0,P|202:356|122:326,1,200,4|0,3:2|3:0,0:0:0:0:
21,247,27632,2,0,P|16:198|0:92,1,150,2|8,0:0|3:2,0:0:0:0:
71,41,28382,1,0,3:0:0:0:
124,113,28682,1,8,3:2:0:0:
201,66,28982,6,0,P|238:10|316:43,2,150,0|0|8,3:0|3:0|3:2,0:0:0:0:
268,126,30182,1,2,3:2:0:0:
199,184,30482,1,2,3:2:0:0:
264,245,30782,1,8,3:2:0:0:
115,347,31382,6,0,P|61:356|8:369,2,100,6|8|0,3:1|3:2|3:0,0:0:0:0:
187,293,32282,1,8,3:2:0:0:
246,360,32582,2,0,P|300:351|353:338,1,100,0|8,3:0|3:2,0:0:0:0:
430,380,33182,1,0,3:0:0:0:
430,380,33482,1,8,3:2:0:0:
489,312,33782,6,0,P|475:229|455:148,1,150,2|2,3:1|0:0,0:0:0:0:
498,35,34682,2,0,P|393:59|286:76,1,200,8|8,3:2|3:2,0:0:0:0:
226,26,35582,1,0,3:0:0:0:
136,38,35882,1,8,0:0:0:0:
102,123,36182,5,2,3:1:0:0:
102,123,36482,2,0,P|50:116|-13:112,2,100,0|0|0,3:0|3:0|3:0,0:0:0:0:
168,191,37382,1,2,3:1:0:0:
168,191,37682,2,0,P|220:184|283:180,2,100,0|0|0,3:0|3:0|3:0,0:0:0:0:
100,251,38582,6,0,P|48:244|-15:240,1,100,2|0,3:1|3:0,0:0:0:0:
2,330,39182,2,0,P|51:333|101:340,1,100,8|8,3:2|3:2,0:0:0:0:
180,297,39782,1,2,0:1:0:0:
243,360,40082,1,8,0:0:0:0:
328,331,40382,1,8,0:0:0:0:
356,245,40682,1,8,0:3:0:0:
313,165,40982,1,4,3:2:0:0:
256,192,41132,12,0,45782,0:0:0:0:
