osu file format v14

[General]
AudioFilename: audio.mp3
AudioLeadIn: 0
PreviewTime: 18965
Countdown: 0
SampleSet: Normal
StackLeniency: 0.7
Mode: 1
LetterboxInBreaks: 0
WidescreenStoryboard: 1

[Editor]
Bookmarks: 39365
DistanceSpacing: 3
BeatDivisor: 4
GridSize: 16
TimelineZoom: 2.299999

[Metadata]
Title:GAME 0VER
TitleUnicode:GAME 0VER
Artist:DJ Genki
ArtistUnicode:DJ Genki
Creator:Burak
Version:KANTAN
Source:
Tags:ULTRA HAPPY COLLECTION!!! Gram happy hardcore over justburak fa featured artist mpg mappers' guild instrumental electronic
BeatmapID:3801977
BeatmapSetID:1850746

[Difficulty]
HPDrainRate:8
CircleSize:3
OverallDifficulty:3
ApproachRate:10
SliderMultiplier:1.4
SliderTickRate:1

[Events]
//Background and Video events
0,0,"bg.jpg",0,-50
//Break Periods
//Storyboard Layer 0 (Background)
//Storyboard Layer 1 (Fail)
//Storyboard Layer 2 (Pass)
//Storyboard Layer 3 (Foreground)
//Storyboard Layer 4 (Overlay)
//Storyboard Sound Samples

[TimingPoints]
5765,300,4,1,0,80,1,0
5765,-105.263157894737,4,1,0,80,0,0
14746,-105.263157894737,4,1,0,85,0,0
14765,-105.263157894737,4,1,0,85,0,0
14821,-105.263157894737,4,1,0,85,0,0
14840,-105.263157894737,4,1,0,85,0,0
14896,-105.263157894737,4,1,0,85,0,0
14915,-105.263157894737,4,1,0,85,0,0
14971,-105.263157894737,4,1,0,85,0,0
15065,-105.263157894737,4,1,0,85,0,0
15196,-105.263157894737,4,1,0,85,0,0
15290,-105.263157894737,4,1,0,60,0,0
15365,-105.263157894737,4,1,0,60,0,0
16265,-105.263157894737,4,1,0,60,0,0
17912,-105.263157894737,4,1,0,62,0,0
17915,-105.263157894737,4,1,0,62,0,0
17987,-105.263157894737,4,1,0,63,0,0
17990,-105.263157894737,4,1,0,63,0,0
18062,-105.263157894737,4,1,0,65,0,0
18065,-105.263157894737,4,1,0,65,0,0
18212,-105.263157894737,4,1,0,66,0,0
18215,-105.263157894737,4,1,0,66,0,0
18362,-105.263157894737,4,1,0,68,0,0
18365,-105.263157894737,4,1,0,68,0,0
18437,-105.263157894737,4,1,0,69,0,0
18440,-105.263157894737,4,1,0,69,0,0
18512,-105.263157894737,4,1,0,71,0,0
18515,-105.263157894737,4,1,0,71,0,0
18587,-105.263157894737,4,1,0,72,0,0
18590,-105.263157894737,4,1,0,72,0,0
18662,-105.263157894737,4,1,0,74,0,0
18665,-105.263157894737,4,1,0,74,0,0
18737,-105.263157894737,4,1,0,75,0,0
18812,-105.263157894737,4,1,0,77,0,0
18815,-105.263157894737,4,1,0,77,0,0
18887,-105.263157894737,4,1,0,78,0,0
18890,-105.263157894737,4,1,0,78,0,0
18962,-105.263157894737,4,1,0,80,0,0
18965,-105.263157894737,4,1,0,80,0,0
19790,-105.263157894737,4,1,0,85,0,0
19865,-105.263157894737,4,1,0,85,0,0
20090,-105.263157894737,4,1,0,90,0,0
20165,-105.263157894737,4,1,0,90,0,1
29765,-105.263157894737,4,1,0,80,0,0
37262,-105.960264900662,4,1,0,80,0,0
37562,-106.666666666667,4,1,0,80,0,0
38162,-108.108108108108,4,1,0,80,0,0
38462,-108.843537414966,4,1,0,80,0,0
38762,-109.58904109589,4,1,0,80,0,0
39062,-110.344827586207,4,1,0,80,0,0
39290,-109.58904109589,4,1,0,60,0,0
39362,-111.111111111111,4,1,0,60,0,0
56462,-110.091743119266,4,1,0,60,0,0
56762,-109.090909090909,4,1,0,60,0,0
57062,-108.108108108108,4,1,0,60,0,0
57362,-107.142857142857,4,1,0,60,0,0
57890,-105.263157894737,4,1,0,85,0,0
57965,-105.263157894737,4,1,0,85,0,0
58565,-105.263157894737,4,1,0,80,0,0
66965,-105.263157894737,4,1,0,80,0,0
67546,-105.263157894737,4,1,0,85,0,0
67562,-105.263157894737,4,1,0,85,0,0
67637,-105.263157894737,4,1,0,85,0,0
67712,-105.263157894737,4,1,0,85,0,0
67790,-105.263157894737,4,1,0,85,0,0
67862,-105.263157894737,4,1,0,85,0,0
68090,-105.263157894737,4,1,0,90,0,0
68165,-105.263157894737,4,1,0,90,0,1
77690,-105.263157894737,4,1,0,80,0,1
77765,-105.263157894737,4,1,0,80,0,0
81946,-105.263157894737,4,1,0,85,0,0
81965,-105.263157894737,4,1,0,85,0,0
82040,-105.263157894737,4,1,0,85,0,0
82115,-105.263157894737,4,1,0,85,0,0
82190,-105.263157894737,4,1,0,85,0,0
82265,-105.263157894737,4,1,0,85,0,0
82415,-105.263157894737,4,1,0,85,0,0
82565,-105.263157894737,4,1,0,85,0,0
82865,-105.263157894737,4,1,0,85,0,0
83015,-105.263157894737,4,1,0,85,0,0
83165,-105.263157894737,4,1,0,85,0,0
83315,-105.263157894737,4,1,0,85,0,0
83465,-105.263157894737,4,1,0,85,0,0
83765,-105.263157894737,4,1,0,85,0,0
83915,-105.263157894737,4,1,0,85,0,0
84065,-105.263157894737,4,1,0,85,0,0
84215,-105.263157894737,4,1,0,85,0,0
84365,-105.263157894737,4,1,0,85,0,0
84440,-105.263157894737,4,1,0,85,0,0
84515,-105.263157894737,4,1,0,85,0,0
84590,-105.263157894737,4,1,0,90,0,0
84665,-105.263157894737,4,1,0,90,0,0
84740,-105.263157894737,4,1,0,90,0,0
84815,-105.263157894737,4,1,0,90,0,0
84890,-105.263157894737,4,1,0,90,0,0
84965,-105.263157894737,4,1,0,90,0,0
85265,-105.263157894737,4,1,0,90,0,0
85415,-105.263157894737,4,1,0,90,0,0
85490,-105.263157894737,4,1,0,90,0,0
85565,-105.263157894737,4,1,0,90,0,0
85715,-105.263157894737,4,1,0,90,0,0
85865,-105.263157894737,4,1,0,90,0,0
86015,-105.263157894737,4,1,0,90,0,0
86165,-105.263157894737,4,1,0,90,0,0
86240,-105.263157894737,4,1,0,90,0,0
86315,-105.263157894737,4,1,0,90,0,0
86390,-105.263157894737,4,1,0,90,0,0
86465,-105.263157894737,4,1,0,90,0,0
86540,-105.263157894737,4,1,0,90,0,0
86615,-105.263157894737,4,1,0,90,0,0
86765,-105.263157894737,4,1,0,90,0,0
86840,-105.263157894737,4,1,0,90,0,0
86915,-105.263157894737,4,1,0,90,0,0
86990,-105.263157894737,4,1,0,90,0,0
87065,-105.263157894737,4,1,0,90,0,0
87140,-105.263157894737,4,1,0,90,0,0
87215,-105.263157894737,4,1,0,90,0,0

[HitObjects]
192,247,5765,5,4,0:0:0:0:
196,265,6065,1,4,0:0:0:0:
202,269,8165,1,4,0:0:0:0:
202,269,8465,1,4,0:0:0:0:
184,186,10565,2,4,L|432:171,1,232.749993784905
194,233,12365,1,12,0:0:0:0:
200,244,12965,1,4,0:0:0:0:
200,244,13265,1,4,0:0:0:0:
167,224,14765,1,4,0:0:0:0:
174,243,15365,1,12,0:0:0:0:
191,252,15965,1,0,0:0:0:0:
191,252,16265,1,8,0:0:0:0:
191,252,16565,1,0,0:0:0:0:
191,252,17165,1,8,0:0:0:0:
191,252,17465,1,8,0:0:0:0:
191,252,17765,1,0,0:0:0:0:
191,252,18365,1,8,0:0:0:0:
191,252,18965,1,0,0:0:0:0:
189,237,20165,1,4,0:0:0:0:
189,237,20765,1,8,0:0:0:0:
147,211,21065,1,8,0:0:0:0:
142,221,21365,1,0,0:0:0:0:
144,217,21965,1,8,0:0:0:0:
144,217,22565,1,0,0:0:0:0:
144,217,22865,1,8,0:0:0:0:
144,217,23165,1,0,0:0:0:0:
144,217,23765,1,0,0:0:0:0:
144,217,24065,1,0,0:0:0:0:
144,217,24365,1,8,0:0:0:0:
144,217,24665,1,8,0:0:0:0:
144,217,24965,1,0,0:0:0:0:
162,216,25865,1,8,0:0:0:0:
162,216,26165,1,0,0:0:0:0:
162,216,26765,1,0,0:0:0:0:
162,216,27065,1,8,0:0:0:0:
162,216,27365,1,0,0:0:0:0:
162,216,27965,1,8,0:0:0:0:
162,216,28565,1,0,0:0:0:0:
162,216,28865,1,0,0:0:0:0:
162,216,29165,1,8,0:0:0:0:
162,216,29765,1,4,0:0:0:0:
162,216,30665,1,0,0:0:0:0:
162,216,30965,1,8,0:0:0:0:
162,216,31565,1,8,0:0:0:0:
162,216,31865,1,0,0:0:0:0:
162,216,32165,1,0,0:0:0:0:
162,216,32765,1,8,0:0:0:0:
162,216,33365,1,0,0:0:0:0:
162,216,33665,1,0,0:0:0:0:
162,216,33965,1,8,0:0:0:0:
162,216,34265,1,8,0:0:0:0:
162,216,34565,1,0,0:0:0:0:
153,220,35165,1,8,0:0:0:0:
153,220,35765,1,0,0:0:0:0:
154,233,36065,1,0,0:0:0:0:
154,222,36965,1,8,0:0:0:0:
154,222,37265,1,0,0:0:0:0:
154,222,37565,1,8,0:0:0:0:
154,222,38165,1,0,0:0:0:0:
154,222,38465,1,0,0:0:0:0:
154,222,38765,1,8,0:0:0:0:
155,211,39065,1,8,0:0:0:0:
154,222,39365,1,0,0:0:0:0:
183,251,40565,1,8,0:0:0:0:
183,251,41765,1,0,0:0:0:0:
183,251,42365,1,8,0:0:0:0:
183,251,42965,1,0,0:0:0:0:
181,259,44165,1,8,0:0:0:0:
181,259,44765,1,8,0:0:0:0:
181,259,45365,1,0,0:0:0:0:
154,263,46565,1,0,0:0:0:0:
154,263,47165,1,0,0:0:0:0:
154,263,47765,1,8,0:0:0:0:
156,263,48965,1,0,0:0:0:0:
160,255,49265,1,8,0:0:0:0:
160,252,49565,1,0,0:0:0:0:
160,255,50165,1,8,0:0:0:0:
162,249,50765,1,0,0:0:0:0:
165,262,51365,1,8,0:0:0:0:
168,258,51665,1,8,0:0:0:0:
165,262,51965,1,0,0:0:0:0:
156,280,52565,1,0,0:0:0:0:
168,257,53765,1,0,0:0:0:0:
168,257,54065,1,0,0:0:0:0:
168,257,54365,1,8,0:0:0:0:
168,257,54965,1,0,0:0:0:0:
168,257,55565,1,8,0:0:0:0:
174,256,56165,1,0,0:0:0:0:
174,256,56465,1,8,0:0:0:0:
174,256,56765,1,8,0:0:0:0:
174,256,57065,1,0,0:0:0:0:
174,256,57365,1,0,0:0:0:0:
174,256,57965,1,8,0:0:0:0:
192,247,58565,5,4,0:0:0:0:
196,265,58865,1,4,0:0:0:0:
202,269,60965,1,4,0:0:0:0:
202,269,61265,1,4,0:0:0:0:
184,186,63365,2,4,L|421:173,1,232.749993784905
194,233,65165,1,8,0:0:0:0:
200,244,65765,1,4,0:0:0:0:
200,244,66065,1,4,0:0:0:0:
167,224,67565,1,4,0:0:0:0:
189,237,68165,1,12,0:0:0:0:
189,237,68765,1,8,0:0:0:0:
147,211,69065,1,8,0:0:0:0:
142,221,69365,1,0,0:0:0:0:
144,217,69965,1,8,0:0:0:0:
144,217,70565,1,0,0:0:0:0:
144,217,70865,1,0,0:0:0:0:
144,217,71165,1,8,0:0:0:0:
144,217,71765,1,0,0:0:0:0:
144,217,72065,1,0,0:0:0:0:
144,217,72365,1,8,0:0:0:0:
144,217,72665,1,8,0:0:0:0:
144,217,72965,1,0,0:0:0:0:
162,216,73865,1,8,0:0:0:0:
162,216,74165,1,0,0:0:0:0:
162,216,74765,1,0,0:0:0:0:
162,216,75065,1,8,0:0:0:0:
162,216,75365,1,0,0:0:0:0:
162,216,75965,1,8,0:0:0:0:
162,216,76565,1,0,0:0:0:0:
162,216,76865,1,0,0:0:0:0:
162,216,77165,1,8,0:0:0:0:
162,216,77765,1,4,0:0:0:0:
186,206,78665,1,8,0:0:0:0:
186,206,78965,1,0,0:0:0:0:
186,206,79565,1,0,0:0:0:0:
186,206,79865,1,8,0:0:0:0:
186,206,80165,1,0,0:0:0:0:
155,233,80765,1,8,0:0:0:0:
155,233,81365,1,0,0:0:0:0:
155,233,81965,1,8,0:0:0:0:
155,233,82265,1,8,0:0:0:0:
155,233,82565,1,4,0:0:0:0:
169,226,83465,1,8,0:0:0:0:
169,226,83765,1,4,0:0:0:0:
113,219,84365,1,0,0:0:0:0:
169,226,84665,1,0,0:0:0:0:
156,234,84965,1,12,0:0:0:0:
154,234,85565,1,4,0:0:0:0:
127,240,86165,1,8,0:0:0:0:
128,240,86465,1,8,0:0:0:0:
87,236,86765,1,0,0:0:0:0:
177,248,87065,1,0,0:0:0:0:
