osu file format v14

[General]
AudioFilename: audio.mp3
AudioLeadIn: 0
PreviewTime: 18965
Countdown: 0
SampleSet: Normal
StackLeniency: 0.7
Mode: 1
LetterboxInBreaks: 0
WidescreenStoryboard: 1

[Editor]
Bookmarks: 39365
DistanceSpacing: 3
BeatDivisor: 4
GridSize: 16
TimelineZoom: 2.299999

[Metadata]
Title:GAME 0VER
TitleUnicode:GAME 0VER
Artist:DJ Genki
ArtistUnicode:DJ Genki
Creator:Burak
Version:FUTSUU
Source:
Tags:ULTRA HAPPY COLLECTION!!! Gram happy hardcore over justburak fa featured artist mpg mappers' guild instrumental electronic
BeatmapID:3801976
BeatmapSetID:1850746

[Difficulty]
HPDrainRate:7
CircleSize:3
OverallDifficulty:4
ApproachRate:10
SliderMultiplier:1.4
SliderTickRate:1

[Events]
//Background and Video events
0,0,"bg.jpg",0,-50
//Break Periods
//Storyboard Layer 0 (Background)
//Storyboard Layer 1 (Fail)
//Storyboard Layer 2 (Pass)
//Storyboard Layer 3 (Foreground)
//Storyboard Layer 4 (Overlay)
//Storyboard Sound Samples

[TimingPoints]
5765,300,4,1,0,80,1,0
14746,-100,4,1,0,85,0,0
14765,-100,4,1,0,85,0,0
14821,-100,4,1,0,85,0,0
14840,-100,4,1,0,85,0,0
14896,-100,4,1,0,85,0,0
14915,-100,4,1,0,85,0,0
14971,-100,4,1,0,85,0,0
15065,-100,4,1,0,85,0,0
15196,-100,4,1,0,85,0,0
15290,-100,4,1,0,60,0,0
15365,-100,4,1,0,60,0,0
16265,-100,4,1,0,60,0,0
17912,-100,4,1,0,62,0,0
17915,-100,4,1,0,62,0,0
17987,-100,4,1,0,63,0,0
17990,-100,4,1,0,63,0,0
18062,-100,4,1,0,65,0,0
18065,-100,4,1,0,65,0,0
18212,-100,4,1,0,66,0,0
18215,-100,4,1,0,66,0,0
18362,-100,4,1,0,68,0,0
18365,-100,4,1,0,68,0,0
18437,-100,4,1,0,69,0,0
18440,-100,4,1,0,69,0,0
18512,-100,4,1,0,71,0,0
18515,-100,4,1,0,71,0,0
18587,-100,4,1,0,72,0,0
18590,-100,4,1,0,72,0,0
18662,-100,4,1,0,74,0,0
18665,-100,4,1,0,74,0,0
18737,-100,4,1,0,75,0,0
18812,-100,4,1,0,77,0,0
18815,-100,4,1,0,77,0,0
18887,-100,4,1,0,78,0,0
18890,-100,4,1,0,78,0,0
18962,-100,4,1,0,80,0,0
18965,-100,4,1,0,80,0,0
19790,-100,4,1,0,85,0,0
19865,-100,4,1,0,85,0,0
20090,-100,4,1,0,90,0,0
20165,-100,4,1,0,90,0,1
29765,-100,4,1,0,80,0,0
37712,-100.418410041841,4,1,0,80,0,0
37862,-100.840336134454,4,1,0,80,0,0
38162,-101.694915254237,4,1,0,80,0,0
38312,-102.127659574468,4,1,0,80,0,0
38462,-102.564102564103,4,1,0,80,0,0
38612,-103.004291845494,4,1,0,80,0,0
38762,-103.448275862069,4,1,0,80,0,0
39062,-104.347826086957,4,1,0,80,0,0
39290,-100,4,1,0,60,0,0
39362,-105.263157894737,4,1,0,60,0,0
57890,-100,4,1,0,85,0,0
57965,-100,4,1,0,85,0,0
58565,-100,4,1,0,80,0,0
66965,-100,4,1,0,80,0,0
67546,-100,4,1,0,85,0,0
67562,-100,4,1,0,85,0,0
67637,-100,4,1,0,85,0,0
67712,-100,4,1,0,85,0,0
67790,-100,4,1,0,85,0,0
67862,-100,4,1,0,85,0,0
68090,-100,4,1,0,90,0,0
68165,-100,4,1,0,90,0,1
77690,-100,4,1,0,80,0,1
77765,-100,4,1,0,80,0,0
81946,-100,4,1,0,85,0,0
81965,-100,4,1,0,85,0,0
82040,-100,4,1,0,85,0,0
82115,-100,4,1,0,85,0,0
82190,-100,4,1,0,85,0,0
82265,-100,4,1,0,85,0,0
82415,-100,4,1,0,85,0,0
82565,-100,4,1,0,85,0,0
82865,-100,4,1,0,85,0,0
83015,-100,4,1,0,85,0,0
83165,-100,4,1,0,85,0,0
83315,-100,4,1,0,85,0,0
83465,-100,4,1,0,85,0,0
83765,-100,4,1,0,85,0,0
83915,-100,4,1,0,85,0,0
84065,-100,4,1,0,85,0,0
84215,-100,4,1,0,85,0,0
84365,-100,4,1,0,85,0,0
84440,-100,4,1,0,85,0,0
84515,-100,4,1,0,85,0,0
84590,-100,4,1,0,90,0,0
84665,-100,4,1,0,90,0,0
84740,-100,4,1,0,90,0,0
84815,-100,4,1,0,90,0,0
84890,-100,4,1,0,90,0,0
84965,-100,4,1,0,90,0,0
85265,-100,4,1,0,90,0,0
85415,-100,4,1,0,90,0,0
85490,-100,4,1,0,90,0,0
85565,-100,4,1,0,90,0,0
85715,-100,4,1,0,90,0,0
85865,-100,4,1,0,90,0,0
86015,-100,4,1,0,90,0,0
86165,-100,4,1,0,90,0,0
86240,-100,4,1,0,90,0,0
86315,-100,4,1,0,90,0,0
86390,-100,4,1,0,90,0,0
86465,-100,4,1,0,90,0,0
86540,-100,4,1,0,90,0,0
86615,-100,4,1,0,90,0,0
86765,-100,4,1,0,90,0,0
86840,-100,4,1,0,90,0,0
86915,-100,4,1,0,90,0,0
86990,-100,4,1,0,90,0,0
87065,-100,4,1,0,90,0,0
87140,-100,4,1,0,90,0,0
87215,-100,4,1,0,90,0,0

[HitObjects]
152,293,5765,5,4,1:0:0:0:
152,293,6065,1,4,1:0:0:0:
152,293,6215,1,4,1:0:0:0:
170,268,7565,1,0,1:0:0:0:
170,278,7715,1,0,1:0:0:0:
170,279,7865,1,8,1:0:0:0:
180,278,8165,1,4,1:0:0:0:
183,274,8465,1,4,1:0:0:0:
185,274,8615,1,4,1:0:0:0:
142,240,10565,2,4,L|195:235,7,35,8|8|8|8|8|4|4|4,0:0|0:0|0:0|0:0|0:0|0:0|0:0|0:0,0:0:0:0:
211,286,12365,1,0,1:0:0:0:
218,294,12515,1,0,1:0:0:0:
220,294,12665,1,8,1:0:0:0:
221,298,12965,1,4,1:0:0:0:
220,296,13265,1,4,1:0:0:0:
220,294,13415,1,4,1:0:0:0:
256,192,14165,12,0,14615,1:0:0:0:
168,246,14765,5,8,1:0:0:0:
168,246,14915,1,8,1:0:0:0:
168,246,15065,1,0,1:0:0:0:
180,245,15365,1,12,1:0:0:0:
180,245,15965,1,0,1:0:0:0:
180,245,16115,1,0,1:0:0:0:
180,245,16265,1,8,1:0:0:0:
199,255,16565,1,0,1:0:0:0:
201,248,16865,1,0,1:0:0:0:
201,244,17015,1,8,1:0:0:0:
202,243,17315,1,0,1:0:0:0:
201,248,17465,1,8,1:0:0:0:
185,242,17615,1,8,0:0:0:0:
201,244,17765,1,0,1:0:0:0:
229,258,18065,1,8,1:0:0:0:
228,252,18365,1,8,1:0:0:0:
230,253,18515,1,8,1:0:0:0:
233,253,18665,1,0,1:0:0:0:
229,258,18815,1,0,1:0:0:0:
241,232,18965,1,8,1:0:0:0:
165,239,19865,1,8,1:0:0:0:
165,239,20165,1,4,1:0:0:0:
165,239,20765,1,0,1:0:0:0:
165,239,20915,1,0,1:0:0:0:
167,230,21065,1,8,1:0:0:0:
167,230,21365,1,0,1:0:0:0:
183,259,21665,1,8,1:0:0:0:
183,259,21815,1,8,1:0:0:0:
183,259,21965,1,0,1:0:0:0:
183,259,22265,1,8,1:0:0:0:
224,259,22565,1,8,1:0:0:0:
190,266,23165,1,0,1:0:0:0:
190,266,23315,1,0,1:0:0:0:
190,266,23465,1,8,1:0:0:0:
197,263,23765,1,0,1:0:0:0:
197,263,24065,1,8,1:0:0:0:
197,263,24365,1,0,1:0:0:0:
197,263,24515,1,0,1:0:0:0:
197,263,24665,1,8,1:0:0:0:
197,263,24815,1,8,1:0:0:0:
165,239,24965,1,0,1:0:0:0:
165,239,25565,1,8,1:0:0:0:
165,239,25715,1,8,1:0:0:0:
167,230,25865,1,0,1:0:0:0:
167,230,26165,1,0,1:0:0:0:
183,259,26465,1,8,1:0:0:0:
183,259,26615,1,8,1:0:0:0:
183,259,26765,1,0,1:0:0:0:
183,259,27065,1,8,1:0:0:0:
224,259,27365,1,0,1:0:0:0:
190,266,27965,1,0,1:0:0:0:
190,266,28115,1,0,1:0:0:0:
190,266,28265,1,8,1:0:0:0:
197,263,28565,1,8,1:0:0:0:
197,263,28715,1,8,1:0:0:0:
197,263,28865,1,8,1:0:0:0:
197,263,29165,1,0,1:0:0:0:
197,263,29315,1,0,1:0:0:0:
197,263,29465,1,0,1:0:0:0:
178,262,29765,1,12,1:0:0:0:
53,199,30365,5,0,1:0:0:0:
199,272,30515,1,8,1:0:0:0:
200,273,30665,1,8,1:0:0:0:
182,286,30965,1,0,1:0:0:0:
179,284,31265,1,0,1:0:0:0:
144,258,31415,1,8,0:0:0:0:
72,202,31715,1,0,0:0:0:0:
179,290,31865,1,8,1:0:0:0:
202,265,32165,1,4,1:0:0:0:
202,265,32765,1,8,1:0:0:0:
216,282,32915,1,0,0:0:0:0:
209,268,33065,1,0,1:0:0:0:
218,271,33365,1,8,1:0:0:0:
208,269,33665,1,0,1:0:0:0:
216,268,33815,1,8,1:0:0:0:
245,269,34115,1,0,1:0:0:0:
245,269,34265,1,8,1:0:0:0:
245,269,34565,1,4,1:0:0:0:
224,261,35165,1,8,1:0:0:0:
243,244,35315,1,0,1:0:0:0:
224,261,35465,1,8,1:0:0:0:
224,261,35765,1,0,1:0:0:0:
140,268,36065,1,0,0:0:0:0:
166,291,36215,1,8,0:0:0:0:
240,280,36515,1,0,1:0:0:0:
240,281,36665,1,8,1:0:0:0:
240,281,36965,1,4,1:0:0:0:
240,281,37565,1,0,1:0:0:0:
240,281,37715,1,0,1:0:0:0:
240,280,37865,1,8,1:0:0:0:
228,259,38165,1,8,1:0:0:0:
228,259,38315,1,8,1:0:0:0:
228,259,38465,1,0,1:0:0:0:
122,224,38615,1,0,0:0:0:0:
245,267,38765,1,8,1:0:0:0:
226,346,39065,1,8,1:0:0:0:
243,292,39365,1,0,1:0:0:0:
243,292,39965,1,8,1:0:0:0:
243,292,40115,1,0,1:0:0:0:
243,292,40565,1,0,1:0:0:0:
243,292,41165,1,0,1:0:0:0:
243,292,41315,1,0,1:0:0:0:
243,292,41765,1,0,1:0:0:0:
243,292,42365,1,0,1:0:0:0:
243,292,42515,1,0,1:0:0:0:
243,292,42965,1,8,1:0:0:0:
224,282,43565,1,0,1:0:0:0:
227,280,43715,1,0,1:0:0:0:
224,282,44165,1,0,1:0:0:0:
224,282,44315,1,0,1:0:0:0:
227,280,44465,1,8,1:0:0:0:
224,282,44765,1,0,1:0:0:0:
224,282,44915,1,0,1:0:0:0:
224,282,45365,1,8,1:0:0:0:
224,282,45965,1,0,1:0:0:0:
224,282,46115,1,0,1:0:0:0:
224,282,46565,1,0,1:0:0:0:
224,282,46715,1,0,1:0:0:0:
224,282,46865,1,8,1:0:0:0:
224,282,47165,1,0,1:0:0:0:
224,282,47315,1,0,1:0:0:0:
224,282,47765,1,8,1:0:0:0:
224,282,48365,1,0,1:0:0:0:
224,282,48515,1,0,1:0:0:0:
224,282,48965,1,0,1:0:0:0:
224,282,49115,1,0,1:0:0:0:
224,282,49265,1,8,1:0:0:0:
224,282,49565,1,0,1:0:0:0:
224,282,49865,1,8,1:0:0:0:
230,280,50165,1,0,1:0:0:0:
238,284,50315,1,0,0:0:0:0:
224,282,50465,1,8,1:0:0:0:
230,280,50765,1,0,1:0:0:0:
224,282,51365,1,0,1:0:0:0:
50,188,51515,1,0,1:0:0:0:
222,283,51665,1,8,1:0:0:0:
224,282,51965,1,0,1:0:0:0:
222,283,52265,1,8,1:0:0:0:
202,288,52565,1,8,0:0:0:0:
202,282,52715,1,8,0:0:0:0:
226,279,52865,1,0,1:0:0:0:
241,277,53165,1,8,1:0:0:0:
237,292,53765,1,0,1:0:0:0:
244,290,54065,1,8,1:0:0:0:
244,290,54215,1,8,1:0:0:0:
242,286,54365,1,0,1:0:0:0:
242,280,54665,1,8,1:0:0:0:
242,280,54965,1,8,1:0:0:0:
242,286,55115,1,8,1:0:0:0:
233,274,55265,1,0,1:0:0:0:
233,270,55565,1,8,1:0:0:0:
232,271,56165,1,0,1:0:0:0:
231,269,56465,1,8,1:0:0:0:
130,195,56615,1,0,0:0:0:0:
232,271,56765,1,8,1:0:0:0:
233,270,57065,1,8,1:0:0:0:
207,268,57365,1,0,1:0:0:0:
212,242,57965,1,8,1:0:0:0:
212,242,58115,1,8,1:0:0:0:
207,237,58265,1,0,1:0:0:0:
196,252,58565,1,4,1:0:0:0:
194,254,58865,1,4,1:0:0:0:
194,254,59015,1,4,1:0:0:0:
191,221,60365,1,0,1:0:0:0:
191,221,60515,1,0,1:0:0:0:
190,245,60665,1,8,1:0:0:0:
191,221,60965,1,4,1:0:0:0:
168,262,61265,1,4,1:0:0:0:
169,264,61415,1,4,1:0:0:0:
124,226,63365,2,4,L|182:222,7,35,8|8|8|8|8|8|8|8,1:0|1:0|1:0|1:0|1:0|1:0|1:0|1:0,1:0:0:0:
246,186,65165,1,0,1:0:0:0:
246,186,65315,1,0,1:0:0:0:
246,186,65465,1,8,1:0:0:0:
246,186,65765,1,4,1:0:0:0:
246,186,66065,1,4,1:0:0:0:
246,186,66215,1,4,1:0:0:0:
256,192,66965,12,0,67415,1:0:0:0:
100,222,67565,5,8,1:0:0:0:
154,237,67715,1,8,1:0:0:0:
165,239,67865,1,0,1:0:0:0:
165,239,68165,1,12,1:0:0:0:
165,239,68765,1,8,1:0:0:0:
165,239,68915,1,0,1:0:0:0:
167,230,69065,1,8,1:0:0:0:
167,230,69365,1,0,1:0:0:0:
183,259,69665,1,8,1:0:0:0:
183,259,69815,1,8,1:0:0:0:
183,259,69965,1,0,1:0:0:0:
183,259,70265,1,8,1:0:0:0:
224,259,70565,1,8,1:0:0:0:
190,266,71165,1,0,1:0:0:0:
190,266,71315,1,0,1:0:0:0:
190,266,71465,1,8,1:0:0:0:
197,263,71765,1,0,1:0:0:0:
197,263,72065,1,8,1:0:0:0:
197,263,72365,1,0,1:0:0:0:
197,263,72515,1,0,1:0:0:0:
197,263,72665,1,8,1:0:0:0:
197,263,72815,1,8,1:0:0:0:
165,239,72965,1,0,1:0:0:0:
165,239,73565,1,8,1:0:0:0:
165,239,73715,1,0,1:0:0:0:
167,230,73865,1,8,1:0:0:0:
167,230,74165,1,0,1:0:0:0:
183,259,74465,1,8,1:0:0:0:
183,259,74615,1,8,1:0:0:0:
183,259,74765,1,0,1:0:0:0:
183,259,75065,1,8,1:0:0:0:
224,259,75365,1,0,1:0:0:0:
190,266,75965,1,0,1:0:0:0:
190,266,76115,1,0,1:0:0:0:
190,266,76265,1,8,1:0:0:0:
197,263,76565,1,8,1:0:0:0:
197,263,76715,1,8,1:0:0:0:
197,263,76865,1,8,1:0:0:0:
197,263,77165,1,0,1:0:0:0:
197,263,77315,1,0,1:0:0:0:
197,263,77465,1,0,1:0:0:0:
178,262,77765,1,12,1:0:0:0:
199,272,78215,1,8,1:0:0:0:
199,272,78515,1,0,1:0:0:0:
200,273,78665,1,8,1:0:0:0:
189,283,78815,1,8,1:0:0:0:
182,286,78965,1,0,1:0:0:0:
180,284,79415,1,0,1:0:0:0:
179,290,79865,1,8,1:0:0:0:
202,265,80165,1,4,1:0:0:0:
202,265,80765,1,0,1:0:0:0:
202,265,80915,1,0,1:0:0:0:
209,268,81065,1,8,1:0:0:0:
218,271,81365,1,8,1:0:0:0:
208,269,81515,1,8,1:0:0:0:
216,268,81665,1,0,1:0:0:0:
245,269,81965,1,8,1:0:0:0:
191,256,82115,1,8,0:0:0:0:
245,269,82265,1,0,1:0:0:0:
245,269,82415,1,8,1:0:0:0:
245,269,82565,1,4,1:0:0:0:
230,262,83165,1,0,1:0:0:0:
231,262,83315,1,0,1:0:0:0:
231,262,83465,1,8,1:0:0:0:
232,262,83765,1,4,1:0:0:0:
232,262,84365,1,0,1:0:0:0:
232,262,84515,1,0,1:0:0:0:
230,262,84665,1,8,1:0:0:0:
223,255,84965,1,0,1:0:0:0:
226,269,85265,1,8,1:0:0:0:
226,270,85415,1,0,1:0:0:0:
223,259,85565,1,0,1:0:0:0:
221,260,85715,1,8,1:0:0:0:
221,260,85865,1,8,1:0:0:0:
221,264,86165,1,8,1:0:0:0:
202,225,86315,1,8,1:0:0:0:
202,225,86465,1,0,1:0:0:0:
197,255,86615,1,0,1:0:0:0:
201,216,86765,1,8,1:0:0:0:
199,216,87065,1,0,1:0:0:0:
199,216,87215,1,0,1:0:0:0:
